#TITLE:スーパーマリオワールドで、ウエスタンショー;
#SUBTITLE:;
#ARTIST:ヒャダイン;
#TITLETRANSLIT:Super Mario World de, uesutanshou;
#SUBTITLETRANSLIT:;
#ARTISTTRANSLIT:Hyadain;
#GENRE:Anime/Game;
#CREDIT:;
#BANNER:;
#BACKGROUND:Super Mario-bg.png;
#LYRICSPATH:;
#CDTITLE:;
#MUSIC:Super Mario.ogg;
#OFFSET:0.799000;
#SAMPLESTART:30.030195;
#SAMPLELENGTH:15.000000;
#SELECTABLE:YES;
#DISPLAYBPM:140.000000;
#BPMS:0.000000=140.000000
;
#STOPS:
;
#BGCHANGES:2.500=Super Mario.avi=1.000=0=0=0=StretchNoLoop====,
99999=-nosongbg-=1.000=0=0=0 // don't automatically add -songbackground-
;
#KEYSOUNDS:;
#ATTACKS:;

//---------------dance-single - ----------------
#NOTES:
     dance-single:
     :
     Easy:
     5:
     0.274960,0.320063,0.076433,0.326577,0.000000,277.000000,266.000000,11.000000,47.000000,0.000000,0.000000,0.274960,0.320063,0.076433,0.326577,0.000000,277.000000,266.000000,11.000000,47.000000,0.000000,0.000000:
0000
0000
0000
0000
,
0000
0000
0000
0000
,
0000
0000
0000
0000
,
0000
0000
0000
0000
,
0000
0000
0000
0000
,
0000
0000
0000
0000
,
1000
0000
1000
0100
,
0010
0000
0001
0010
,
0100
0000
1000
0100
,
0001
0000
0001
0010
,
1000
1000
0200
0300
,
0001
0001
0200
0300
,
1000
1000
0020
0030
,
0001
0001
0020
0030
,
0100
1000
0020
0030
,
0100
0001
0020
0030
,
0100
0001
2000
3000
,
0010
1000
0002
0003
,
0100
0200
0300
0010
,
1000
2000
3000
0001
,
0010
0020
0030
0100
,
1000
2000
3000
0001
,
0010
1000
0100
0010
,
0001
0100
0010
1000
,
2002
0000
0000
3003
,
0001
0100
1000
0100
,
0001
0010
1000
0010
,
1000
0100
0010
0001
,
0010
0100
1000
0010
,
0001
0100
0010
0110
,
0001
0100
1000
0010
,
1000
0010
0001
0100
,
1000
0100
0001
0010
,
0001
0100
0010
1001
,
2000
0100
0100
3100
,
0002
0100
0100
0103
,
2000
0010
0010
3010
,
0002
0010
0010
0013
,
0100
1000
0010
0100
,
0001
0100
0010
0001
,
1000
0010
0100
0001
,
0100
0010
2002
3003
,
0010
0020
0030
1000
,
0100
0200
0300
0001
,
1000
2000
3000
0010
,
0001
0002
0003
0100
,
1000
0010
1000
0100
,
0001
0100
0001
0010
,
0200
0010
0010
0310
,
0002
0000
0013
0000
,
2000
0000
3010
0000
,
0002
0000
0103
0000
,
2000
0000
3100
0000
,
0002
0100
0000
0103
,
2000
0100
0000
3100
,
0002
0010
0000
0013
,
2000
0010
0000
3010
,
0210
0010
0020
0330
,
0001
0100
1000
0100
,
0010
0010
0100
0100
,
1000
0010
0100
0001
,
0010
0010
0220
0330
,
0001
0100
1000
0010
,
1000
0010
0001
0100
,
1000
0100
0010
0001
,
0100
0100
0220
0330
,
0001
0200
0300
1000
,
0100
0020
0030
0001
,
0100
2000
3000
0010
,
1000
0200
0300
0001
,
0010
0010
0100
0100
,
1000
0001
1000
0001
,
0020
0100
0200
0330
,
0200
0010
0020
0330
,
0001
1001
1000
0000
,
1000
0100
0010
0010
,
0001
0100
0010
0010
,
1000
0100
0001
0001
,
0010
0100
1000
1000
,
0010
0100
0001
1001
,
0100
1000
0010
0010
,
1000
0001
0100
0100
,
1000
0010
0100
0001
,
0010
0100
1001
0110
;

//---------------dance-single - ----------------
#NOTES:
     dance-single:
     :
     Beginner:
     2:
     0.103234,0.174059,0.048639,0.000000,0.000000,104.000000,97.000000,7.000000,0.000000,0.000000,0.000000,0.103234,0.174059,0.048639,0.000000,0.000000,104.000000,97.000000,7.000000,0.000000,0.000000,0.000000:
0000
0000
0000
0000
,
0000
0000
0000
0000
,
0000
0000
0000
0000
,
0000
0000
0000
0000
,
0000
0000
0000
0000
,
0000
0000
0000
0000
,
1000
0000
0000
0000
,
1000
0000
0000
0000
,
0001
0000
0000
0000
,
0001
0000
0000
0000
,
0100
0000
0100
0000
,
0100
0000
0000
0000
,
0010
0000
0010
0000
,
0010
0000
0000
0000
,
1000
0000
1000
0000
,
1000
0000
0000
0000
,
0001
0000
0001
0000
,
0001
0000
0000
0000
,
0100
0000
0000
0000
,
0100
0000
0000
0000
,
0010
0000
0000
0000
,
0010
0000
0000
0000
,
1000
0000
1000
0000
,
0001
0000
0001
0000
,
1001
0000
0000
0000
,
1000
0000
0000
0000
,
0010
0000
0000
0000
,
0100
0000
0000
0000
,
0001
0000
0000
0000
,
0001
0000
0000
0000
,
0100
0000
0000
0000
,
0010
0000
0000
0000
,
1000
0000
0000
0000
,
1000
0000
0000
0000
,
0010
0000
0010
0000
,
0010
0000
0000
0000
,
0100
0000
0100
0000
,
0100
0000
0000
0000
,
0001
0000
0001
0000
,
0001
0000
0000
0000
,
1000
0000
1000
0000
,
1000
0000
0000
0000
,
0100
0000
0000
0000
,
1000
0000
0000
0000
,
0010
0000
0000
0000
,
0001
0000
0000
0000
,
0010
0000
0010
0000
,
0100
0000
0100
0000
,
0110
0000
0000
0000
,
1000
0000
0000
0000
,
1000
0000
0000
0000
,
0001
0000
0000
0000
,
0001
0000
0000
0000
,
0100
0000
0000
0000
,
0100
0000
0000
0000
,
0010
0000
0000
0000
,
0010
0000
0000
0000
,
0000
0000
0000
1001
,
0010
0000
0010
0000
,
0100
0000
0100
0000
,
0010
0000
0010
0000
,
0100
0000
0100
0000
,
1000
0000
0000
0000
,
0001
0000
0000
0000
,
0100
0000
0000
0000
,
0010
0000
0000
0000
,
1000
0000
0000
0000
,
1000
0000
0000
0000
,
0001
0000
0000
0000
,
0001
0000
0000
0000
,
1000
0000
0100
0000
,
0010
0000
0001
0000
,
1001
0000
0000
0000
,
0110
0000
0000
0000
,
1001
0000
0000
0000
,
1000
0000
0000
0000
,
0100
0000
0000
0000
,
0010
0000
0000
0000
,
0001
0000
0000
0000
,
0001
0000
0000
0000
,
0010
0000
0000
0000
,
0100
0000
0000
0000
,
1000
0000
0000
0000
,
1000
0000
1001
0000
;

//---------------dance-single - ----------------
#NOTES:
     dance-single:
     :
     Medium:
     9:
     0.369260,0.407353,0.159814,0.222350,0.000000,372.000000,349.000000,23.000000,32.000000,0.000000,0.000000,0.369260,0.407353,0.159814,0.222350,0.000000,372.000000,349.000000,23.000000,32.000000,0.000000,0.000000:
0000
0000
0000
0000
,
0000
0000
0000
0000
,
0000
0000
0000
0000
,
0000
0000
0000
0000
,
0000
0000
0000
0000
,
0000
0000
0000
0000
,
1000
1000
0010
0100
,
0001
0001
0100
0010
,
1000
0100
0010
0001
,
0010
0100
1001
0110
,
1000
0000
0100
0000
0010
0100
0010
0000
,
0001
0100
1000
0010
,
0001
0000
0100
0000
0010
0100
0010
0000
,
1000
0100
0010
1001
,
0001
0000
0100
0000
1000
0100
1000
0000
,
0010
1000
0100
0110
,
0001
0000
0010
0000
0001
0010
0001
0000
,
0100
0010
2002
3003
,
1000
0100
0010
0010
,
0001
0010
0200
0310
,
1000
0100
0001
0001
,
0010
0100
2000
3001
,
1000
0010
0100
0001
,
0100
0010
1000
1001
,
0210
0010
0010
0310
,
0001
0100
0001
0000
1000
0000
0010
0000
,
1000
0100
1000
0000
0001
0000
0010
0000
,
0100
0000
1000
0000
0010
0100
0010
0000
,
1000
0000
0001
0000
0100
0010
0100
0000
,
0001
0100
1000
1001
,
1000
0000
0010
0000
0001
0010
0001
0000
,
0100
0000
0010
0000
1000
0100
1000
0000
,
0010
0000
1000
0000
0100
0001
0100
0000
,
0001
0000
0010
0000
0100
1000
0100
0000
,
0020
0100
0001
0130
,
0200
0010
1000
0310
,
1000
0010
0100
0000
0001
0000
1000
0000
,
0001
0100
0010
0000
1000
0000
1001
0000
,
1000
0000
0100
0000
0010
0010
0010
0000
,
0001
0000
0100
0000
0010
0010
0010
0000
,
1000
0000
0001
0000
0100
0100
0100
0000
,
1000
0010
2002
3003
,
0200
1000
0010
1300
,
0020
0100
0001
0130
,
0002
0100
0010
0103
,
2000
0010
0100
3010
,
1000
0010
0100
0000
0001
0000
1000
0000
,
0001
0100
0010
0000
1000
0000
0001
0000
,
2001
0001
0001
3001
,
0020
1000
0100
0031
,
0002
0100
0010
1003
,
2000
0010
0100
3001
,
0200
0001
0010
1300
,
0010
1000
0010
1001
,
0100
0001
0100
1001
,
0010
1000
0100
1010
,
0010
0100
0001
1001
,
0010
0100
0220
0330
,
0001
0100
0001
0000
1000
0000
0010
0000
,
1000
0100
1000
0000
0010
0000
0100
0000
,
0001
1000
0001
0000
0100
0000
0010
0000
,
1000
0001
1000
0000
0020
0000
0130
0000
,
1000
0000
0100
0000
0010
0100
0010
0000
,
0001
0000
0010
0000
0100
0010
0100
0000
,
1000
0010
0001
0100
,
0001
1000
0001
0000
0110
0000
1001
0000
,
2000
3100
0002
0103
,
2000
3100
0002
0013
,
2000
3010
0002
0013
,
2000
3010
0002
0103
,
1000
0010
1000
0000
0001
0010
0001
0000
,
1000
0100
1000
0000
0001
0100
0001
0000
,
0210
0010
0010
0310
,
2001
0001
0001
3001
,
0012
0010
0010
0013
,
0110
0000
0100
0000
1000
0010
1000
0000
,
0100
0000
0010
0000
0001
0010
0001
0000
,
1000
0000
0010
0000
1000
0100
1000
0000
,
0001
0000
0100
0000
0010
0100
0010
0000
,
1000
0000
0001
0000
1000
0001
1000
0001
,
0010
0000
1000
0000
0100
1000
0100
0000
,
0010
0000
0100
0000
0001
0010
0001
0000
,
1000
0000
0100
0000
0001
0010
1000
0000
,
0010
0000
0100
0000
0001
1000
1001
0000
;

//---------------dance-single - ----------------
#NOTES:
     dance-single:
     :
     Hard:
     12:
     0.533045,0.552836,0.180660,0.069484,0.090330,537.000000,511.000000,26.000000,10.000000,0.000000,0.000000,0.533045,0.552836,0.180660,0.069484,0.090330,537.000000,511.000000,26.000000,10.000000,0.000000,0.000000:
// measure 0
0000
0000
0000
0000
,  // measure 1
0000
0000
0000
0000
,  // measure 2
0000
0000
0000
0000
,  // measure 3
0000
0000
0000
0000
,  // measure 4
0000
0000
0000
0000
,  // measure 5
0000
0000
0000
0000
,  // measure 6
0001
0010
0100
1000
0010
0100
0010
0100
,  // measure 7
1000
0100
0010
0001
0100
0010
0100
0010
,  // measure 8
0001
0010
0100
0010
0100
0001
0100
0001
,  // measure 9
1000
0100
0010
0001
0100
1000
1100
0000
,  // measure 10
1000
0000
0010
0000
1000
0010
0100
0000
,  // measure 11
0001
0100
1000
0010
0100
0001
1001
0000
,  // measure 12
0001
0100
0010
0000
1000
0010
0100
0000
,  // measure 13
0001
0010
1000
0100
0010
1000
1010
0000
,  // measure 14
1000
0100
0010
0100
0001
0010
0100
0010
,  // measure 15
1000
0100
0001
0100
1000
0010
0001
0010
,  // measure 16
1000
0100
0010
0100
0001
0010
0100
0010
,  // measure 17
1000
0100
0010
0001
1000
0001
1001
0000
,  // measure 18
0100
0000
0000
1000
0000
0000
0000
0000
0100
0000
0000
1000
0000
0000
0000
0000
,  // measure 19
0010
0000
0000
0100
0000
0000
0000
0000
0000
0000
0001
0000
0000
0001
0000
0000
,  // measure 20
0010
0000
0000
0001
0000
0000
0000
0000
0010
0000
0000
0001
0000
0000
0000
0000
,  // measure 21
0100
0000
0000
0010
0000
0000
0000
0000
0000
0000
1000
0000
0000
1000
0000
0000
,  // measure 22
0001
1000
0010
0000
1000
0010
0100
0000
,  // measure 23
0001
0100
0010
0000
1000
0010
0100
0000
,  // measure 24
0002
0100
0010
0103
,  // measure 25
0010
0100
0010
0100
0001
0010
0100
1000
,  // measure 26
0100
0010
0100
0010
1000
0100
0010
0001
,  // measure 27
0010
0100
0010
0100
0001
0010
0100
1000
,  // measure 28
0100
0010
0100
0010
1000
0100
0010
0001
,  // measure 29
0010
0100
0010
0100
0001
0010
0100
1000
,  // measure 30
0010
1000
0010
1000
0100
0010
0100
0001
,  // measure 31
0010
0100
0010
0100
0001
0010
0100
1000
,  // measure 32
0010
0100
0010
0100
0001
0010
0100
0010
,  // measure 33
1000
0100
0010
0100
0001
0010
1001
0000
,  // measure 34
1000
0100
0010
0000
0001
0010
0100
0000
,  // measure 35
1000
0010
0100
0000
0001
0100
0010
0000
,  // measure 36
1000
0100
0001
0000
0001
0010
1000
0000
,  // measure 37
1000
0010
0100
0001
1000
1001
0110
0000
,  // measure 38
1000
0100
0010
0100
0001
0010
0100
0010
,  // measure 39
1000
0100
0001
0100
1000
0100
0010
0001
,  // measure 40
0010
0100
0010
0100
0001
1000
0001
1000
,  // measure 41
0001
0010
0100
1000
1100
0000
0101
0000
,  // measure 42
0010
0000
0000
0100
0000
0000
0000
0000
0100
0000
0000
0010
0000
0000
0000
0000
,  // measure 43
1000
0000
0000
0001
0000
0000
1000
0000
0000
0000
0010
0000
0000
0100
0000
0000
,  // measure 44
0001
0000
0000
1000
0000
0000
0000
0000
1000
0000
0000
0010
0000
0000
0000
0000
,  // measure 45
0010
0000
0000
0001
0000
0000
1000
0000
0000
0000
0010
0000
0000
0100
0000
0000
,  // measure 46
1000
0010
1000
0010
0001
0010
0001
0010
,  // measure 47
0100
1000
0100
1000
0100
0001
0100
0001
,  // measure 48
0020
0100
0001
0130
,  // measure 49
2000
0010
0100
3010
,  // measure 50
0020
0100
0001
0130
,  // measure 51
0200
0001
0010
0301
,  // measure 52
0002
0010
0100
1003
,  // measure 53
0100
0010
0100
0010
1000
0001
1000
0001
,  // measure 54
0100
0010
0100
0010
1000
0001
1000
0001
,  // measure 55
0010
0001
0010
0001
1000
0100
1000
0100
,  // measure 56
0001
0010
0001
0010
1000
0100
1000
0100
,  // measure 57
0020
0100
0130
1001
,  // measure 58
1000
0100
0010
0100
0001
0010
0100
0010
,  // measure 59
1000
0100
0001
0100
1000
0010
0001
0010
,  // measure 60
1000
0010
0100
0001
0100
0010
1000
0001
,  // measure 61
0100
0010
1000
0001
0200
0000
0310
0000
,  // measure 62
0001
0100
0001
0000
1000
0100
1000
0000
,  // measure 63
0010
1000
0100
0010
0100
0001
1001
0000
,  // measure 64
0001
0100
0010
0000
1000
0010
0100
0000
,  // measure 65
0001
0010
0100
1000
0001
1000
1001
0000
,  // measure 66
1000
0000
0000
1100
0000
0000
0000
0000
0001
0000
0000
0101
0000
0000
0000
0000
,  // measure 67
0010
0000
0000
1010
0000
0000
1001
0000
0000
0000
0100
0000
0000
0101
0000
0000
,  // measure 68
0010
0000
0000
1010
0000
0000
0000
0000
0100
0000
0000
0101
0000
0000
0000
0000
,  // measure 69
0001
0000
0000
0011
0000
0000
0110
0000
0000
0000
1100
0000
0000
1001
0000
0000
,  // measure 70
0010
1000
0100
0010
0001
0100
0010
1000
,  // measure 71
0100
0010
0100
0001
0010
0100
1000
0010
,  // measure 72
0200
0010
1000
0310
,  // measure 73
0020
0100
0001
0130
,  // measure 74
0001
0000
0100
0000
0010
0000
1000
0000
0001
0000
0000
0001
1000
0001
1000
0000
,  // measure 75
1001
0000
0010
1000
0100
0010
0001
0000
,  // measure 76
0100
0010
0100
0001
0010
0100
1000
0010
,  // measure 77
0100
0010
0100
0010
1000
0100
0010
0001
,  // measure 78
0010
0100
0010
0100
0001
0010
0100
1000
,  // measure 79
0010
0100
0010
0100
1000
0100
0001
1000
,  // measure 80
0010
1000
0010
1000
0001
0010
0100
1000
,  // measure 81
0001
0010
0001
0010
1000
0100
0010
0001
,  // measure 82
0100
1000
0100
1000
0010
0100
0001
1000
,  // measure 83
0010
1000
0100
0010
0001
0101
1100
0000
;
