#TITLE:Summerblue;
#SUBTITLE:;
#ARTIST:Toby Fox & Camellia;
#TITLETRANSLIT:;
#SUBTITLETRANSLIT:;
#ARTISTTRANSLIT:;
#GENRE:beatmania IIDX;
#CREDIT:;
#BANNER:;
#BACKGROUND:;
#LYRICSPATH:;
#CDTITLE:;
#MUSIC:Summerblue.ogg;
#OFFSET:-0.060000;
#SAMPLESTART:72.852119;
#SAMPLELENGTH:15.000000;
#SELECTABLE:YES;
#BPMS:0.000000=145.000000
;
#STOPS:
;
#BGCHANGES:3.500=Summerblue.avi=1.000=0=0=0=StretchNoLoop====,
99999=-nosongbg-=1.000=0=0=0 // don't automatically add -songbackground-
;
#KEYSOUNDS:;
#ATTACKS:;

//---------------dance-single - ----------------
#NOTES:
     dance-single:
     :
     Beginner:
     1:
     0.090310,0.144385,0.015609,0.070241,0.000000,81.000000,79.000000,2.000000,9.000000,0.000000,0.000000,0.090310,0.144385,0.015609,0.070241,0.000000,81.000000,79.000000,2.000000,9.000000,0.000000,0.000000:
0000
0000
0000
0000
,
0000
0000
0000
0000
,
0000
0000
0000
0000
,
0000
0000
0000
0000
,
0000
0000
0000
0000
,
0000
0000
0000
0000
,
1000
0000
0000
0000
,
0100
0000
0000
0000
,
0010
0000
0000
0000
,
0001
0000
0000
0000
,
0001
0000
1000
0000
,
0001
0000
1000
0000
,
0010
0000
0100
0000
,
0010
0000
0100
0000
,
0001
0000
0000
0000
,
1000
0000
0000
0000
,
0010
0000
0000
0000
,
0100
0000
0000
0000
,
1000
0000
0000
0000
,
0100
0000
0000
0000
,
0010
0000
0000
0000
,
0001
0000
0000
0000
,
1000
0000
0000
0000
,
0010
0000
0000
0000
,
0100
0000
0000
0000
,
0001
0000
0000
0000
,
0000
0000
0000
0000
,
1000
0000
0100
0000
,
1000
0000
0000
0000
,
0001
0000
0100
0000
,
0001
0000
0000
0000
,
1000
0000
0010
0000
,
1000
0000
0000
0000
,
0001
0000
0010
0000
,
0002
0000
0000
0000
,
0003
0000
0000
0000
,
2000
0000
0000
0000
,
3000
0000
0000
0000
,
0020
0000
0000
0000
,
0030
0000
0000
0000
,
0200
0000
0000
0000
,
0300
0000
0000
0000
,
2002
0000
0000
0000
,
3003
0000
0000
0000
,
1000
0000
0100
0000
,
1000
0000
0000
0000
,
0001
0000
0100
0000
,
0001
0000
0000
0000
,
1000
0000
0010
0000
,
1000
0000
0000
0000
,
0001
0000
0010
0000
,
0001
0000
0000
0000
,
1000
0000
0000
0000
,
0001
0000
0000
0000
,
1000
0000
0000
0000
,
0010
0000
0000
0000
,
0100
0000
0000
0000
,
0010
0000
0000
0000
,
0100
0000
0000
0000
,
0001
0000
0000
0000
,
1000
0000
0000
0000
,
0001
0000
0000
0000
,
1000
0000
0000
0000
,
0010
0000
0100
0000
,
0010
0000
0100
0000
,
0001
0000
1000
0000
,
0001
0000
1000
0000
,
0100
0000
1000
0000
,
0100
0000
0000
0000
,
0010
0000
0001
0000
,
0010
0000
0000
0000
,
2002
0000
0000
0000
,
3003
0000
0000
0000
,
0200
0000
0000
0000
,
0300
0000
0000
0000
;

//---------------dance-single - ----------------
#NOTES:
     dance-single:
     :
     Easy:
     6:
     0.272045,0.320866,0.054632,0.234137,0.000000,244.000000,237.000000,7.000000,30.000000,0.000000,0.000000,0.272045,0.320866,0.054632,0.234137,0.000000,244.000000,237.000000,7.000000,30.000000,0.000000,0.000000:
0000
0000
0000
0000
,
0000
0000
0000
0000
,
0000
0000
0000
0000
,
0000
0000
0000
0000
,
0000
0000
0000
0000
,
0000
0000
0000
0000
,
0001
0000
1000
0000
,
0010
0010
0010
0000
,
1000
0000
0001
0000
,
0200
0000
0010
0310
,
0001
0100
1000
0100
,
0001
0010
1000
0010
,
1000
0010
0001
0010
,
1000
0100
0001
0100
,
1000
0001
1000
0001
,
0100
0010
0100
0010
,
0001
0100
1000
0010
,
0002
0000
2000
3003
,
0100
1000
0010
0010
,
0100
0001
0020
0000
,
0130
1000
0001
0001
,
1000
0001
0200
0000
,
0301
0100
0010
0010
,
1000
0001
0200
0000
,
0301
1000
0010
1000
,
0002
0000
0000
2000
0000
0000
0000
0000
,
3003
0010
0100
0010
,
1000
0100
1000
0010
,
0001
0100
0001
0010
,
0001
0100
0010
1000
,
0010
0100
0010
0110
,
1000
0010
0100
0001
,
0001
0100
0010
1000
,
0002
0000
2000
3003
,
0200
0000
1000
1300
,
0200
0000
0000
0000
0001
0000
0001
0300
,
0020
0000
1000
1030
,
0020
0000
0001
0031
,
0100
0001
0100
1000
,
0010
0001
0010
1000
,
0001
1000
0001
1000
,
0020
0100
0200
0330
,
0002
0000
0000
0000
,
2000
0000
0000
3003
,
0100
1000
0100
0001
,
0010
1000
0010
0001
,
0100
0010
1000
0001
,
0001
0100
0010
1000
,
0001
0000
0100
0000
0010
0010
0010
0000
,
1000
0000
0001
0000
0100
0100
0100
0000
,
0020
0000
0200
0330
,
0002
0000
1000
1003
,
0100
0010
0100
0110
,
2000
0000
0001
3001
,
0100
1000
0010
1001
,
0200
0001
1000
0301
,
0010
1000
0010
0001
,
0200
0001
1000
0301
,
0010
0001
0010
1000
,
0020
0000
0100
0130
,
0001
1000
0010
0110
,
2000
0000
0001
3001
,
0100
1000
0010
0110
,
0001
0100
1000
0010
,
1000
0010
0001
0100
,
0001
1000
0010
0100
,
0001
0100
1000
1001
,
0100
0000
1000
0000
0010
0010
0010
0000
,
0100
0001
0010
1000
,
0010
0000
0001
0000
0100
0100
0100
0000
,
0001
1000
0010
0100
,
2001
0000
0000
0000
,
3200
0000
0000
0000
,
0320
0000
0000
0000
,
0032
0000
1000
1003
;

//---------------dance-single - ----------------
#NOTES:
     dance-single:
     :
     Medium:
     10:
     0.364585,0.439007,0.187310,0.257551,0.023414,327.000000,303.000000,24.000000,33.000000,0.000000,0.000000,0.364585,0.439007,0.187310,0.257551,0.023414,327.000000,303.000000,24.000000,33.000000,0.000000,0.000000:
0000
0000
0000
0000
,
0000
0000
0000
0000
,
0000
0000
0000
0000
,
0000
0000
0000
0000
,
0000
0000
0000
0000
,
0000
0000
0000
0000
,
2001
0100
0100
3100
,
1002
0100
0100
0103
,
1001
0000
0010
0100
0010
0000
0100
0010
,
0200
0000
0010
0310
,
0001
0100
1000
0000
0001
0000
1001
0000
,
1000
0010
0001
0000
1000
0000
1001
0000
,
0100
0010
1000
0000
0010
0000
0110
0000
,
0010
0001
0100
0000
0100
0000
0110
0000
,
0001
0100
1000
0000
1000
0100
0001
0000
,
0001
0010
1000
0000
1000
0010
0001
0000
,
1000
0001
1000
0001
0100
0010
0100
0010
,
0002
0000
0000
2000
0000
0000
0000
0000
0000
0000
0000
0000
3003
0000
0000
0000
,
0200
0010
0000
1300
,
0020
0001
0000
0130
,
0002
1000
0000
0103
,
2000
0000
0000
0000
0001
0000
0000
0000
0000
0000
0000
3000
0010
0000
0000
0000
,
0001
0100
0001
0000
1000
0100
1000
0000
,
0010
0100
0010
0000
1000
0001
1000
0000
,
0001
0100
0010
1000
0000
1000
0010
0000
,
1000
0000
0000
0001
0000
0000
2000
0000
0000
0000
0000
0000
0000
0000
0000
0000
,
3001
0100
0010
0110
,
0001
0100
1000
0000
0010
0000
1010
0000
,
1000
0010
0001
0000
0100
0000
0101
0000
,
0100
1000
0001
0010
,
1000
0001
1000
0000
0010
0100
0010
0000
,
0001
0100
1000
0000
0010
0000
1010
0000
,
1000
0010
0001
0000
0100
0000
0101
0000
,
0200
0000
0000
0010
0000
0000
0000
0310
0000
0000
0000
0000
0001
0000
1000
0000
,
0020
0000
1000
0000
,
0001
0000
1000
1030
,
0200
0000
0001
0000
,
1000
0000
0001
0301
,
0010
1000
0010
0001
,
0100
0001
0100
1000
,
0010
0100
0010
0000
0100
0010
0100
0000
,
0002
1000
1000
1003
,
2002
0000
0000
3003
,
0100
0000
0000
0010
0000
0000
0100
0000
0000
0020
0000
0000
0000
0000
0000
0000
,
0130
0000
0001
0000
0100
0000
1000
0100
,
1000
0000
0010
0000
0100
0000
0010
0001
,
0010
0000
1000
0000
0100
0000
0001
1000
,
0001
0000
0010
0000
0100
0000
1000
0001
,
1000
0100
1000
0000
0010
0000
0100
0000
,
0010
0001
0010
0000
0100
0000
0010
0000
,
0002
1000
1000
1003
,
0201
0000
1000
1300
,
0010
1000
0001
0000
0100
0010
1000
0000
,
1020
0000
0001
0031
,
0001
0100
1000
0000
1000
0010
0001
0000
,
0100
0010
0100
0000
0001
0000
1001
0000
,
0010
0100
0010
0000
1000
0000
1001
0000
,
0100
1000
0010
0000
0001
0000
1001
0000
,
0010
0001
0100
0000
1000
0000
1001
0000
,
0200
1000
1000
0310
,
0020
0001
0001
0130
,
0001
0100
0010
0000
1000
0010
0100
0000
,
0001
1000
0001
1000
0010
0100
0010
0000
,
0001
0100
1000
1010
,
1000
0010
0001
0101
,
0001
0100
0010
0000
1000
0010
0100
0000
,
0002
1000
1000
1003
,
0001
0100
1000
0000
0010
0000
1010
0000
,
1000
0010
0001
0000
0100
0000
0101
0000
,
0001
0100
0010
0000
1000
0010
0100
0000
,
0002
0000
0000
0000
1000
0000
0000
0000
1000
0003
0000
0000
0100
0000
0000
0000
,
0220
0030
2000
0300
,
0020
3000
0200
0030
,
0002
0300
0020
0003
,
0200
0030
2000
0000
,
3300
0000
0000
0000
;

//---------------dance-single - ----------------
#NOTES:
     dance-single:
     :
     Hard:
     13:
     0.532941,0.643341,0.039023,0.171701,0.265355,478.000000,473.000000,5.000000,22.000000,0.000000,0.000000,0.532941,0.643341,0.039023,0.171701,0.265355,478.000000,473.000000,5.000000,22.000000,0.000000,0.000000:
// measure 0
0000
0000
0000
0000
,  // measure 1
0000
0000
0000
0000
,  // measure 2
0000
0000
0000
0000
,  // measure 3
0000
0000
0000
0000
,  // measure 4
0000
0000
0000
0000
,  // measure 5
0000
0000
0000
0000
,  // measure 6
0201
0000
0001
0000
0001
0000
0301
0010
,  // measure 7
0210
0000
0000
0010
0000
0000
0000
0000
0010
0000
0000
0000
0310
0000
0000
0000
,  // measure 8
0001
0100
1000
0100
0001
0010
1000
0010
,  // measure 9
0002
0000
1000
1003
,  // measure 10
0100
1000
0010
0100
0001
0100
0010
1000
,  // measure 11
0001
0000
0010
0000
0100
0000
0010
0000
1000
0000
0010
0000
1000
0001
1000
0000
,  // measure 12
0010
0100
1000
0100
0010
0001
0100
0010
,  // measure 13
1000
0000
0001
0000
0010
0000
0100
0000
1000
0000
0010
0000
0001
1000
0001
0000
,  // measure 14
1000
0010
0100
0001
0010
1000
0100
0001
,  // measure 15
0010
0000
1000
0000
0100
0000
0001
0000
0010
0000
1000
0000
0100
0010
0100
0000
,  // measure 16
0001
0010
0100
1000
0010
0100
0001
0100
,  // measure 17
0020
0000
0000
0200
0000
0000
0000
0000
0000
0000
0000
0000
0330
0000
0000
0000
,  // measure 18
0001
0100
1000
0000
1000
0100
0001
0000
,  // measure 19
0001
0010
1000
0000
1000
0010
0001
0000
,  // measure 20
1000
0010
0100
0000
0001
0100
0010
0000
,  // measure 21
0001
1000
0001
1000
0010
0100
0010
0100
,  // measure 22
0001
0010
0100
0000
1000
0100
0010
0000
,  // measure 23
0001
1000
0010
0000
1000
0001
0100
0000
,  // measure 24
0010
0100
0010
0100
0001
1000
0001
1000
,  // measure 25
0020
0000
0000
0100
0000
0000
0200
0000
0000
0000
0000
0000
0330
0000
0000
0000
,  // measure 26
2000
0000
0000
0000
3200
0000
0000
0000
0320
0000
0000
0002
0030
0000
0000
0000
,  // measure 27
0013
0100
1000
0100
0010
0001
0100
0000
,  // measure 28
0001
0100
0010
1000
0010
0100
0001
0000
,  // measure 29
0001
0000
0100
0000
0010
0000
1000
0000
0100
0000
0010
0000
0001
0000
1000
0001
,  // measure 30
1000
0000
0001
0000
0100
0000
0010
0000
1000
0000
0001
1000
0001
1000
0001
0000
,  // measure 31
0010
1000
0100
0010
0100
0001
0010
0100
,  // measure 32
1000
0000
0001
0000
1000
0000
0010
0000
0100
0000
0001
0000
0100
0010
0100
0000
,  // measure 33
0001
0000
1000
0001
0000
1000
0000
0010
0000
0000
0010
0000
0100
0000
0001
0000
,  // measure 34
2000
0010
0000
3100
,  // measure 35
0002
0100
0000
0013
,  // measure 36
0200
0000
0000
0000
0010
0000
0000
0000
0000
0000
0000
0000
1000
0300
0000
0000
,  // measure 37
0020
0100
0000
0031
,  // measure 38
0001
0100
0010
0000
1000
0010
0100
0000
,  // measure 39
0001
1000
0010
0000
1000
0001
0100
0000
,  // measure 40
0001
0100
1000
0100
0001
0010
1000
0010
,  // measure 41
0001
1000
0010
0100
0001
0100
0010
1000
,  // measure 42
0002
0000
1000
1000
,  // measure 43
1003
0000
0000
0010
0000
0000
0100
0000
0000
0001
0000
0000
1001
0000
0000
0000
,  // measure 44
0010
0000
1000
0010
0000
1000
0010
0000
0100
0000
0001
0000
0010
0000
1000
0000
,  // measure 45
0100
0000
0001
0100
0000
0001
0100
0000
0001
0000
0010
0000
0100
0000
1000
0000
,  // measure 46
0010
0000
0001
1000
0000
0001
1000
0000
0010
0000
0100
0000
1000
0000
0001
0000
,  // measure 47
0010
0000
0100
0010
0000
0100
0010
0000
1000
0000
0001
0000
0100
0010
0100
0000
,  // measure 48
0001
0000
0100
0010
0000
1000
0010
0000
0100
0000
0001
0000
0010
0000
1000
0000
,  // measure 49
0001
0000
0010
0100
0000
0001
0100
0000
0010
0000
0100
0000
1000
0000
0010
0000
,  // measure 50
0001
0000
1000
0010
0000
0100
0000
0001
0000
0000
0010
0000
0100
0000
0001
1000
,  // measure 51
0020
0000
0100
0000
0130
0001
1000
0000
,  // measure 52
0001
0000
0100
0000
1000
0000
0000
0000
1000
0000
0010
0000
0001
0000
1000
0010
,  // measure 53
0200
0000
1000
0000
0310
0100
0001
0000
,  // measure 54
0010
0000
1000
0000
0001
0000
0000
0000
0001
0000
1000
0000
0010
0000
1000
0001
,  // measure 55
0200
0000
0010
0000
1300
0001
0010
0000
,  // measure 56
0001
0000
0010
0000
1000
0000
0000
0000
0001
0000
0100
0000
0010
0000
1000
0001
,  // measure 57
0020
0000
0100
0000
0031
0100
1000
0000
,  // measure 58
0010
0100
0001
1000
0010
0000
0110
0000
,  // measure 59
1000
0100
0001
0100
1000
0100
0001
0100
,  // measure 60
1000
0010
0001
0010
1000
0010
0001
0010
,  // measure 61
1000
0001
0100
0000
0001
1000
0010
0000
,  // measure 62
0001
0000
1000
0010
0000
0100
0000
0001
0000
1000
0010
0000
0001
0000
0000
0000
,  // measure 63
1001
0000
0010
0000
0100
0000
0001
0000
1000
0001
1000
0000
0010
0000
1000
0000
,  // measure 64
0100
0000
0001
0000
0010
0000
0100
0000
0001
1000
0001
0000
0010
0000
0100
0000
,  // measure 65
1000
0000
0001
0000
0010
0000
0100
0000
0010
1000
0001
0000
0010
0000
0100
0000
,  // measure 66
0010
0000
1000
0001
0000
0010
0000
0100
0000
0001
1000
0000
0010
0000
0001
0000
,  // measure 67
0010
0000
1000
0010
0000
0100
0000
0001
0000
0010
0100
0000
0001
0000
1000
0000
,  // measure 68
0010
0000
0100
0001
0000
0010
0000
0100
0000
1000
0001
0000
0010
0000
1000
0000
,  // measure 69
0100
0000
0001
0010
0000
1000
0000
0100
0000
0010
0001
0000
1000
0000
0010
0000
,  // measure 70
0100
0001
0100
0010
0000
1000
0000
0010
0000
0100
0001
0000
0010
1000
0010
0100
,  // measure 71
0002
0000
0100
0000
,  // measure 72
0010
0010
0103
0000
,  // measure 73
2000
0000
0010
0000
,  // measure 74
0100
0000
0000
0000
0100
0000
0000
0000
3010
0000
0000
0000
0100
0010
0100
0010
;
