#TITLE:シュガーソングとビターステップ;
#SUBTITLE:;
#ARTIST:UNISON SQUARE GARDEN;
#TITLETRANSLIT:Sugar song to bitter step;
#SUBTITLETRANSLIT:;
#ARTISTTRANSLIT:;
#GENRE:Anime/Game;
#CREDIT:;
#BANNER:;
#BACKGROUND:;
#LYRICSPATH:;
#CDTITLE:;
#MUSIC:Sugar song to bitter step.ogg;
#OFFSET:1.399000;
#SAMPLESTART:67.650024;
#SAMPLELENGTH:15.000000;
#LASTBEATHINT:0.801099;
#SELECTABLE:YES;
#DISPLAYBPM:132.000000;
#BPMS:0.000000=132.000000
,204.000000=132.250000
,208.000000=132.000000
;
#STOPS:
;
#BGCHANGES:;
#KEYSOUNDS:;
#ATTACKS:;

//---------------dance-single - ----------------
#NOTES:
     dance-single:
     :
     Easy:
     5:
     0.256993,0.295396,0.193276,0.334515,0.000000,242.000000,216.000000,26.000000,45.000000,0.000000,0.000000,0.256993,0.295396,0.193276,0.334515,0.000000,242.000000,216.000000,26.000000,45.000000,0.000000,0.000000:
0000
0000
0000
0000
,
0000
0000
0000
0000
,
0000
0000
0000
0000
,
0000
0000
0000
0000
,
0000
0000
0000
0000
,
0000
0000
0000
0000
,
1001
0000
0100
0000
,
1001
0000
0010
0000
,
1000
0100
0010
0001
,
2001
0001
0002
3003
,
0001
0100
0010
0010
,
1000
0010
0200
0300
,
0001
0100
1000
1000
,
0010
0100
0010
0110
,
1000
0100
0020
0030
,
0001
0010
0200
0300
,
1000
0100
0002
0003
,
0001
0010
2000
3000
,
0010
0100
1000
0100
,
0010
0010
0020
0030
,
0001
0010
0100
0010
,
0001
0001
0002
0003
,
0100
1000
0010
1000
,
0100
0010
0100
0010
,
0001
0100
0010
0100
,
0001
1000
0001
1000
,
0100
0010
0110
0000
,
0001
1000
1001
0000
,
1000
0100
0010
0001
,
1002
1000
2000
3003
,
0120
0100
0200
0330
,
0210
0010
0020
0330
,
1000
0100
0010
1001
,
0001
0010
0100
1001
,
0200
0000
0320
0000
,
2030
0000
3002
0000
,
1003
0100
0010
0001
,
2002
0000
0000
3003
,
0100
1000
0010
1000
,
0010
0010
0220
0330
,
0001
0100
0010
1000
,
0100
0100
0220
0330
,
0001
0100
0010
0001
,
0100
0100
0010
0010
,
1000
0001
0100
0010
,
0001
0010
0100
1000
,
1002
0000
1000
0000
,
2000
0000
0000
3003
,
0100
1000
0100
0001
,
0100
0010
0100
0010
,
0001
0010
1000
0010
,
0100
0010
0100
0010
,
1001
0100
1000
0100
,
0001
0010
0220
0330
,
0001
0010
0100
1000
,
0010
0100
0220
0330
,
1000
0100
0110
0001
,
0100
0010
0110
1000
,
0002
1000
2000
3003
,
2000
0001
0002
3003
,
0210
0000
0010
0000
,
0020
0000
0000
0330
,
0120
0000
0100
0000
,
0200
0000
0000
0330
,
0001
0100
0010
1010
,
1000
0010
0100
0101
,
0200
0000
0320
0000
,
1030
0001
1000
0001
,
0100
0010
1000
1100
,
1000
0010
0100
0011
,
0002
0000
2003
0000
,
3020
0100
0100
0100
,
0200
0330
0000
0000
;

//---------------dance-single - ----------------
#NOTES:
     dance-single:
     :
     Beginner:
     2:
     0.095576,0.160567,0.052036,0.000000,0.000000,90.000000,83.000000,7.000000,0.000000,0.000000,0.000000,0.095576,0.160567,0.052036,0.000000,0.000000,90.000000,83.000000,7.000000,0.000000,0.000000,0.000000:
0000
0000
0000
0000
,
0000
0000
0000
0000
,
0000
0000
0000
0000
,
0000
0000
0000
0000
,
0000
0000
0000
0000
,
0000
0000
0000
0000
,
1000
0000
0000
0000
,
0001
0000
0000
0000
,
1000
0000
0000
0000
,
0001
0000
0000
0000
,
0100
0000
1000
0000
,
0100
0000
0000
0000
,
0010
0000
0001
0000
,
0010
0000
0000
0000
,
1000
0000
0000
0000
,
0100
0000
0000
0000
,
1000
0000
0000
0000
,
0100
0000
0000
0000
,
0001
0000
0000
0000
,
0010
0000
0000
0000
,
0001
0000
0000
0000
,
0010
0000
0000
0000
,
1000
0000
0100
0000
,
1000
0000
0000
0000
,
0001
0000
0010
0000
,
0001
0000
0000
0000
,
1000
0000
0010
0000
,
0100
0000
0010
0000
,
0001
0000
0100
0000
,
0010
0000
0100
0000
,
1001
0000
0000
0000
,
1001
0000
0000
0000
,
0100
0000
0000
0000
,
0010
0000
0000
0000
,
1000
0000
0000
0000
,
0001
0000
0000
0000
,
0100
0000
0000
0000
,
0110
0000
0000
0000
,
1000
0000
0000
0000
,
0010
0000
0000
0000
,
0100
0000
0000
0000
,
0001
0000
0000
0000
,
0001
0000
0000
0000
,
0100
0000
0000
0000
,
0010
0000
0000
0000
,
1000
0000
0000
0000
,
1001
0000
0000
0000
,
0100
0000
0000
0000
,
1000
0000
0100
0000
,
1000
0000
0000
0000
,
0001
0000
0010
0000
,
0001
0000
0000
0000
,
1000
0000
0100
0000
,
0010
0000
0000
0000
,
0001
0000
0010
0000
,
0100
0000
0000
0000
,
1000
0000
0001
0000
,
0100
0000
0000
0000
,
0001
0000
1000
0000
,
0010
0000
0000
0000
,
0110
0000
0000
0000
,
0000
0000
0000
0000
,
1001
0000
0000
0000
,
0000
0000
0000
0000
,
1000
0000
0100
0000
,
0010
0000
0000
0000
,
0001
0000
0010
0000
,
0100
0000
0000
0000
,
1000
0000
0010
0000
,
0100
0000
0000
0000
,
0001
0000
0100
0000
,
0010
0000
0000
0000
,
1001
0000
0000
0000
;

//---------------dance-single - ----------------
#NOTES:
     dance-single:
     :
     Medium:
     7:
     0.339825,0.433383,0.341949,0.289913,0.014867,320.000000,274.000000,46.000000,39.000000,0.000000,0.000000,0.339825,0.433383,0.341949,0.289913,0.014867,320.000000,274.000000,46.000000,39.000000,0.000000,0.000000:
0000
0000
0000
0000
,
0000
0000
0000
0000
,
0000
0000
0000
0000
,
0000
0000
0000
0000
,
0000
0000
0000
0000
,
0000
0000
0000
0000
,
1000
0100
0010
0010
,
0001
0010
0100
0100
,
1100
0101
0011
1010
,
1001
0110
2002
3003
,
0100
0000
0010
0000
1000
0100
1000
0000
,
0010
0000
0100
0000
0001
0010
0001
0000
,
0100
0010
1000
0001
,
0110
1001
0220
0330
,
1001
0100
1000
0010
,
0001
0100
0020
0130
,
0100
0001
0010
0100
,
0001
0100
2000
3001
,
0001
0100
0010
1000
,
0010
0010
0220
0330
,
0001
0100
0010
1000
,
0100
0010
2002
3003
,
0001
0000
0100
0000
1000
0100
1000
0000
,
0010
0100
2002
3003
,
0100
0000
0010
0000
0001
0010
0001
0000
,
0100
0010
2002
3003
,
0200
1300
0010
0100
,
0002
0013
1000
0010
,
0100
0001
0100
1000
,
0020
0100
0200
0330
,
0001
0100
0001
0000
2002
0000
3003
0000
,
1000
0100
1000
0000
2002
0000
3003
0000
,
0010
1000
0020
0130
,
0001
0010
0200
0310
,
0001
0100
0010
1010
,
1000
0010
0100
0101
,
0001
0010
0100
1100
,
2002
0000
0000
3003
0110
0000
0110
0000
,
0001
0100
0010
1010
,
0010
0100
0001
0011
,
1000
0100
0001
0010
,
0200
0010
0010
0310
,
0001
0100
0010
1100
,
1000
0010
0100
0011
,
0200
0010
2000
3300
,
0020
0100
0002
0033
,
1000
0000
0000
0000
0010
0000
0000
0000
0001
0000
0000
0000
0000
0000
0000
2002
,
0000
0000
0000
3003
,
0010
0000
1000
0000
0010
0100
0010
0000
,
0001
0000
0100
0000
0010
0100
0010
0000
,
1000
0000
0010
0000
0001
1000
0001
0000
,
1000
0000
0001
0000
1000
0000
0001
0000
1000
0000
0000
0110
0000
0000
0000
0000
,
0001
0100
0001
0000
1000
0000
1100
0000
,
1000
0100
1000
0000
0001
0000
0011
0000
,
1000
0010
0100
0000
0001
0100
0010
0000
,
1000
0001
1001
0110
,
0001
0100
1000
0000
0010
0000
0110
0000
,
1000
0010
0001
0000
0100
0000
0110
0000
,
0001
0100
1000
0000
1000
0010
0001
0000
,
0100
0010
0100
0000
0001
1000
0001
0000
,
1000
0000
0000
0000
0100
0000
0000
0000
0010
0000
0000
0000
0000
0000
0000
2002
,
0000
0000
0000
3003
,
0001
0000
0000
0000
0010
0000
0000
0000
0100
0000
0000
0000
0000
0000
0000
2002
,
0000
0000
0000
3003
,
1000
0010
1000
0000
0001
0000
0011
0000
,
0001
0010
0001
0000
1000
0000
1100
0000
,
1000
0010
0100
0000
0001
0100
0010
0000
,
1000
0010
0100
0000
0001
0000
1001
0000
,
0001
0100
1000
0000
0010
0100
0010
0000
,
1000
0001
1000
0000
1000
0010
0001
0000
,
0100
0010
1000
0000
0001
0100
0010
0000
,
1100
0101
0011
1010
,
1001
0000
0220
0000
0000
0000
0000
0330
;

//---------------dance-single - ----------------
#NOTES:
     dance-single:
     :
     Hard:
     12:
     0.530977,0.568815,0.356816,0.074337,0.234161,500.000000,452.000000,48.000000,10.000000,0.000000,0.000000,0.530977,0.568815,0.356816,0.074337,0.234161,500.000000,452.000000,48.000000,10.000000,0.000000,0.000000:
// measure 0
0000
0000
0000
0000
,  // measure 1
0000
0000
0000
0000
,  // measure 2
0000
0000
0000
0000
,  // measure 3
0000
0000
0000
0000
,  // measure 4
0000
0000
0000
0000
,  // measure 5
0000
0000
0000
0000
,  // measure 6
1100
0000
0100
0010
0100
0010
1000
0000
,  // measure 7
0011
0000
0100
0010
0100
0010
0001
0000
,  // measure 8
1100
0101
0011
1010
,  // measure 9
0001
1000
0001
1000
0000
0010
0100
0010
0100
0000
0000
0000
1001
0000
0000
0000
,  // measure 10
1000
0100
0010
0000
0100
0010
0001
1000
,  // measure 11
0001
0010
0100
0000
0010
0100
1000
0010
,  // measure 12
0100
0001
0010
0000
0100
0010
1000
0001
,  // measure 13
1001
1100
0202
0303
,  // measure 14
0001
0100
1000
0010
0100
0010
1000
0000
,  // measure 15
0010
1000
0010
0100
0001
0010
0001
0000
,  // measure 16
0100
0010
1000
0000
0010
0100
0001
0000
,  // measure 17
0100
0000
0010
0000
1000
0000
0001
0000
0100
0000
0000
0000
0010
0000
0100
0010
,  // measure 18
0000
0000
0000
0000
1000
0000
0001
1000
0000
0000
0000
0000
0010
0000
1000
0000
,  // measure 19
0100
0010
0001
0100
0010
0100
1001
0000
,  // measure 20
0010
1000
0100
0001
0010
0100
1000
0010
,  // measure 21
2000
0001
3001
0000
0002
1000
1003
0000
,  // measure 22
0010
1000
0010
0100
0001
1000
0010
1000
,  // measure 23
0001
0100
0010
1000
0100
0001
0101
0000
,  // measure 24
0001
0100
1000
0010
1010
0000
1001
0000
,  // measure 25
1000
0000
0010
0000
0001
0000
0100
0000
0011
0000
0000
0000
0001
0000
0100
0010
,  // measure 26
0000
0000
0000
0000
1000
0000
0010
0100
0000
0000
0000
0000
0001
0000
0100
0000
,  // measure 27
0010
1000
0010
0100
0001
1000
1001
0000
,  // measure 28
0001
0100
1000
0100
0010
0001
0010
0100
,  // measure 29
1000
0010
0100
0001
1001
0000
0100
1000
,  // measure 30
0010
0000
0100
0000
0010
0100
0000
0000
1001
0000
0000
0000
0110
0000
0000
0000
,  // measure 31
0001
0000
1000
0000
0001
1000
0000
0000
0110
0000
0000
0000
1001
0000
0000
0000
,  // measure 32
1000
0100
0001
0100
1000
0100
0001
0100
,  // measure 33
1000
0010
0001
0010
1000
0010
0001
0010
,  // measure 34
2000
0100
0010
3100
,  // measure 35
0002
0100
0010
0103
,  // measure 36
2000
0010
0001
3100
,  // measure 37
0020
0000
0100
0130
,  // measure 38
0001
0100
0010
1000
0001
0000
1001
0000
,  // measure 39
1000
0010
0100
0001
1000
0000
1001
0000
,  // measure 40
0100
1000
0010
0000
0001
0100
0010
0000
,  // measure 41
1000
0100
0010
0001
0100
0010
1001
0000
,  // measure 42
0100
0001
0100
0010
1000
0001
1001
0000
,  // measure 43
1000
0010
0100
0001
0100
0010
0110
0000
,  // measure 44
0001
0010
0100
0000
1000
0100
0010
0000
,  // measure 45
0001
0100
0010
1000
0001
0100
0110
0000
,  // measure 46
1001
0000
0000
0000
0010
0000
0000
0000
1000
0000
0000
0010
0000
0100
0000
0001
,  // measure 47
0000
0000
1000
0000
0010
0000
0000
0001
0000
1000
0001
0000
1000
0000
0000
0000
,  // measure 48
0010
0000
1000
0000
0001
0100
0000
0010
0000
0000
1000
0000
0010
0000
0100
0000
,  // measure 49
0001
0000
0010
0000
1000
0100
0000
0010
0000
0000
0001
0000
0010
0000
0100
0000
,  // measure 50
1000
0000
0010
0000
0100
0001
0000
1000
0000
0000
0010
0000
0100
0000
0001
0000
,  // measure 51
0010
0000
0100
0000
1000
0000
0001
0000
0100
0000
0000
0110
0000
0000
1001
0000
,  // measure 52
0001
1000
0001
0000
0100
0000
0010
0000
0001
0000
0000
0101
0000
0000
0100
0000
,  // measure 53
1000
0000
0010
0000
0100
0000
0001
0000
1000
0000
0000
1010
0000
0000
1000
0000
,  // measure 54
0010
0100
0001
1000
0010
0010
1000
1000
,  // measure 55
0001
0000
0100
0000
0010
0000
1000
0000
0001
0000
1000
0001
0000
0000
0000
0000
,  // measure 56
0010
0100
0010
0000
1000
0000
0001
0000
0100
0010
0000
0010
0000
0000
1000
0000
,  // measure 57
0001
0000
0100
0000
0010
0000
1000
0000
0001
1000
0000
1000
0000
0000
0010
0000
,  // measure 58
1000
0000
0010
0000
0100
0001
0000
0001
0000
0000
0100
0000
0010
0000
1000
0000
,  // measure 59
0001
0000
0010
0000
0100
1000
0000
1000
0000
0000
0010
0000
0100
0000
0001
0000
,  // measure 60
1100
0000
0000
0000
0101
0000
0000
0000
1001
0000
0000
0110
0000
1001
0000
0010
,  // measure 61
0000
0000
1000
0000
0010
0000
0100
0001
0000
0001
0100
0000
0010
0000
1000
0000
,  // measure 62
1010
0000
0000
0000
1001
0000
0000
0000
0101
0000
0000
0110
0000
1001
0000
0010
,  // measure 63
0000
0000
1000
0000
0010
0000
0100
0001
0000
0001
1000
0000
1100
0000
0000
0000
,  // measure 64
0100
0000
1000
0000
0010
0100
0000
0100
0000
0000
0010
0000
1000
0000
0001
0000
,  // measure 65
0100
0000
0010
0000
1000
0001
0000
0001
0000
0000
1000
0000
0010
0000
0100
0000
,  // measure 66
0001
0000
0010
0000
0100
1000
0000
1000
0000
0000
0010
0000
1000
0000
0100
0000
,  // measure 67
0010
0000
1000
0000
0010
0000
0100
0001
0000
0001
0100
0000
0010
0000
1000
0000
,  // measure 68
0001
0000
0100
0000
0010
0100
0000
0100
0000
0000
0000
0000
0010
1000
0000
1000
,  // measure 69
0000
0000
0010
0000
0100
0001
0000
0001
0000
0000
0100
0000
0010
0000
0100
0000
,  // measure 70
1000
0100
0001
0010
0001
1000
0100
0001
,  // measure 71
1000
0000
0000
0000
0101
0000
0000
0000
0110
0000
0000
1100
0000
0110
0000
0011
,  // measure 72
0000
0000
0001
2000
0002
0000
0000
0000
0000
0000
0000
0000
0000
0000
3003
0000
;
