#TITLE:Spiral2005;
#SUBTITLE:;
#ARTIST:猫叉Master+;
#TITLETRANSLIT:;
#SUBTITLETRANSLIT:;
#ARTISTTRANSLIT:;
#GENRE:Anime/Game;
#CREDIT:;
#BANNER:;
#BACKGROUND:;
#LYRICSPATH:;
#CDTITLE:;
#MUSIC:Spiral2005.ogg;
#OFFSET:1.455000;
#SAMPLESTART:29.377264;
#SAMPLELENGTH:15.000000;
#LASTBEATHINT:0.827878;
#SELECTABLE:YES;
#BPMS:0.000000=140.000000
;
#STOPS:203.000000=0.420000
;
#BGCHANGES:;
#KEYSOUNDS:;
#ATTACKS:;

//---------------dance-single - ----------------
#NOTES:
     dance-single:
     :
     Easy:
     6:
     0.345956,0.403806,0.350308,0.258923,0.000000,318.000000,272.000000,46.000000,34.000000,0.000000,0.000000,0.345956,0.403806,0.350308,0.258923,0.000000,318.000000,272.000000,46.000000,34.000000,0.000000,0.000000:
0000
0000
0000
0000
,
0000
0000
0000
0000
,
0000
0000
0000
0000
,
0000
0000
0000
0000
,
0000
0000
0000
0000
,
0000
0000
0000
0000
,
2001
0001
0001
3001
,
0210
0010
0010
0310
,
1002
1000
1000
1003
,
0210
0010
0010
0310
,
0001
0100
1000
0010
,
0001
1000
0001
1001
,
0100
1000
0001
0010
,
1000
0001
1000
1001
,
0200
1000
0010
0301
,
0020
0001
0130
1001
,
0100
1000
0010
0110
,
0010
0001
0100
0110
,
2000
0100
0001
3010
,
0001
1000
0010
0110
,
0002
0100
0010
1003
,
0100
0010
0001
1001
,
0200
1000
0010
0301
,
0010
1000
0001
1001
,
0020
0001
0100
1030
,
0100
0001
1000
1001
,
0200
1000
0010
1300
,
0020
0100
0001
0130
,
0002
0100
0010
0103
,
2000
0010
0100
3010
,
1000
0100
0010
1001
,
0001
0010
0100
1001
,
2100
0100
0100
3100
,
0102
0100
0100
0103
,
0100
1000
0010
1010
,
0010
1000
0001
1001
,
0010
0001
0100
0101
,
0001
0100
0010
1001
,
0200
1000
0010
0301
,
0020
0001
0130
1001
,
0100
1000
0010
1010
,
0010
0001
0100
0101
,
0220
0000
0000
0330
,
0001
0100
1000
0010
,
0010
0001
0100
1000
,
1000
0100
0001
0100
,
0100
1000
0010
0001
,
0001
0100
1000
0010
,
1000
0100
0001
0010
,
0100
1000
0001
0010
,
1000
0100
0001
0110
,
1000
0100
0001
0100
,
1000
0010
1000
0100
,
0001
0100
1000
0010
,
0001
0100
1000
1001
,
1000
0010
0100
0110
,
0001
1000
0010
0110
,
1000
0001
0100
0110
,
1000
1001
1001
0110
,
0002
0100
1000
0013
,
2000
0010
0001
3100
,
1100
0110
0011
1001
,
0002
0100
1003
0200
,
0010
0000
0310
1001
,
0100
1100
0001
0101
,
0010
1000
0100
2001
,
0001
0001
3001
0200
,
1000
0010
1300
0020
,
0001
0100
0031
2000
,
0001
0100
3001
0020
,
0001
0100
1030
0002
,
1000
0010
1003
0200
,
1000
0001
0310
0020
,
0001
0100
1030
1001
,
1100
0101
1001
0220
,
0000
0000
0000
0330
;

//---------------dance-single - ----------------
#NOTES:
     dance-single:
     :
     Beginner:
     3:
     0.110967,0.144216,0.015231,0.121846,0.000000,102.000000,100.000000,2.000000,16.000000,0.000000,0.000000,0.110967,0.144216,0.015231,0.121846,0.000000,102.000000,100.000000,2.000000,16.000000,0.000000,0.000000:
0000
0000
0000
0000
,
0000
0000
0000
0000
,
0000
0000
0000
0000
,
0000
0000
0000
0000
,
0000
0000
0000
0000
,
0000
0000
0000
0000
,
1000
0000
1000
0000
,
0001
0000
0001
0000
,
1000
0000
1000
0000
,
0001
0000
0001
0000
,
0200
0000
0300
0000
,
1000
0000
0000
0000
,
0200
0000
0300
0000
,
0001
0000
0000
0000
,
0020
0000
0030
0000
,
1000
0000
0000
0000
,
0020
0000
0030
0000
,
0001
0000
0000
0000
,
1000
0000
0000
0000
,
0100
0000
0100
0000
,
0010
0000
0000
0000
,
0010
0000
0010
0000
,
0001
0000
0000
0000
,
0001
0000
0001
0000
,
1000
0000
0000
0000
,
0100
0000
0100
0000
,
0010
0000
0000
0000
,
1000
0000
0000
0000
,
0001
0000
0000
0000
,
0100
0000
0000
0000
,
1000
0000
0000
0000
,
0001
0000
0000
0000
,
0100
0000
0000
0000
,
0010
0000
0000
0000
,
2000
0000
3100
0000
,
0200
0000
0300
0000
,
0100
0000
0100
0000
,
0020
0000
0030
0000
,
0020
0000
0031
0000
,
0002
0000
0003
0000
,
0001
0000
0001
0000
,
2000
0000
3000
0000
,
2002
0000
3003
0000
,
0100
0000
1000
0000
,
0100
0000
0000
0000
,
0010
0000
0001
0000
,
0010
0000
0000
0000
,
1000
0000
0100
0000
,
0010
0000
0000
0000
,
0001
0000
0010
0000
,
0100
0000
0000
0000
,
1000
0000
1000
0000
,
0001
0000
0001
0000
,
1000
0000
1000
0000
,
0001
0000
0001
0000
,
0100
0000
0100
0000
,
0010
0000
0010
0000
,
0100
0000
0100
0000
,
0010
0020
0030
0000
,
1000
0000
0100
0000
,
1000
0000
0010
0000
,
0001
0000
0100
0000
,
0001
0000
0100
0200
,
0000
0300
0000
1000
,
0000
0100
0000
0001
,
0000
0000
0000
0001
,
0000
0010
0000
1000
,
0000
0000
0000
0001
,
0000
0000
0000
1000
,
0000
0000
0000
0001
,
0000
0000
0000
0100
,
0000
0000
0000
0010
,
0000
0000
0000
0100
,
0000
0000
0000
0010
,
0000
0000
0000
0220
,
0000
0000
0000
0330
;

//---------------dance-single - ----------------
#NOTES:
     dance-single:
     :
     Medium:
     9:
     0.391649,0.432649,0.304616,0.190385,0.000000,360.000000,320.000000,40.000000,25.000000,0.000000,0.000000,0.391649,0.432649,0.304616,0.190385,0.000000,360.000000,320.000000,40.000000,25.000000,0.000000,0.000000:
0000
0000
0000
0000
,
0000
0000
0000
0000
,
0000
0000
0000
0000
,
0000
0000
0000
0000
,
0000
0000
0000
0000
,
0000
0000
0000
0000
,
2100
0100
0100
3100
,
0102
0100
0100
0103
,
2010
0010
0010
3010
,
0012
0010
0010
0013
,
0001
0000
0100
0000
1000
1000
1000
0000
,
0100
0010
1000
1001
,
1000
0000
0100
0000
0001
0001
0001
0000
,
0100
0010
1000
1001
,
0100
0000
1000
0000
0010
0010
0010
0000
,
0100
0001
1000
1001
,
0010
0000
0001
0000
0100
0100
0100
0000
,
1000
0010
0001
1001
,
0100
0000
1000
0010
1000
0000
0001
0000
,
1001
0000
0010
0001
0010
0000
0100
0000
,
0110
0000
0100
1000
0010
0001
0100
0000
,
1001
0000
0100
0000
0010
0100
0010
0000
,
1000
0000
0100
0000
0010
0001
0010
0000
,
0001
0000
0010
0000
0100
1000
0100
0000
,
1000
0000
0100
0000
0001
0010
1000
0100
,
0002
1000
1000
1003
,
0100
0000
1000
0000
0010
0010
0010
0000
,
0100
0000
0001
0000
0010
0010
0010
0000
,
0001
0000
0100
0000
1000
1000
1000
0000
,
1000
0000
0010
0000
0001
0001
0001
0000
,
0100
0000
1000
0000
0010
0010
0010
0000
,
0010
0000
0001
0000
0100
0100
0100
0000
,
2000
0100
0010
3001
,
0001
0100
1000
0100
0001
0100
1000
0000
,
2000
0100
0010
3100
,
0002
0100
0010
0103
,
0001
1000
0001
1000
0010
0100
0010
0100
,
0020
0100
0001
0130
,
1000
0010
0100
0101
,
0001
0100
0010
1010
,
0200
1000
0010
0301
,
1001
1100
1001
0011
,
0220
0000
0000
0330
,
0001
0100
0001
0000
1000
0000
1100
0000
,
1000
0100
1000
0000
0001
0000
0011
0000
,
0001
0100
1000
0000
0010
0000
0110
0000
,
1000
0010
0001
0000
0100
0000
0110
0000
,
0001
0100
1000
0000
0010
0000
1001
0000
,
1000
0010
0001
0000
0100
0000
1001
0000
,
0001
0100
1000
0000
0010
0000
1010
0000
,
1000
0010
0001
0000
0010
0000
0011
0000
,
0001
0000
0100
1000
0010
0000
1000
0000
,
1001
0000
1000
0010
0100
0000
0001
0000
,
0011
0000
0001
0100
0010
0000
1000
0000
,
1100
0000
1000
0010
0100
0000
0001
0100
,
1000
0000
0001
0000
1001
0000
1000
0010
,
0001
0000
1000
0000
1001
0000
0100
1000
,
0010
0000
0010
0001
0100
0000
0100
1000
,
0001
1000
0010
0000
1001
0000
0200
0000
,
1000
0010
0301
0020
,
0001
0000
0100
0000
1030
0000
0001
1000
,
0001
0000
0100
0010
0100
0000
2000
0000
,
0100
0010
3001
0020
,
0100
0000
0130
1001
,
1100
1001
0011
0210
,
0010
0000
0010
0000
0310
0000
0001
1000
,
0001
0000
0100
0010
0100
0000
2000
0000
,
0100
0010
3100
0020
,
0100
0001
0130
0002
,
0100
0010
0103
0200
,
0010
1000
0310
2000
,
0100
0010
3001
0002
,
0010
0100
1003
0100
,
1000
0010
0110
0010
,
0001
0100
0110
2002
,
0000
0000
0000
3003
;

//---------------dance-single - ----------------
#NOTES:
     dance-single:
     :
     Hard:
     12:
     0.564627,0.605709,0.243693,0.091385,0.198000,519.000000,487.000000,32.000000,12.000000,0.000000,0.000000,0.564627,0.605709,0.243693,0.091385,0.198000,519.000000,487.000000,32.000000,12.000000,0.000000,0.000000:
// measure 0
0000
0000
0000
0000
,  // measure 1
0000
0000
0000
0000
,  // measure 2
0000
0000
0000
0000
,  // measure 3
0000
0000
0000
0000
,  // measure 4
0000
0000
0000
0000
,  // measure 5
0000
0000
0000
0000
,  // measure 6
2100
0000
0000
0100
0000
0000
0000
0000
0100
0000
0000
0000
3100
0000
0000
0000
,  // measure 7
0102
0000
0000
0000
0100
0000
0000
0000
0100
0000
0000
0000
0100
0003
0000
0000
,  // measure 8
2010
0000
0000
0010
0000
0000
0000
0000
0010
0000
0000
0000
3010
0000
0000
0000
,  // measure 9
0012
0010
0010
0013
,  // measure 10
0001
0100
1000
0100
0001
0100
1000
0100
,  // measure 11
0001
0010
1000
0010
0001
0010
1000
0010
,  // measure 12
0001
0100
0010
0100
0001
0100
0010
0100
,  // measure 13
1000
0010
0100
0010
1000
0010
0100
0010
,  // measure 14
1000
0010
0001
0010
1000
0010
0001
0010
,  // measure 15
1000
0100
0001
0100
1000
0100
0001
0100
,  // measure 16
1000
0010
0100
0010
1000
0010
0100
0010
,  // measure 17
0001
0100
0010
0100
0001
0100
0010
0100
,  // measure 18
0001
1100
0101
1001
,  // measure 19
0210
0000
0010
0000
0310
0010
0010
0000
,  // measure 20
0001
0100
1000
1000
0100
0010
0001
0001
,  // measure 21
0200
0010
1000
0310
,  // measure 22
0001
1000
0010
0000
0010
1000
0001
0100
,  // measure 23
1100
0101
1100
0101
,  // measure 24
0010
0100
1000
0000
0100
0010
0001
0000
,  // measure 25
1000
0001
1000
0001
0100
0010
0100
0010
,  // measure 26
0100
0000
1000
0000
0100
0000
0010
0000
0100
0000
0010
0100
0000
0000
0001
0000
,  // measure 27
0100
0000
0010
0000
1000
0000
0100
0000
0001
0000
1000
0001
0000
0000
0001
0000
,  // measure 28
0100
0000
0010
0000
1000
0000
0100
0000
0001
0000
0010
0100
0000
0000
0001
0000
,  // measure 29
1000
0000
0010
0000
0100
0000
0001
0000
1000
0000
0010
1000
0000
0000
0001
0000
,  // measure 30
0100
0000
0010
0000
1000
0000
0001
0000
0100
0000
0001
0100
0000
0000
0010
0000
,  // measure 31
0100
0000
1000
0000
0010
0000
0100
0000
0001
0000
1000
0001
0000
0000
0200
0000
,  // measure 32
0010
1000
0010
1300
,  // measure 33
0010
0100
0010
0100
0001
0000
1001
0000
,  // measure 34
0100
1000
0010
0000
0010
0001
0100
0000
,  // measure 35
0100
1000
0001
0100
0010
1000
0100
0000
,  // measure 36
1000
0001
0100
0100
0001
1000
0010
0010
,  // measure 37
0001
0000
0100
0000
0010
0000
0100
0000
1000
0000
0000
0010
0000
0000
1000
0001
,  // measure 38
1000
0000
0010
0100
0001
1000
0010
0100
,  // measure 39
1100
0101
1010
0011
,  // measure 40
0010
0100
0001
0100
0010
0100
0001
0100
,  // measure 41
1000
0010
0100
0010
1000
0010
0100
0010
,  // measure 42
2000
0001
0001
3001
,  // measure 43
0001
0000
0100
0001
0000
0100
0001
0000
0100
0000
0010
0000
1000
0000
0100
0000
,  // measure 44
0010
0000
1000
0010
0000
1000
0010
0000
0100
0000
0001
0000
1000
0000
0010
0000
,  // measure 45
0100
0000
0001
1000
0000
0001
1000
0000
0001
0000
0100
0000
0010
0000
1000
0000
,  // measure 46
0001
0000
0100
0010
0000
0100
0010
0000
0100
0000
0001
0000
1000
0000
0010
0000
,  // measure 47
0100
0000
0001
1000
0000
0001
1000
0000
0001
0000
1000
0000
0010
0000
0100
0000
,  // measure 48
0001
0000
1000
0010
0000
1000
0010
0000
1000
0000
0001
0000
0100
0000
0010
0000
,  // measure 49
1000
0000
0001
0100
0000
0001
0100
0000
0001
0000
0100
0000
0010
0000
1000
0000
,  // measure 50
0001
0000
1000
0001
0000
1000
0001
0000
1000
0000
0010
0000
0110
0000
0001
0100
,  // measure 51
0000
0001
0100
0000
0001
0000
0010
0000
1000
0000
0010
0000
0100
0000
1000
0010
,  // measure 52
0000
1000
0010
0000
0100
0000
0001
0000
1000
0000
0010
0000
0100
0000
0001
1000
,  // measure 53
0000
0001
1000
0000
0010
0000
0100
0000
1000
0000
0010
0000
0001
0000
1000
0001
,  // measure 54
0000
1000
0001
0000
0100
0000
0010
0000
1000
0000
0001
0000
0100
0000
0010
0100
,  // measure 55
0000
0010
0100
0000
0001
0000
1000
0000
0010
0000
0100
0000
0001
0000
1000
0001
,  // measure 56
0000
1000
0001
0000
0100
0000
0010
0000
1000
0000
0001
0000
0010
0000
0100
1000
,  // measure 57
0000
0100
1000
0000
0010
0000
0100
0010
0000
0100
0010
0000
0100
0000
0010
0001
,  // measure 58
0000
0000
0000
0010
0000
0000
0001
0000
0000
0000
0000
0000
0100
0000
0000
0000
0010
0000
0000
0000
1000
0000
0000
0000
0001
0000
0000
0000
0000
0000
0000
0000
0000
0000
0000
0000
1001
0000
0000
0000
0000
0000
0000
0000
0000
0000
0000
0000
,  // measure 59
0110
1100
0110
0011
,  // measure 60
0001
0000
0100
0000
0010
0000
1000
0000
0001
0000
0100
0000
0010
0000
1000
0001
,  // measure 61
1000
0010
1000
0100
0010
0001
0200
0000
,  // measure 62
1000
0010
0301
0020
,  // measure 63
0100
0000
0000
0000
0130
0001
1001
0000
,  // measure 64
1100
0000
0101
0000
1001
0000
0010
1000
,  // measure 65
0001
0000
0100
0000
0010
0000
1000
0000
0001
0000
1000
0001
1000
0000
0000
0000
,  // measure 66
1001
0000
1100
0000
0011
0000
0010
0100
,  // measure 67
0010
0000
1000
0001
1000
0000
0100
1000
,  // measure 68
0010
0001
0100
0010
1000
0000
0001
0100
,  // measure 69
0010
0000
1000
0010
0100
0000
0001
0100
,  // measure 70
1000
0010
0001
1000
0010
0100
0110
0000
,  // measure 71
0001
0100
0010
0000
1000
0010
0100
0000
,  // measure 72
0001
0100
1000
0010
0100
0001
1001
0000
,  // measure 73
0010
0000
0000
1000
0000
0000
0100
0000
0000
0001
0000
0000
0010
0000
0000
0100
0000
0000
1000
0000
0000
0000
0010
0000
,  // measure 74
0100
0000
0100
0001
0000
0001
0000
2000
0000
0002
0000
0000
,  // measure 75
0000
0000
0000
3003
;
