#TITLE:それは花火のような恋;
#SUBTITLE:;
#ARTIST:夏色バーニングラブ☆Prim;
#TITLETRANSLIT:Sore wa hanabi no youna koi;
#SUBTITLETRANSLIT:;
#ARTISTTRANSLIT:Natsuiro Burning Love Prim;
#GENRE:BeatStream;
#CREDIT:;
#BANNER:;
#BACKGROUND:;
#LYRICSPATH:;
#CDTITLE:;
#MUSIC:Sore wa hanabi no youna koi.ogg;
#OFFSET:1.200000;
#SAMPLESTART:97.238426;
#SAMPLELENGTH:15.000000;
#LASTBEATHINT:0.480022;
#SELECTABLE:YES;
#DISPLAYBPM:182.000000;
#BPMS:0.000000=182.000000
;
#STOPS:
;
#BGCHANGES:3.000=Sore wa hanabi no youna koi.avi=1.000=0=0=1=====,
99999=-nosongbg-=1.000=0=0=0 // don't automatically add -songbackground-
;
#KEYSOUNDS:;
#ATTACKS:;

//---------------dance-single - ----------------
#NOTES:
     dance-single:
     :
     Hard:
     13:
     0.721634,0.639635,0.288196,0.160109,0.092063,575.000000,36.000000,20.000000,0.000000,0.000000,0.000000,0.721634,0.639635,0.288196,0.160109,0.092063,575.000000,36.000000,20.000000,0.000000,0.000000,0.000000:
// measure 0
0000
0000
0000
0000
,  // measure 1
0000
0000
0000
0000
,  // measure 2
0000
0000
0000
0000
,  // measure 3
0000
0000
0000
0000
,  // measure 4
0000
0000
0000
0000
,  // measure 5
1000
0100
1000
0100
0001
0100
0001
0100
,  // measure 6
0010
0100
0010
0100
1000
0001
1000
0001
,  // measure 7
1000
0001
0010
1000
0100
0010
0100
0001
,  // measure 8
0000
1100
0000
1100
0000
1001
0001
0100
,  // measure 9
0010
0100
1001
0000
1000
0001
0110
0000
,  // measure 10
0100
0000
0010
0000
1000
0000
0001
0000
1000
0000
0000
0100
0000
0000
0001
0000
,  // measure 11
0100
0000
1000
0000
0010
0000
0100
0000
0001
0000
0000
0100
0000
0000
0001
0000
,  // measure 12
0100
0000
0010
0000
1000
0000
0001
0000
0100
0000
0000
0010
0000
0000
0100
0000
,  // measure 13
1000
0000
0000
0100
0000
0000
1000
0000
0000
0000
1000
0000
0100
0000
0010
0000
,  // measure 14
0100
0001
0010
0100
1000
0010
1000
0001
,  // measure 15
1000
0001
1000
0001
0100
0010
0100
0010
,  // measure 16
0100
0001
0010
0100
1000
0001
0010
0100
,  // measure 17
1000
0010
1000
0001
0010
1000
0100
0001
,  // measure 18
0010
0100
1000
0001
1000
0000
1001
0000
,  // measure 19
0001
0000
0100
0000
0001
0000
0100
0000
0001
0000
0000
0001
0000
0000
0001
0000
,  // measure 20
1000
0000
0010
0000
1000
0000
0010
0000
1000
0000
0000
1000
0000
0000
1000
0000
,  // measure 21
0001
0000
0000
1000
0000
0000
1001
0000
0000
0000
0001
0000
1000
0000
0100
0000
,  // measure 22
0010
0100
0001
0010
0100
1000
0010
0000
,  // measure 23
0001
1000
0001
1000
0010
0100
0010
0100
,  // measure 24
0001
0010
0100
1000
0001
0010
0100
1000
,  // measure 25
0010
1000
0010
1000
0001
0100
0001
0100
,  // measure 26
0001
0010
0100
1000
0100
0010
0100
0001
,  // measure 27
2000
0000
0000
0100
3100
0000
0000
1001
,  // measure 28
0000
0000
0110
0000
0000
0000
1000
0000
1001
0000
0000
0001
0000
0000
1000
0000
,  // measure 29
0002
0000
0000
0010
0013
0000
0000
0110
,  // measure 30
0000
0000
1001
0000
0000
0000
0100
0000
0110
0000
0000
0100
0000
0000
0010
0000
,  // measure 31
0001
1000
0001
1000
0001
0100
0001
0000
,  // measure 32
1000
0001
1000
0001
1000
0010
1000
0000
,  // measure 33
0001
0010
1000
0010
0100
0001
0010
1000
,  // measure 34
0100
0010
0100
0001
0010
1000
0001
0000
,  // measure 35
1001
0000
1000
0010
0100
0000
0001
0010
,  // measure 36
0100
0000
0010
1000
0001
0000
1000
0100
,  // measure 37
0001
0000
0000
0100
0000
0000
0001
0000
1000
0000
0000
0010
0000
0000
1000
0000
,  // measure 38
0010
0000
1000
0001
0010
1000
0100
0010
,  // measure 39
2000
0000
0000
0000
0010
0000
0000
0000
0010
0000
0000
0000
0010
3000
0000
0000
,  // measure 40
0001
0010
1000
0100
0010
0100
0001
0010
,  // measure 41
0200
0000
0010
0000
0010
0010
0310
0100
,  // measure 42
0001
0000
0000
1000
0000
0000
1001
0000
0220
0000
0000
0000
0330
0000
0000
0000
,  // measure 43
0010
0100
0010
0100
0001
1000
0001
1000
,  // measure 44
0010
1000
0010
1000
0001
0100
0001
0100
,  // measure 45
0001
0010
0100
1000
0001
0010
0100
1000
,  // measure 46
0010
1000
0100
0001
0010
0100
1000
0000
,  // measure 47
0010
1000
0010
1000
0100
0001
0010
0000
,  // measure 48
0010
0100
0010
0100
0001
0010
1000
0000
,  // measure 49
0001
0010
0001
0010
0100
1000
0001
0000
,  // measure 50
0001
1000
0001
1000
0010
0000
1001
0000
,  // measure 51
1000
0100
0001
0100
1000
0100
0001
0100
,  // measure 52
1000
0010
1000
0001
0010
1000
0010
0000
,  // measure 53
0010
1000
0010
0001
0010
1000
0010
0001
,  // measure 54
1000
0001
0010
1000
0010
0100
0001
0000
,  // measure 55
0001
0000
0100
0000
1000
0000
0100
0000
0010
0000
0000
0100
0000
0000
0001
0000
,  // measure 56
2002
0000
0000
0000
3003
0000
0000
0000
0100
0000
0000
0010
0000
0000
1000
0000
,  // measure 57
1001
0010
1000
0100
0010
0100
0001
0010
,  // measure 58
0000
0010
0100
1000
1001
0000
1001
0000
,  // measure 59
0001
1000
0010
1000
0010
0100
0001
0010
,  // measure 60
0100
1000
0010
0100
0001
0010
0100
0000
,  // measure 61
0001
0100
0010
0100
0001
0010
0100
1000
,  // measure 62
0010
1000
0001
0010
1000
0100
0001
0000
,  // measure 63
2002
0000
0000
0000
3003
0000
0000
0000
1000
0000
0000
0100
0000
0000
0001
0000
,  // measure 64
2002
0000
0000
0000
3003
0000
1000
0000
1001
0000
0000
0010
0000
0000
1000
0000
,  // measure 65
0100
0001
1000
0001
0100
0001
0010
1000
,  // measure 66
0000
1000
0010
0001
0001
1000
0100
0001
,  // measure 67
2001
0000
0010
0000
,  // measure 68
0100
0000
0001
0000
,  // measure 69
3002
0000
0100
0000
,  // measure 70
0010
0000
1000
0000
,  // measure 71
0013
0010
0010
0010
,  // measure 72
0100
0100
0100
0100
,  // measure 73
1001
0000
0000
0110
0000
0000
0100
0000
1001
0000
0000
0110
0000
0000
0010
0000
,  // measure 74
0220
0000
0330
0000
0000
1000
0010
1000
,  // measure 75
0100
0010
0100
0010
1000
0001
1000
0001
,  // measure 76
0100
0001
0100
0001
1000
0010
1000
0010
,  // measure 77
1000
0100
0010
0001
1000
0100
0010
0001
,  // measure 78
0100
0001
0010
1000
0100
0010
0001
0000
,  // measure 79
0100
0001
0100
0001
0010
1000
0100
0000
,  // measure 80
0100
0010
0100
0010
1000
0100
0001
0000
,  // measure 81
1000
0100
1000
0100
0010
0001
1000
0000
,  // measure 82
1000
0001
1000
0001
0100
0000
1001
0000
,  // measure 83
0001
0010
1000
0010
0001
0010
1000
0010
,  // measure 84
0001
0100
0001
1000
0100
0001
0100
0000
,  // measure 85
0100
0001
0100
1000
0100
0001
0100
1000
,  // measure 86
0001
1000
0100
0001
0100
0010
1000
0000
,  // measure 87
1000
0000
0010
0000
0001
0000
0010
0000
0100
0000
0000
0010
0000
0000
1000
0000
,  // measure 88
2002
0000
0000
0000
3003
0000
0000
0000
0010
0000
0000
0100
0000
0000
0001
0000
,  // measure 89
1001
0100
0001
0010
0100
0010
1000
0100
,  // measure 90
0000
0100
0010
0001
1001
0000
1001
0000
,  // measure 91
0010
1001
0000
0010
0100
0001
0010
0100
,  // measure 92
0000
0000
1000
0000
0100
0000
0010
0000
0100
0000
0000
0001
0000
0000
1000
0000
,  // measure 93
0001
1000
0001
2000
0002
0000
0000
0000
0000
0000
0000
0000
0000
0000
0000
0000
,  // measure 94
3003
0000
0000
0000
;

//---------------dance-single - ----------------
#NOTES:
     dance-single:
     :
     Medium:
     10:
     0.510061,0.526758,0.168114,0.072049,0.000000,416.000000,21.000000,9.000000,0.000000,0.000000,0.000000,0.510061,0.526758,0.168114,0.072049,0.000000,416.000000,21.000000,9.000000,0.000000,0.000000,0.000000:
// measure 0
0000
0000
0000
0000
,  // measure 1
0000
0000
0000
0000
,  // measure 2
0000
0000
0000
0000
,  // measure 3
0000
0000
0000
0000
,  // measure 4
0000
0000
0000
0000
,  // measure 5
1000
1000
0100
1000
,  // measure 6
0001
0001
0100
0001
,  // measure 7
1000
0010
0100
0001
,  // measure 8
1000
0001
1000
0001
1000
0001
1000
0000
,  // measure 9
0010
0110
0100
0110
,  // measure 10
1000
0001
1001
0000
,  // measure 11
1100
0000
0100
0100
,  // measure 12
1000
0100
0001
0100
,  // measure 13
1000
0010
0100
0001
,  // measure 14
0100
0100
1000
0010
,  // measure 15
0011
0000
0001
0100
,  // measure 16
1000
0010
0100
0001
,  // measure 17
0100
1000
0010
0100
,  // measure 18
0001
1000
0001
1000
0010
0100
0010
0100
,  // measure 19
0001
0010
0100
0000
1100
0000
1000
0000
,  // measure 20
1000
0100
0010
0000
0011
0000
0001
0000
,  // measure 21
0100
1000
0001
0010
,  // measure 22
0100
0100
0010
0010
,  // measure 23
1000
0100
0010
0000
1000
0000
0001
0000
,  // measure 24
1000
0001
0100
0000
0001
0000
0100
0000
,  // measure 25
0001
0100
0010
0000
1000
0000
0001
0000
,  // measure 26
0100
0010
1000
0100
,  // measure 27
2000
0000
3100
0000
,  // measure 28
0002
0000
0103
0010
,  // measure 29
2000
0000
3010
0000
,  // measure 30
0002
0000
0013
0100
,  // measure 31
0001
1000
0001
1000
,  // measure 32
0010
0100
0010
0100
,  // measure 33
1000
0100
0010
0000
0100
0010
0001
0000
,  // measure 34
0001
0010
0100
0000
0010
0100
1000
0000
,  // measure 35
0010
1000
0010
1000
0001
1000
0001
0000
,  // measure 36
0001
0100
0001
0100
0001
1000
0001
0000
,  // measure 37
0001
0010
1000
0100
,  // measure 38
0001
0100
1000
0010
,  // measure 39
0200
0010
0000
0310
,  // measure 40
0001
1000
0100
0010
,  // measure 41
0100
0010
0100
0000
0001
1000
0001
0000
,  // measure 42
0100
1000
1001
0000
,  // measure 43
0001
1000
0001
1000
0001
0000
0010
0000
,  // measure 44
0001
1000
0001
1000
0001
0000
0100
0000
,  // measure 45
1000
0100
0010
0001
,  // measure 46
1000
0010
0100
0001
,  // measure 47
1000
0010
1000
0010
1000
0000
0100
0000
,  // measure 48
0001
0100
0001
0100
0001
0000
0010
0000
,  // measure 49
1000
0001
0010
0100
,  // measure 50
1000
1100
1000
1001
,  // measure 51
0001
1000
0001
1000
0010
1000
0010
0000
,  // measure 52
0001
0100
0001
0100
0001
0100
0010
0000
,  // measure 53
0001
0010
0100
0000
1000
0100
0010
0000
,  // measure 54
1000
0001
1000
1001
,  // measure 55
0001
0100
1000
0000
1000
0100
0001
0000
,  // measure 56
1001
0000
0000
0000
0001
0010
1000
0000
,  // measure 57
1000
0010
1000
0001
,  // measure 58
0010
0100
0010
0100
0010
0000
1001
0000
,  // measure 59
0010
1000
0100
0001
,  // measure 60
0100
1000
0010
0100
,  // measure 61
0001
0100
0001
0100
,  // measure 62
1000
0100
1000
0100
,  // measure 63
0010
0000
0100
0010
,  // measure 64
0110
0000
1000
0001
,  // measure 65
1001
0001
0100
1000
,  // measure 66
0010
1000
0010
0000
0001
1000
0001
0000
,  // measure 67
0200
0000
0001
0000
,  // measure 68
1000
0000
0001
0000
,  // measure 69
0320
0000
1000
0000
,  // measure 70
0001
0000
0000
0000
1000
0000
0000
0030
,  // measure 71
0001
0001
0001
0001
,  // measure 72
1000
1000
1000
1000
,  // measure 73
0010
0010
0100
0100
,  // measure 74
0110
0000
0000
0000
0000
1000
0001
1000
,  // measure 75
0001
1000
0001
1000
0001
1000
0001
0000
,  // measure 76
0010
0100
0010
0100
0010
0100
0010
0000
,  // measure 77
0001
0010
0100
0000
0010
0100
1000
0000
,  // measure 78
1000
0100
0010
0000
0100
0010
0001
0000
,  // measure 79
0001
0100
0001
0100
0001
0100
0010
0000
,  // measure 80
0010
1000
0010
1000
0010
1000
0100
0000
,  // measure 81
0001
0100
0001
0000
0001
0100
1000
0000
,  // measure 82
1000
0100
1000
0000
1000
0100
0001
0000
,  // measure 83
0001
1000
0001
1000
0001
1000
0001
0000
,  // measure 84
0010
0100
0010
0100
0010
0100
0010
0000
,  // measure 85
0001
0010
0100
0000
0010
0100
1000
0000
,  // measure 86
1000
0100
0010
0000
0100
0010
0001
0000
,  // measure 87
1000
0000
0001
0000
0100
0010
0100
0000
,  // measure 88
0110
0000
0000
0000
1000
0001
1000
0000
,  // measure 89
1001
0000
0001
0000
0100
1000
0001
0000
,  // measure 90
0000
1000
0100
0001
0100
0000
1000
0000
,  // measure 91
0001
0000
1001
0000
0001
0100
1000
0001
,  // measure 92
0000
0001
1000
0010
0100
0000
1001
0000
,  // measure 93
0010
0100
0220
0000
0000
0000
0000
0000
,  // measure 94
0330
0000
0000
0000
;

//---------------dance-single - ----------------
#NOTES:
     dance-single:
     :
     Easy:
     7:
     0.409421,0.376256,0.144098,0.240163,0.000000,310.000000,18.000000,30.000000,0.000000,0.000000,0.000000,0.409421,0.376256,0.144098,0.240163,0.000000,310.000000,18.000000,30.000000,0.000000,0.000000,0.000000:
// measure 0
0000
0000
0000
0000
,  // measure 1
0000
0000
0000
0000
,  // measure 2
0000
0000
0000
0000
,  // measure 3
0000
0000
0000
0000
,  // measure 4
0000
0000
0000
0000
,  // measure 5
0100
0100
0100
0010
,  // measure 6
1000
1000
1000
0001
,  // measure 7
0100
1000
0001
0010
,  // measure 8
1000
1000
0001
0001
,  // measure 9
0100
0110
1000
1001
,  // measure 10
0001
0010
1001
0000
,  // measure 11
1000
1000
0001
0010
,  // measure 12
0001
0001
0100
1000
,  // measure 13
0010
0100
2002
3003
,  // measure 14
0010
0100
2002
3003
,  // measure 15
0010
1000
0001
0100
,  // measure 16
0001
0100
0010
1000
,  // measure 17
0100
0001
0100
1000
,  // measure 18
0100
0001
0010
1000
,  // measure 19
0010
0010
2000
3010
,  // measure 20
0001
0100
0001
0010
,  // measure 21
1000
0001
0002
0103
,  // measure 22
0010
1000
0001
0100
,  // measure 23
0020
0130
1000
0001
,  // measure 24
0200
0310
1000
0001
,  // measure 25
0010
0010
0100
0100
,  // measure 26
0001
0100
1000
0100
,  // measure 27
0102
0000
0100
0000
,  // measure 28
0100
0000
0103
0000
,  // measure 29
2100
0000
0100
0000
,  // measure 30
0100
0000
3100
0000
,  // measure 31
0010
0010
1000
0001
,  // measure 32
0100
0100
0001
1000
,  // measure 33
0010
1000
0100
0001
,  // measure 34
0010
0010
1000
1000
,  // measure 35
0001
0100
0001
0100
,  // measure 36
1000
0100
1000
0100
,  // measure 37
0010
0001
0010
0001
,  // measure 38
1000
0010
1000
0010
,  // measure 39
0200
0010
0000
0010
,  // measure 40
0000
0010
0000
0310
,  // measure 41
0001
1000
0001
1000
,  // measure 42
0100
0010
0220
0330
,  // measure 43
0001
0001
1000
0010
,  // measure 44
1000
1000
0001
0100
,  // measure 45
0010
0010
1000
0000
,  // measure 46
0010
0010
0001
0000
,  // measure 47
0001
1000
0010
1000
,  // measure 48
0100
0001
0010
1000
,  // measure 49
1000
0001
1000
0001
,  // measure 50
0200
0000
0310
0000
,  // measure 51
0001
0100
1000
0100
,  // measure 52
0001
0010
1000
0010
,  // measure 53
0001
0100
1000
0100
,  // measure 54
0001
0010
1000
0010
,  // measure 55
1000
0100
1000
0100
,  // measure 56
0020
0000
0130
0100
,  // measure 57
2001
0000
0010
3001
,  // measure 58
0002
0000
0100
1003
,  // measure 59
0010
0010
1000
0001
,  // measure 60
0100
0100
0001
1000
,  // measure 61
0010
1000
0100
0001
,  // measure 62
0100
0010
1000
0001
,  // measure 63
0020
0000
0130
1000
,  // measure 64
2001
0000
3001
0010
,  // measure 65
0100
0100
0001
0001
,  // measure 66
1000
1000
0010
0010
,  // measure 67
2000
0100
0000
0100
,  // measure 68
0000
0100
0000
0100
,  // measure 69
3002
0100
0000
0100
,  // measure 70
0000
0100
0000
0100
,  // measure 71
0203
0010
0000
0010
,  // measure 72
0000
0010
0000
0310
,  // measure 73
1000
0001
1000
0001
,  // measure 74
2002
0000
3003
0010
,  // measure 75
0010
0100
0001
1000
,  // measure 76
0010
0010
1000
0001
,  // measure 77
0100
0010
1000
0001
,  // measure 78
0100
0010
1000
0100
,  // measure 79
0001
0001
0100
1000
,  // measure 80
0010
0010
1000
0100
,  // measure 81
0001
0100
1000
0001
,  // measure 82
0010
0010
0100
0100
,  // measure 83
1000
0001
1000
0001
,  // measure 84
0100
0010
0100
0010
,  // measure 85
1000
0100
0010
0000
,  // measure 86
0100
0010
0001
0000
,  // measure 87
1000
0001
1000
0001
,  // measure 88
2002
3000
0013
0010
,  // measure 89
0100
0100
0001
1000
,  // measure 90
0010
0010
2002
0000
,  // measure 91
3003
1100
0000
0101
,  // measure 92
0000
0011
0000
1010
,  // measure 93
0000
2002
0000
0000
,  // measure 94
3003
0000
0000
0000
;

//---------------dance-single - ----------------
#NOTES:
     dance-single:
     :
     Beginner:
     5:
     0.153247,0.149302,0.024016,0.048033,0.000000,125.000000,3.000000,6.000000,0.000000,0.000000,0.000000,0.153247,0.149302,0.024016,0.048033,0.000000,125.000000,3.000000,6.000000,0.000000,0.000000,0.000000:
// measure 0
0000
0000
0000
0000
,  // measure 1
0000
0000
0000
0000
,  // measure 2
0000
0000
0000
0000
,  // measure 3
0000
0000
0000
0000
,  // measure 4
0000
0000
0000
0000
,  // measure 5
1000
0000
1000
0000
,  // measure 6
0001
0000
0001
0000
,  // measure 7
0010
0000
0010
0000
,  // measure 8
0100
0000
0100
0000
,  // measure 9
1001
0000
0000
0000
,  // measure 10
1001
0000
0000
0000
,  // measure 11
0100
0000
0000
0000
,  // measure 12
0010
0000
0000
0000
,  // measure 13
0100
0000
0000
0000
,  // measure 14
0010
0000
0000
0000
,  // measure 15
1000
0000
0000
0000
,  // measure 16
0001
0000
0000
0000
,  // measure 17
1000
0000
0000
0000
,  // measure 18
0001
0000
0000
0000
,  // measure 19
1000
0000
0100
0000
,  // measure 20
0001
0000
0100
0000
,  // measure 21
1000
0000
0100
0000
,  // measure 22
0001
0000
0100
0000
,  // measure 23
1000
0000
0010
0000
,  // measure 24
0001
0000
0010
0000
,  // measure 25
1000
0000
0010
0000
,  // measure 26
0001
0000
0010
0000
,  // measure 27
2000
0000
0000
0000
,  // measure 28
3000
0000
0000
0000
,  // measure 29
0002
0000
0000
0000
,  // measure 30
0003
0000
0000
0000
,  // measure 31
0100
0000
0100
0000
,  // measure 32
0010
0000
0010
0000
,  // measure 33
0100
0000
0100
0000
,  // measure 34
0010
0000
0010
0000
,  // measure 35
0200
0000
0000
0000
,  // measure 36
0300
0000
0000
0000
,  // measure 37
0020
0000
0000
0000
,  // measure 38
0030
0000
0000
0000
,  // measure 39
1000
0000
1000
0000
,  // measure 40
0001
0000
0001
0000
,  // measure 41
1000
0000
1000
0000
,  // measure 42
0001
0000
0001
0000
,  // measure 43
1000
0000
0100
0000
,  // measure 44
0001
0000
0000
0000
,  // measure 45
1000
0000
0010
0000
,  // measure 46
0001
0000
0000
0000
,  // measure 47
0001
0000
0010
0000
,  // measure 48
1000
0000
0000
0000
,  // measure 49
1000
0000
0010
0000
,  // measure 50
0001
0000
0000
0000
,  // measure 51
1000
0000
0000
0000
,  // measure 52
0100
0000
0000
0000
,  // measure 53
0001
0000
0000
0000
,  // measure 54
0010
0000
0000
0000
,  // measure 55
1000
0000
1000
0000
,  // measure 56
0001
0000
0000
0000
,  // measure 57
0001
0000
0001
0000
,  // measure 58
1000
0000
0000
0000
,  // measure 59
1000
0000
0100
0000
,  // measure 60
0001
0000
0000
0000
,  // measure 61
0001
0000
0100
0000
,  // measure 62
1000
0000
0000
0000
,  // measure 63
1000
0000
0010
0000
,  // measure 64
0001
0000
0000
0000
,  // measure 65
0001
0000
0010
0000
,  // measure 66
1000
0000
0000
0000
,  // measure 67
2000
0000
0000
0000
,  // measure 68
3000
0000
0000
0000
,  // measure 69
0002
0000
0000
0000
,  // measure 70
0003
0000
0000
0000
,  // measure 71
0100
0000
0000
0000
,  // measure 72
0100
0000
0000
0000
,  // measure 73
0010
0000
0010
0000
,  // measure 74
0010
0000
0000
0000
,  // measure 75
1000
0000
0100
0000
,  // measure 76
0001
0000
0100
0000
,  // measure 77
1000
0000
0000
0000
,  // measure 78
0001
0000
0000
0000
,  // measure 79
1000
0000
0010
0000
,  // measure 80
0001
0000
0010
0000
,  // measure 81
1000
0000
0000
0000
,  // measure 82
0001
0000
0000
0000
,  // measure 83
0100
0000
0001
0000
,  // measure 84
0010
0000
0001
0000
,  // measure 85
0100
0000
0000
0000
,  // measure 86
0010
0000
0000
0000
,  // measure 87
1000
0000
0010
0000
,  // measure 88
0100
0000
0010
0000
,  // measure 89
1000
0000
0100
0000
,  // measure 90
0001
0000
0000
0000
,  // measure 91
0000
1000
0000
0001
,  // measure 92
0000
0100
0000
0010
,  // measure 93
0000
0110
0000
0000
;

//---------------dance-single - ----------------
#NOTES:
     dance-single:
     :
     Challenge:
     16:
     0.949217,0.978265,0.336229,0.152103,0.596406,769.000000,42.000000,19.000000,0.000000,0.000000,0.000000,0.949217,0.978265,0.336229,0.152103,0.596406,769.000000,42.000000,19.000000,0.000000,0.000000,0.000000:
// measure 0
0000
0000
0000
0000
,  // measure 1
0000
0000
0000
0000
,  // measure 2
0000
0000
0000
0000
,  // measure 3
0000
0000
0000
0000
,  // measure 4
0000
0000
0000
0000
,  // measure 5
1010
0000
0010
0000
0100
0000
0001
0000
0100
0010
1000
0010
0100
0000
0001
0000
,  // measure 6
0010
0000
0100
0000
1000
0000
0010
0000
0100
0001
0010
0001
0100
0000
1000
0000
,  // measure 7
0001
0000
0010
0000
0100
0000
1000
0000
0010
0100
0010
0100
0001
0000
0010
0000
,  // measure 8
0000
1000
0000
0100
0000
0010
1000
0001
,  // measure 9
0010
0000
1000
0000
0010
0100
0010
0100
0001
0000
1000
0000
0100
0010
0100
0010
,  // measure 10
1000
0000
0001
0000
0010
0100
0010
0100
0010
0000
1000
0001
0000
0001
1000
0000
,  // measure 11
0010
0000
1000
0000
0001
0000
0010
0000
1000
0000
0010
1000
0000
1000
0010
0000
,  // measure 12
0001
0000
0100
0000
0010
0000
1000
0000
0001
0000
0100
0001
0000
0001
0100
0000
,  // measure 13
0010
0000
1000
0000
0010
0000
0100
0000
0001
0000
1000
0001
0000
0001
1000
0000
,  // measure 14
0010
0000
1000
0000
0100
0000
0010
0000
0100
0001
0100
0000
0010
1000
0100
0010
,  // measure 15
0001
0000
0100
0000
0010
0000
1000
0000
0010
0000
1000
0010
0000
0010
1000
0000
,  // measure 16
0001
0000
0100
0000
0010
0000
1000
0000
0001
0000
0100
0001
0000
0001
0100
0000
,  // measure 17
0001
0010
1000
0100
0010
0001
0010
1000
,  // measure 18
0001
0000
0001
0000
0100
0000
0100
0000
0010
0100
0010
0100
0001
1000
0001
1000
,  // measure 19
0010
0000
0100
0000
0001
0000
0010
0000
1000
0000
0100
0010
0100
0010
0100
0000
,  // measure 20
0001
0000
0010
0000
1000
0000
0100
0000
0010
0000
0001
1000
0001
1000
0001
0000
,  // measure 21
0010
0000
1000
0000
0100
0000
0010
0000
0001
0000
0100
1000
0100
1000
0100
0000
,  // measure 22
0010
0000
1000
0000
0100
0000
0010
0000
0001
0000
0010
0001
0010
0001
0010
0000
,  // measure 23
0100
0000
0001
0000
0010
0000
1000
0000
0001
0000
0100
0010
1000
0001
0100
0000
,  // measure 24
0010
0000
1000
0000
0010
0000
1000
0000
0001
0000
0010
0100
0001
1000
0010
0000
,  // measure 25
1000
0000
0100
0000
0010
0000
1000
0000
0010
0000
0001
0100
0010
1000
0010
0000
,  // measure 26
0100
0000
0001
0000
0010
0000
1000
0000
0010
1000
0010
0100
0001
0100
0010
1000
,  // measure 27
1010
0000
0000
0011
0011
0000
0000
0110
,  // measure 28
0000
0000
1010
0000
0000
0000
0101
0000
1100
0000
0000
1100
0000
0000
0101
0000
,  // measure 29
0101
0000
0000
1100
1100
0000
0000
0110
,  // measure 30
0000
0000
0101
0000
0000
0000
1010
0000
0011
0000
0000
0011
0000
0000
1010
0000
,  // measure 31
0010
1000
0001
0010
1000
0100
0010
0001
,  // measure 32
0100
0010
1000
0100
0010
1000
0001
0010
,  // measure 33
1000
1000
0010
0010
0100
0100
0001
0001
,  // measure 34
1000
0010
1000
0010
0100
0001
0100
0001
1000
0010
0100
0001
0100
1000
0001
0010
,  // measure 35
0100
0001
0010
1000
0100
0010
0100
0001
,  // measure 36
0010
0100
1000
0010
1000
0010
0100
0001
,  // measure 37
0010
1000
0100
0010
0100
0001
0010
0100
,  // measure 38
1000
0010
1000
0001
1000
1000
0010
0010
,  // measure 39
0200
0010
0010
0010
0010
0010
0310
1000
,  // measure 40
0002
0100
0103
0010
2000
0010
3010
0100
,  // measure 41
0001
0000
0100
0000
0001
0000
1000
0000
0010
0100
0010
0001
0100
1000
0010
0100
,  // measure 42
0010
0000
0000
1000
0000
0000
0001
0000
1001
0000
0000
0000
1000
0001
1000
0001
,  // measure 43
1000
0010
1000
0010
1000
0001
0100
0001
,  // measure 44
0100
0001
1000
0010
1000
0100
0010
0100
,  // measure 45
0001
0010
0100
0010
1000
0100
0010
1000
,  // measure 46
0001
0001
1000
1000
0010
0010
0100
0100
,  // measure 47
0001
1000
0010
1000
0100
1100
1100
0000
,  // measure 48
0001
1000
0010
0100
0001
0011
0011
0000
,  // measure 49
0001
0010
0100
1000
0010
1000
0001
0100
,  // measure 50
0000
0000
0001
1000
0001
1000
0001
0100
0010
0000
0100
0001
1000
0000
0010
0000
,  // measure 51
0100
0000
0001
0000
0010
0000
1000
0000
0100
0000
0010
0100
0010
0100
0001
0000
,  // measure 52
0010
0000
1000
0000
0100
0000
0010
0000
0001
0000
0100
0010
0100
0010
1000
0000
,  // measure 53
0010
0000
0100
0000
0001
0000
0010
0000
1000
0000
0010
1000
0001
0100
0010
0000
,  // measure 54
1001
0000
0010
0000
0100
0000
0001
0000
1000
0000
0010
0100
0001
1000
0010
0000
,  // measure 55
1001
0000
0001
0000
0100
0000
0010
0000
1000
0001
1000
0001
0100
0000
0010
0100
,  // measure 56
0002
0000
0000
0000
0003
0000
0000
0000
0011
0000
0000
1100
0000
0000
0101
0000
,  // measure 57
1001
0001
1000
0010
1000
0010
1000
0001
,  // measure 58
0000
0000
0001
1000
0010
1000
0010
0100
0010
0100
0001
0100
0001
0010
1000
0010
,  // measure 59
0100
1000
0001
0010
1000
0010
1000
0001
,  // measure 60
0010
1000
0100
0010
0100
0001
0010
1000
,  // measure 61
1000
0100
0010
0001
0100
0010
1000
0001
,  // measure 62
0010
0000
1000
0000
0100
0000
0010
0000
0100
0001
0100
0001
1000
0001
1000
0001
,  // measure 63
2000
0000
0000
0000
0000
0000
0000
0000
0010
3000
0000
0010
0000
0000
0100
0000
,  // measure 64
0002
0000
0000
0000
0000
0000
0100
0003
0100
0000
0000
0010
0000
0000
1000
0000
,  // measure 65
0010
1000
0001
0010
1000
0100
0010
1000
,  // measure 66
0010
1000
0010
0100
0001
0100
0010
1000
0010
0100
0001
0010
0100
1000
0010
0100
,  // measure 67
0002
0000
2003
0000
,  // measure 68
3020
0000
0000
0000
0230
0000
0000
0010
,  // measure 69
0320
0000
0000
0000
2030
0000
0000
0001
,  // measure 70
3002
0000
0000
0000
0203
0000
0000
0300
,  // measure 71
0100
0010
0001
0010
1000
0100
0010
1000
,  // measure 72
0010
1000
0001
0100
1000
0010
0001
0100
0001
1000
0100
0010
0001
1000
0010
0100
,  // measure 73
0001
0000
0010
1000
0000
0010
1000
0000
1000
0000
0100
0001
0000
0100
0001
0000
,  // measure 74
2002
0000
0000
0000
0000
0000
0000
0000
3003
0000
0000
0000
0100
0010
0100
0010
,  // measure 75
0001
0100
0001
0100
0001
1000
0010
1000
,  // measure 76
0010
1000
0001
0100
0001
0010
0100
0010
,  // measure 77
1000
0100
0010
0100
0001
0010
0100
0001
,  // measure 78
1000
1000
0001
0001
0100
0100
0010
0010
,  // measure 79
1000
0001
0100
0001
0010
0011
0011
0000
,  // measure 80
1000
0001
0100
0010
1000
1100
1100
0000
,  // measure 81
1000
0100
0010
0001
0100
0001
1000
0010
,  // measure 82
0000
0000
1000
0001
1000
0001
1000
0010
0100
0000
0010
1000
0001
0000
0100
0000
,  // measure 83
0010
0000
1000
0000
0100
0000
0001
0000
0010
0000
0100
0010
0100
0010
1000
0000
,  // measure 84
0100
0000
0001
0000
0010
0000
0100
0000
1000
0000
0010
0100
0010
0100
0001
0000
,  // measure 85
0100
0000
0010
0000
1000
0000
0100
0000
0001
0000
0100
0001
1000
0010
0100
0000
,  // measure 86
1001
0000
0100
0000
0010
0000
1000
0000
0001
0000
0100
0010
1000
0001
0100
0000
,  // measure 87
1001
0000
1000
0000
0010
0000
0100
0000
0001
1000
0001
1000
0010
0000
0100
0010
,  // measure 88
2000
0000
0000
0000
3000
0000
0000
0000
1100
0000
0000
0011
0000
0000
1010
0000
,  // measure 89
1001
1000
0001
0100
0001
0100
0001
1000
,  // measure 90
0000
0000
1000
0001
0100
0001
0100
0010
0100
0010
1000
0010
1000
0100
0001
0100
,  // measure 91
0010
1000
0010
0000
0000
0000
0001
0100
0001
0000
0010
0000
1000
0000
0010
0000
,  // measure 92
0000
0000
1000
0010
0100
0001
0010
0100
0010
0000
0010
1000
0000
1000
0010
0000
,  // measure 93
0001
1000
0001
1000
2002
0000
0000
0000
0000
0000
0000
0000
0000
0000
0000
0000
,  // measure 94
3003
0000
0000
0000
;
