#TITLE:そこはかとなくロマンセ;
#SUBTITLE:;
#ARTIST:日向美ビタースイーツ♪;
#TITLETRANSLIT:Soko wa katonaku romance;
#SUBTITLETRANSLIT:;
#ARTISTTRANSLIT:Hinatabi Bittersweets♪;
#GENRE:jubeat;
#CREDIT:;
#BANNER:;
#BACKGROUND:;
#LYRICSPATH:;
#CDTITLE:;
#MUSIC:Soko wa katonaku romance.ogg;
#OFFSET:0.930000;
#SAMPLESTART:65.909119;
#SAMPLELENGTH:15.000000;
#SELECTABLE:YES;
#BPMS:0.000000=140.000000
;
#STOPS:
;
#BGCHANGES:;
#KEYSOUNDS:;
#ATTACKS:;

//---------------dance-single - ----------------
#NOTES:
     dance-single:
     :
     Beginner:
     3:
     0.127048,0.192058,0.066227,0.028383,0.000000,84.000000,7.000000,3.000000,0.000000,0.000000,0.000000,0.127048,0.192058,0.066227,0.028383,0.000000,84.000000,7.000000,3.000000,0.000000,0.000000,0.000000:
0000
0000
0000
0000
,
0000
0000
0000
0000
,
0000
0000
0000
0000
,
0000
0000
0000
0000
,
0000
0000
0000
0000
,
1000
0000
0100
0000
,
1000
0000
0000
0000
,
0001
0000
0100
0000
,
0001
0000
0000
0000
,
1000
0000
0010
0000
,
1000
0000
0000
0000
,
0001
0000
0010
0000
,
0001
0000
0000
0000
,
1001
0000
0000
0000
,
0100
0000
0000
0000
,
1000
0000
0000
0000
,
0001
0000
0000
0000
,
0010
0000
0000
0000
,
1000
0000
0000
0000
,
0001
0000
0000
0000
,
0010
0000
0000
0000
,
1000
0000
0100
0000
,
1000
0000
0000
0000
,
0001
0000
0010
0000
,
0001
0000
0000
0000
,
1000
0000
0100
0000
,
0010
0000
0000
0000
,
0001
0000
0010
0000
,
0100
0000
0000
0000
,
0001
0000
1000
0000
,
0001
0000
0000
0000
,
0100
0000
0010
0000
,
0100
0000
0000
0000
,
0001
0000
0100
0000
,
1000
0000
0000
0000
,
0010
0000
0100
0000
,
0220
0000
0000
0000
,
0330
0000
0000
0000
,
0000
0000
0000
0000
,
1000
0000
0100
0000
,
1000
1000
1000
0000
,
0001
0000
0100
0000
,
0001
0001
0001
0000
,
0100
0000
1000
0000
,
0100
0000
0001
0000
,
0010
0000
0100
0000
,
1000
0000
0020
0000
,
0130
0000
0001
0000
,
0100
0100
0100
0000
,
0010
0000
1000
0000
,
0010
0010
0010
0000
,
1001
0000
1001
0000
,
1001
0000
1001
0000
,
0010
0000
0000
0000
,
0000
0000
0000
0000
,
0100
0000
1000
0000
,
0100
0000
0001
0000
,
0100
0000
1000
0000
,
1001
0000
0000
0000
;

//---------------dance-single - ----------------
#NOTES:
     dance-single:
     :
     Easy:
     7:
     0.314916,0.340596,0.170298,0.264908,0.004731,187.000000,18.000000,28.000000,0.000000,0.000000,0.000000,0.314916,0.340596,0.170298,0.264908,0.004731,187.000000,18.000000,28.000000,0.000000,0.000000,0.000000:
0000
0000
0000
0000
,
0000
0000
0000
0000
,
0000
0000
0000
0000
,
0000
0000
0000
0000
,
1000
0000
0100
0000
0010
0000
0001
1000
,
0000
0000
0010
0000
0100
0000
0001
0100
,
0000
0000
0010
0000
0100
0000
1000
0100
,
0000
0000
0010
1000
0000
0001
0000
0100
,
0000
0010
1000
0001
,
0100
0100
0010
1000
,
0001
0000
0001
0000
0100
0010
0000
2000
,
0000
0000
0000
0001
0000
0000
0000
0000
,
0001
0001
0002
3003
,
0001
0100
0010
1000
,
0100
0100
0010
1000
,
0001
0000
0100
1000
,
0020
0000
0130
0001
,
1000
0010
1000
0001
,
0100
0100
0010
1000
,
0100
0000
0001
1000
,
0020
0000
0130
0001
,
1000
0010
1000
0001
,
1000
0010
1000
1001
,
0001
0100
0001
1000
,
0001
0100
0001
1001
,
0020
0000
0000
0000
0031
0100
0001
0000
,
0020
0000
0000
0000
1030
0100
1000
0000
,
0010
0000
0100
0001
,
2000
0000
3010
0001
,
0020
0000
0000
0000
1030
1000
1000
0000
,
0020
0000
0000
0000
0031
0001
0001
0000
,
0020
0000
0000
0000
1030
1000
1000
0000
,
0020
0000
0200
0330
,
1100
0000
0000
0101
0000
0000
1100
0000
,
0000
0101
0000
0000
1001
0000
0010
0000
,
0100
0020
0000
0000
,
0130
0000
0000
0001
0000
0000
1010
0000
,
0000
0011
0000
0000
2002
0000
0000
0000
,
0000
0000
0000
3003
,
1000
0000
0100
0000
1000
1000
1000
0000
,
0010
0100
0001
1000
,
0010
0000
0100
0000
0001
0001
0001
0000
,
0010
0100
1000
0001
,
0100
0010
1000
0001
,
1000
0010
0100
0001
,
0100
1000
0100
0001
,
0101
1100
0202
0303
,
0010
1000
0001
1000
,
0010
0010
0100
1001
,
0010
1000
0001
0100
,
0010
1000
0001
0010
,
2200
3300
0202
0303
,
0022
0000
0033
0000
2010
0000
0000
3002
,
0000
2000
0000
0000
0000
0000
0000
0000
,
3003
0000
0000
0000
,
1000
0100
1000
0010
,
0100
0001
1000
0001
,
0100
0000
0000
0010
0000
1000
0000
0001
,
0000
0000
0200
0000
0000
0000
0000
0000
0000
0000
0000
0020
0000
0000
0000
0000
,
0000
0000
0000
0000
,
0330
0000
0000
0000
;

//---------------dance-single - ----------------
#NOTES:
     dance-single:
     :
     Medium:
     9:
     0.400065,0.397362,0.293291,0.293291,0.018922,234.000000,31.000000,31.000000,0.000000,0.000000,0.000000,0.400065,0.397362,0.293291,0.293291,0.018922,234.000000,31.000000,31.000000,0.000000,0.000000,0.000000:
0000
0000
0000
0000
,
0000
0000
0000
0000
,
0000
0000
0000
0000
,
0000
0000
0000
0000
,
1000
0000
0000
0010
0000
0000
0100
0000
0001
0000
0000
0000
0000
0000
1001
0000
,
0000
0000
0010
0000
0100
0000
0001
1000
,
0000
0000
0010
0000
1000
0001
0100
0010
,
0000
0000
1000
0000
0001
0100
0000
0010
,
0000
0000
1000
0000
0001
1000
0010
0000
,
0100
0001
1000
0010
,
0100
0000
0001
0000
1000
0010
0000
0200
,
0000
0000
0000
0010
0000
0000
0000
1000
,
0000
0010
0000
0001
0000
0010
0000
0000
,
0301
0000
1000
0010
0000
0000
0001
0000
,
1000
0000
0010
1000
0000
0000
0001
0000
,
0100
0000
0010
1000
0001
0000
0100
0000
,
0010
0000
1000
0001
0010
0000
1000
0000
,
0001
0000
0100
0010
0000
1000
0001
0000
,
0010
0000
1000
0001
0000
0001
0100
0000
,
0010
1000
0001
0000
0100
0000
0001
1000
,
0020
0000
0100
0130
,
0001
0100
0010
0000
1000
0000
1001
0000
,
1000
0010
0100
0000
0001
0000
1001
0000
,
0010
1000
0001
0000
0100
0000
0110
0000
,
1000
0001
0010
0000
0100
0000
0110
0000
,
0001
0100
1000
0000
0010
0000
1000
0000
,
0001
1000
0010
0000
0100
0000
0001
0000
,
1000
0100
0001
0000
0100
0000
0010
0000
,
2000
0000
0002
3003
,
0001
0100
0010
0000
1000
0000
1001
0000
,
1000
0010
0100
0000
0001
0000
1001
0000
,
0100
0010
1000
0000
0001
0000
1001
0000
,
0010
0100
0001
0000
1000
0000
1001
0000
,
0020
0000
0000
0230
0000
0000
0302
0000
,
0000
2003
0000
0000
3010
0000
1001
0000
,
0210
0302
2003
3020
,
0230
0000
0000
0302
0000
0000
2003
0000
,
0000
3020
0000
0000
0200
0000
0000
0000
,
0000
0000
0000
0330
,
0001
0100
0001
0000
1000
0000
1001
0000
,
1000
0010
1000
0000
0001
0000
1001
0000
,
0010
1000
0001
0000
0100
0001
1000
0000
,
0010
1000
0001
0100
0010
0000
1000
0000
,
1100
0001
0101
0001
,
0011
0000
1000
0000
1010
0000
0001
1000
,
0020
0130
0001
1000
,
0021
0000
0100
0130
,
0001
0100
0010
0000
1000
0000
1001
0000
,
1000
0010
0100
0000
0001
0000
0100
0000
,
1000
0100
0001
0000
0010
0000
1001
0000
,
0010
1000
0001
0100
0010
0000
0100
0000
,
0022
0033
0220
0330
,
2200
0000
3300
0000
2001
0000
0000
3002
,
0000
0200
0000
0000
0000
0000
0303
0000
,
0001
0100
0010
0000
1000
0010
0100
0000
,
1000
0000
0001
0100
1000
0000
1001
0000
,
0010
1000
0001
0000
0100
0000
0210
0000
,
0301
0000
1000
0010
0000
0110
0000
1001
,
0000
0000
0000
0000
0000
0000
0000
0000
1100
0000
0000
0000
0000
0000
0000
0000
0000
0000
0000
0000
0110
0000
0000
0000
0000
0000
0000
0000
0000
0000
0000
0000
0000
0022
0000
0000
0000
0000
0000
0000
0000
0000
0000
0000
0000
0000
0000
0000
,
0000
0000
0000
0000
,
0033
0000
0000
0000
;

//---------------dance-single - ----------------
#NOTES:
     dance-single:
     :
     Hard:
     12:
     0.525762,0.510894,0.406823,0.160837,0.099341,329.000000,43.000000,17.000000,0.000000,0.000000,0.000000,0.525762,0.510894,0.406823,0.160837,0.099341,329.000000,43.000000,17.000000,0.000000,0.000000,0.000000:
// measure 0
0000
0000
0000
0000
,  // measure 1
0000
0000
0000
0000
,  // measure 2
0000
0000
0000
0000
,  // measure 3
0000
0000
0000
0000
,  // measure 4
1100
0000
0000
0110
0000
0000
0011
0000
0001
0000
0000
0000
1000
0000
1001
0000
,  // measure 5
0000
0001
0010
0100
1000
0010
0100
0110
,  // measure 6
0000
1000
0010
0100
0001
0010
0100
1000
,  // measure 7
1100
0000
1000
1100
0000
0101
0000
1001
,  // measure 8
0000
0010
1000
0001
0000
0001
1000
0010
,  // measure 9
1000
0100
0001
0100
1000
0010
1001
0000
,  // measure 10
0010
1000
0001
0010
0100
0001
1000
0120
,  // measure 11
0000
0000
0000
0230
0000
0320
0000
2030
,  // measure 12
0001
0000
0000
0001
0000
0000
0001
0000
0002
0000
0000
0000
3003
0000
0000
0000
,  // measure 13
0001
0000
0010
1000
0001
0000
1001
0000
,  // measure 14
0100
0010
1000
0000
0001
0000
0011
0000
,  // measure 15
1000
0010
0100
0000
0001
0100
0010
0000
,  // measure 16
1000
0100
0001
0010
0100
0000
0110
0000
,  // measure 17
1000
0010
0100
0000
0001
0100
0010
0000
,  // measure 18
1000
0100
0001
0010
1000
0000
1001
0000
,  // measure 19
0010
1000
0001
0000
0001
0100
1000
0000
,  // measure 20
0010
1000
0100
0001
0010
0000
1001
0000
,  // measure 21
0010
0000
0000
1000
0000
0000
1100
0000
0001
0000
0100
0000
0010
0000
0000
0000
,  // measure 22
0001
0000
0000
0010
0000
0000
0011
0000
0001
0000
0100
0000
1000
0000
0000
0000
,  // measure 23
0010
0000
0000
0100
0000
0000
0110
0000
0001
0000
1000
0000
0010
0000
0000
0000
,  // measure 24
1000
0000
0000
0100
0000
0000
1100
0000
0100
0000
0001
0000
0010
0000
0000
0000
,  // measure 25
1000
0001
0010
1000
0010
0100
1001
0000
,  // measure 26
1000
0010
0100
0001
0010
0100
0110
0000
,  // measure 27
1000
0100
0001
0100
0010
1000
0001
0010
,  // measure 28
0200
0000
0010
0310
,  // measure 29
0001
0010
1000
0001
0100
0000
1001
0000
,  // measure 30
0010
1000
0001
0100
1000
0000
1100
0000
,  // measure 31
1000
0010
0100
0001
0010
0000
0011
0000
,  // measure 32
0100
0001
1000
0010
0100
0000
1001
0000
,  // measure 33
0020
0000
0000
2030
0000
0000
3002
0000
,  // measure 34
0000
0203
0000
0000
1300
0000
0101
0000
,  // measure 35
1001
0120
1000
0031
,  // measure 36
0011
0000
0001
1001
0000
1000
1100
0000
,  // measure 37
0100
0110
0000
1001
2002
0000
0000
0000
,  // measure 38
0000
0000
0000
3003
,  // measure 39
1000
0010
1000
0010
1000
0001
0100
0001
,  // measure 40
1000
0010
0001
0010
1000
0100
0010
0000
,  // measure 41
0001
0010
0001
0010
0100
0001
1000
0010
,  // measure 42
1000
0100
0001
0010
0100
1000
1001
0000
,  // measure 43
0010
1000
0100
0000
0010
0100
0001
0000
,  // measure 44
0100
0001
1000
0010
0100
0001
1001
0000
,  // measure 45
0010
1000
0100
0010
0100
0001
0010
0100
,  // measure 46
2000
0000
0000
3010
0000
0000
0010
0100
0010
1000
0001
1000
,  // measure 47
0100
1000
0001
0010
1000
0100
0010
1000
,  // measure 48
0001
0010
0100
1000
0001
0001
1000
1000
,  // measure 49
0010
1000
0100
0001
1000
0010
0100
0001
,  // measure 50
1000
0000
0000
1000
0000
0000
0010
0000
0000
0100
0000
0000
0001
0000
0000
0001
0000
0000
0010
0000
0100
0000
0010
0000
,  // measure 51
0100
0000
0000
1000
0100
1000
0100
0000
0000
0001
0010
0001
,  // measure 52
0010
0000
0000
0000
0000
0000
0001
0000
1000
0000
0001
0000
1000
0000
0000
0001
0000
0000
0010
0000
0000
0100
0000
0000
,  // measure 53
0000
2000
0000
0000
0000
0000
0000
0000
,  // measure 54
3100
0001
0100
0010
1000
0100
0001
1000
,  // measure 55
0000
1000
0100
0000
0010
1000
0001
0010
,  // measure 56
0000
0010
0100
0000
1000
0010
0100
0001
,  // measure 57
1000
0000
0100
1100
0000
0101
0001
0011
,  // measure 58
0000
0000
0000
0000
0000
0000
0000
0000
0110
0000
0000
0000
0000
0000
0000
0000
0000
0000
0000
0000
1100
0000
0000
0000
0000
0000
0000
0000
0000
0000
0000
0000
0000
2002
0000
0000
0000
0000
0000
0000
0000
0000
0000
0000
0000
0000
0000
0000
,  // measure 59
0000
0000
0000
0000
,  // measure 60
3003
0000
0000
0000
;

//---------------dance-single - ----------------
#NOTES:
     dance-single:
     :
     Challenge:
     14:
     0.640645,0.652809,0.274369,0.132454,0.397362,431.000000,29.000000,14.000000,0.000000,0.000000,0.000000,0.640645,0.652809,0.274369,0.132454,0.397362,431.000000,29.000000,14.000000,0.000000,0.000000,0.000000:
// measure 0
0000
0000
0000
0000
,  // measure 1
0000
0000
0000
0000
,  // measure 2
0000
0000
0000
0000
,  // measure 3
0000
0000
0000
0000
,  // measure 4
0001
0000
0000
1000
0000
0000
0010
0000
0100
0000
0001
0000
1000
0000
1001
0000
,  // measure 5
0000
0000
0010
0000
1000
0000
0001
0000
0100
0010
1000
0000
0001
0000
1001
0000
,  // measure 6
0000
0000
0010
0000
1000
0000
0100
0000
0010
0100
0001
0000
0010
0000
0100
0000
,  // measure 7
1000
0000
0010
0000
1000
0001
1000
0000
0000
0000
1100
0000
0000
0000
0102
0000
,  // measure 8
0000
0000
0000
0003
0100
0000
0010
0000
1000
0000
0001
0000
0010
0000
1000
0000
,  // measure 9
0010
0000
1000
0000
0100
0000
0001
0000
0100
0010
1000
0000
0001
0000
0100
0000
,  // measure 10
0010
0000
1000
0000
0001
0000
0010
0000
1000
0001
0100
0000
0010
0000
1010
0000
,  // measure 11
0000
0001
1000
1001
0000
1000
0100
0010
,  // measure 12
0012
0000
0000
0100
0000
0000
1000
0000
2000
0000
0000
0000
3003
0000
0000
0000
,  // measure 13
1001
0000
0000
0010
0000
0000
1000
0000
0000
0000
0001
0000
1000
0000
0010
0000
,  // measure 14
0100
0000
0000
1100
0000
0000
0101
0000
0000
0000
0010
0000
1000
0000
0001
0000
,  // measure 15
0010
0000
0000
0010
0000
0000
1000
0000
0001
0000
0010
0000
1000
0000
0100
0000
,  // measure 16
0001
0000
0000
0001
0000
0000
1000
0000
0010
0000
0100
0000
0001
0000
1000
0000
,  // measure 17
0010
0000
0000
0011
0000
0000
1010
0000
0001
0000
1000
0000
0010
0000
0100
0000
,  // measure 18
0001
0000
0000
1100
0000
0000
0101
0000
0001
0000
1000
0000
0010
0000
0100
0000
,  // measure 19
0001
0000
0000
0011
0000
0000
0101
0000
1000
0000
0010
0000
0100
0000
0001
0000
,  // measure 20
2000
0000
0000
0000
0000
3010
0100
0001
,  // measure 21
1000
0000
0010
0100
0000
0010
0100
0000
0001
0000
0010
0000
1000
0000
0100
0000
,  // measure 22
0010
0000
0001
1000
0000
0001
1000
0000
0010
0000
1000
0000
0100
0000
0001
0000
,  // measure 23
0010
0000
1000
0100
0000
1000
0100
0000
0010
0000
1000
0000
0100
0000
0010
0000
,  // measure 24
0001
0000
0010
0001
0000
0010
0001
0000
1000
0000
0010
0000
0100
0000
1000
0000
,  // measure 25
0001
0000
1000
0100
0010
0000
1000
0001
0100
0000
0010
0000
1000
0000
0001
0000
,  // measure 26
0100
0000
0010
1000
0001
0000
0001
0100
0010
0000
1000
0000
0001
0000
0010
0000
,  // measure 27
0100
0000
1000
0010
0100
0000
0001
0100
0010
0000
1000
0000
0001
0000
0100
0000
,  // measure 28
0020
0000
0100
0130
,  // measure 29
0001
0000
0100
0000
1000
0000
0010
0000
1000
0001
1000
0001
0000
0000
0010
0000
,  // measure 30
1000
0000
0001
0000
0100
0000
0010
0000
1000
0010
0100
0010
0000
0000
0001
0000
,  // measure 31
0010
0000
1000
0000
0100
0000
0001
0000
0100
0001
0100
0010
0000
0000
0001
0000
,  // measure 32
1000
0000
0000
0010
0000
0000
0100
0000
0000
0001
0000
0000
0010
0000
0100
0000
1000
0000
1001
0000
0000
0000
0000
0000
,  // measure 33
1001
0000
0010
0000
1000
0100
0001
0000
0010
0000
1000
0001
0100
0000
0010
0000
,  // measure 34
0100
0000
0010
0001
1000
0000
0010
0000
0100
0000
0001
0000
0010
0000
0100
0000
,  // measure 35
1000
0002
2003
3020
,  // measure 36
0130
0000
0001
0100
0010
0000
1000
0000
0010
1000
0001
0000
0100
0000
0010
1000
,  // measure 37
0001
0000
0100
0000
0010
0100
0001
1000
0020
0000
0000
0000
0000
0000
0000
0000
,  // measure 38
0000
0000
0000
0000
,  // measure 39
0130
0000
0001
0000
1000
0000
0010
0000
0100
0001
1000
0001
1000
0000
0010
0000
,  // measure 40
0100
0000
0001
0000
0010
0000
1000
0000
0010
1000
0001
1000
0001
0000
1000
0000
,  // measure 41
0010
0000
0100
0000
1000
0000
0001
0000
0010
1000
0010
1000
0100
0000
0010
0000
,  // measure 42
1000
0000
0001
0000
0010
0000
1000
0000
0001
0100
0001
0100
0010
0000
0001
0000
,  // measure 43
1000
0010
1001
0010
1000
0100
1100
0100
,  // measure 44
0010
0001
0101
0001
1000
0010
1001
0010
,  // measure 45
1000
0000
0100
0000
0010
0000
1000
0001
0100
0000
0010
1000
0000
0100
0010
0000
,  // measure 46
0002
0000
0000
0000
0000
0000
1003
0010
0100
0001
0010
0100
,  // measure 47
1000
0000
0010
0000
1000
0001
1000
0001
0100
0000
0010
0000
1000
0000
0001
0000
,  // measure 48
0010
0000
0100
0000
1000
0001
1000
0001
0010
0000
1000
0000
0001
0000
0010
0000
,  // measure 49
0100
0000
1000
0000
0001
1000
0100
1000
0010
0000
0100
0000
0001
0000
0010
0000
,  // measure 50
1000
0000
0000
0000
0000
0000
0001
0000
0000
0000
0000
0000
1000
0000
0000
0001
0000
0000
0100
0000
0000
0001
0000
0000
0010
0000
0000
0000
0000
0000
0001
0000
0000
0000
0000
0000
1000
0000
0000
0000
0001
0000
0000
0000
0100
0000
0000
0000
,  // measure 51
1010
0000
0000
0001
1000
0010
0101
0000
0000
0010
1000
0001
,  // measure 52
1001
0000
0000
0000
0000
0000
0010
0000
1000
0000
0100
0000
0001
0000
0000
0001
0000
0000
0100
0000
0000
0020
0000
0000
,  // measure 53
0000
1000
0000
0002
0000
0000
0033
0000
,  // measure 54
0001
0010
0100
1000
0001
1000
0001
1001
,  // measure 55
0000
0000
0010
1000
0001
0100
0010
0000
1000
0000
0001
0000
0100
0000
0010
0000
,  // measure 56
1000
0000
0001
0100
0010
1000
0010
0000
1000
0000
0001
0000
0010
0000
1000
0100
,  // measure 57
0010
0000
0001
0010
0100
0000
1001
0000
0000
0000
1100
0000
0100
0000
0102
0000
,  // measure 58
0000
0000
0000
0000
0000
0000
0000
0000
1000
0000
0000
0000
0000
0000
0000
0000
0000
0000
0000
0000
0100
0000
0000
0000
0000
0000
0000
0000
0000
0000
0000
0000
0000
0020
0000
0000
0000
0000
0000
0000
0000
0000
0000
0000
0000
0000
0000
0000
,  // measure 59
0000
0000
0000
0000
,  // measure 60
0033
0000
0000
0000
;
