#TITLE:So Fabulous !!;
#SUBTITLE:;
#ARTIST:HHH (Ryu☆ & Dai);
#TITLETRANSLIT:D;
#SUBTITLETRANSLIT:;
#ARTISTTRANSLIT:;
#GENRE:beatmania IIDX;
#CREDIT:;
#BANNER:;
#BACKGROUND:;
#LYRICSPATH:;
#CDTITLE:;
#MUSIC:So Fabulous !!.ogg;
#OFFSET:1.200000;
#SAMPLESTART:90.593933;
#SAMPLELENGTH:15.000000;
#LASTBEATHINT:0.392986;
#SELECTABLE:YES;
#BPMS:0.000000=149.000000
;
#STOPS:
;
#BGCHANGES:0.000=So Fabulous !!.avi=1.000=0=0=0=StretchNoLoop====,
99999=-nosongbg-=1.000=0=0=0 // don't automatically add -songbackground-
;
#KEYSOUNDS:;
#ATTACKS:;

//---------------dance-single - ----------------
#NOTES:
     dance-single:
     :
     Easy:
     6:
     0.327175,0.362205,0.240640,0.157661,0.000000,228.000000,29.000000,19.000000,0.000000,0.000000,0.000000,0.327175,0.362205,0.240640,0.157661,0.000000,228.000000,29.000000,19.000000,0.000000,0.000000,0.000000:
// measure 0
0000
0000
0000
0000
,  // measure 1
0000
0000
0000
0000
,  // measure 2
0000
0000
0000
0000
,  // measure 3
0000
0000
0000
0000
,  // measure 4
0000
0000
0000
0000
,  // measure 5
1000
0100
1000
0100
,  // measure 6
0010
0000
0010
0000
,  // measure 7
0001
0010
0001
0010
,  // measure 8
0100
0000
0100
0000
,  // measure 9
1000
0100
0010
0100
,  // measure 10
1000
0000
1000
0000
,  // measure 11
0001
0010
0100
0010
,  // measure 12
0001
0000
0001
0000
,  // measure 13
2002
0000
0000
3003
,  // measure 14
0010
0000
1000
0000
,  // measure 15
0010
0100
0001
0000
,  // measure 16
0010
0000
0001
0000
,  // measure 17
0100
0010
1000
0000
,  // measure 18
0100
0000
0010
0000
,  // measure 19
1000
0001
0100
0000
,  // measure 20
0010
0000
0100
0000
,  // measure 21
0001
1000
0100
0100
,  // measure 22
1000
0001
0100
0100
,  // measure 23
0110
0000
1001
0000
,  // measure 24
1000
0010
0100
0001
,  // measure 25
0020
0100
0001
0100
,  // measure 26
2030
0001
0002
3003
,  // measure 27
0010
1000
0001
0100
,  // measure 28
0020
0100
0100
0031
,  // measure 29
0100
0010
1000
0001
,  // measure 30
0200
0010
0010
1300
,  // measure 31
0001
1000
0010
1000
,  // measure 32
0200
0001
0001
0310
,  // measure 33
0001
1000
0010
1000
,  // measure 34
0020
1000
1000
0130
,  // measure 35
0001
1000
0100
0001
,  // measure 36
1000
0010
0001
1000
,  // measure 37
0020
0130
2000
3001
,  // measure 38
0010
0100
1001
1001
,  // measure 39
0010
1000
0010
0100
,  // measure 40
0001
0100
0010
1000
,  // measure 41
1100
0001
0101
0001
,  // measure 42
1010
1001
0101
1010
,  // measure 43
0002
0000
0000
0000
,  // measure 44
0000
0000
0000
0000
,  // measure 45
2000
0000
0000
0000
,  // measure 46
3003
0000
0000
0000
,  // measure 47
1000
0010
0100
0001
,  // measure 48
1000
0010
0100
0011
,  // measure 49
0001
0100
0010
1000
,  // measure 50
0001
0100
0010
1100
,  // measure 51
1000
0010
0100
0001
,  // measure 52
1000
0010
0100
0011
,  // measure 53
0200
0000
0320
0000
,  // measure 54
1030
0001
1001
1001
,  // measure 55
0010
0010
0110
0110
,  // measure 56
0100
0100
2002
3003
,  // measure 57
0010
1000
0001
0100
,  // measure 58
0010
1000
0001
1001
,  // measure 59
0010
0100
1000
0010
,  // measure 60
0100
0001
1000
1001
,  // measure 61
0010
1000
0010
0001
,  // measure 62
0100
1000
0100
0101
,  // measure 63
0010
1000
0010
0100
,  // measure 64
0001
0010
1000
1001
,  // measure 65
1000
0010
0100
0110
,  // measure 66
0001
1000
0010
0110
,  // measure 67
1000
0010
0001
1001
,  // measure 68
0100
0010
1000
1001
,  // measure 69
0010
1000
0001
0100
,  // measure 70
0010
1000
0010
0100
,  // measure 71
0002
0000
2003
0000
,  // measure 72
3010
0100
0110
1001
;

//---------------dance-single - ----------------
#NOTES:
     dance-single:
     :
     Medium:
     9:
     0.394744,0.362205,0.282130,0.149363,0.000000,281.000000,34.000000,18.000000,0.000000,0.000000,0.000000,0.394744,0.362205,0.282130,0.149363,0.000000,281.000000,34.000000,18.000000,0.000000,0.000000,0.000000:
// measure 0
0000
0000
0000
0000
,  // measure 1
0000
0000
0000
0000
,  // measure 2
0000
0000
0000
0000
,  // measure 3
0000
0000
0000
0000
,  // measure 4
0000
0000
0000
0000
,  // measure 5
1000
0000
0010
0000
0100
0001
0010
0000
,  // measure 6
1000
0010
2002
3003
,  // measure 7
0001
0000
0100
0000
0010
1000
0100
0000
,  // measure 8
0010
0100
0110
0110
,  // measure 9
0001
0000
1000
0000
0010
0100
0001
0000
,  // measure 10
1000
0010
2002
3003
,  // measure 11
0010
0000
1000
0000
0001
0100
1000
0000
,  // measure 12
0010
0100
1100
1100
,  // measure 13
0102
0000
0000
0000
,  // measure 14
1003
0000
0010
0000
0100
0001
1000
0000
,  // measure 15
0010
0100
0220
0330
,  // measure 16
0001
0000
1000
0000
0010
0001
0100
0000
,  // measure 17
0010
1000
2002
3003
,  // measure 18
0010
0000
1000
0000
0100
0010
0001
0000
,  // measure 19
1000
0010
0220
0330
,  // measure 20
0001
0000
1000
0000
0010
1000
0001
0000
,  // measure 21
0100
0000
0010
0000
1000
0010
1010
0000
,  // measure 22
0001
0000
0000
0000
0001
0010
0011
0000
,  // measure 23
0200
0000
0320
0000
,  // measure 24
2030
0000
3001
0000
0010
0100
0001
0000
,  // measure 25
2000
0000
0000
0000
,  // measure 26
0000
0000
0000
3001
,  // measure 27
0010
1000
0001
0000
0100
0000
0010
0000
,  // measure 28
1000
0010
0001
1001
,  // measure 29
0010
1000
0001
0000
0100
0000
1000
0000
,  // measure 30
0010
0100
0001
1001
,  // measure 31
0010
1000
0001
0000
0100
0000
0010
0000
,  // measure 32
1000
0010
0100
1001
,  // measure 33
0010
1000
0100
0000
0001
0000
1000
0000
,  // measure 34
0010
0000
0001
0000
1000
0010
1001
0000
,  // measure 35
0010
1000
0001
0000
0001
0100
1000
0000
,  // measure 36
0010
1000
0001
1001
,  // measure 37
1000
0010
0001
0000
0100
0010
1000
0000
,  // measure 38
0001
0100
0010
0110
,  // measure 39
1000
0001
0100
0000
0010
1000
0001
0000
,  // measure 40
0100
0010
1000
0010
,  // measure 41
0001
0100
0010
0000
1000
0010
0100
0000
,  // measure 42
0001
0000
1000
0000
0010
0100
0110
0000
,  // measure 43
2002
0000
0000
0000
,  // measure 44
3000
0000
0000
0000
,  // measure 45
0200
0000
0000
0000
,  // measure 46
0003
0000
0000
0000
,  // measure 47
0310
1000
0010
1000
,  // measure 48
0001
0000
0010
0000
0001
0010
0001
0000
,  // measure 49
1000
0010
1000
0010
,  // measure 50
0001
0000
0010
0000
0001
0010
1000
0000
,  // measure 51
0100
1000
0100
1000
,  // measure 52
0100
0000
0001
0000
0100
0001
0100
0000
,  // measure 53
0010
1000
0010
0100
,  // measure 54
0001
0010
1000
1100
,  // measure 55
0100
0101
0001
0011
,  // measure 56
1010
1001
0101
0000
,  // measure 57
0100
0000
0010
0000
1000
0001
0100
0000
,  // measure 58
0010
1000
0001
1001
,  // measure 59
0010
0000
1000
0000
0001
0100
0010
0000
,  // measure 60
1000
0010
0110
1001
,  // measure 61
0010
0000
1000
0000
0001
0100
0010
0000
,  // measure 62
1000
0001
1000
0110
,  // measure 63
1000
0000
0010
0000
1000
0010
0100
0000
,  // measure 64
0001
0000
1000
0000
0010
0100
0110
0000
,  // measure 65
0001
0100
1000
0010
,  // measure 66
1000
0000
0001
0000
1000
0001
0010
0000
,  // measure 67
0001
1000
0010
1000
,  // measure 68
0001
0000
0100
0000
1000
0001
0100
0000
,  // measure 69
0010
1000
0001
0000
0100
0000
0110
0000
,  // measure 70
0001
1000
0010
0000
0100
0000
0110
0000
,  // measure 71
0001
0100
1000
0000
1000
0010
0001
0000
,  // measure 72
1000
0010
0100
0000
0001
0100
0110
0000
;

//---------------dance-single - ----------------
#NOTES:
     dance-single:
     :
     Hard:
     11:
     0.482465,0.482939,0.248938,0.099575,0.132767,365.000000,30.000000,12.000000,0.000000,0.000000,0.000000,0.482465,0.482939,0.248938,0.099575,0.132767,365.000000,30.000000,12.000000,0.000000,0.000000,0.000000:
// measure 0
0000
0000
0000
0000
,  // measure 1
0000
0000
0000
0000
,  // measure 2
0000
0000
0000
0000
,  // measure 3
0000
0000
0000
0000
,  // measure 4
0000
0000
0000
0000
,  // measure 5
1000
0000
0000
0010
0000
0000
0100
0000
0001
0000
1000
0000
0010
0000
0000
0000
,  // measure 6
0100
0001
0010
1000
0001
0000
1001
0000
,  // measure 7
0010
0000
0000
0100
0000
0000
0001
0000
0010
0000
1000
0000
0010
0000
0000
0000
,  // measure 8
1000
0010
0100
0001
1000
0000
1001
0000
,  // measure 9
0010
0000
0000
0100
0000
0000
0010
0000
1000
0000
0001
0000
0100
0000
0000
0000
,  // measure 10
0001
0100
1000
0010
0001
0000
1001
0000
,  // measure 11
0010
0000
0000
1000
0000
0000
0010
0000
0100
0000
0001
0000
0010
0000
0000
0000
,  // measure 12
0100
0001
1000
0010
0100
0000
0110
0000
,  // measure 13
2002
0000
0000
3003
,  // measure 14
0001
0000
0000
1000
0000
0000
0010
0000
1000
0000
0000
0010
0000
0000
1000
0000
,  // measure 15
0000
0001
0000
0100
0000
0010
1001
0000
,  // measure 16
0010
0000
0000
0100
0000
0000
0001
0000
1000
0000
0000
0010
0000
0000
1000
0000
,  // measure 17
0000
0001
0000
0000
0000
0100
0000
0000
0000
0000
0010
0000
1001
0000
0000
0000
,  // measure 18
0010
0000
0000
1000
0000
0000
0001
0000
0100
0000
0000
0010
0000
0000
1000
0000
,  // measure 19
0000
0001
0000
0100
0000
0010
1001
0000
,  // measure 20
0010
0000
0000
1000
0000
0000
0010
0000
0100
0000
0000
0001
0000
0000
0010
0000
,  // measure 21
0000
1000
0000
0010
0100
0001
1001
0000
,  // measure 22
0010
0000
0000
0000
0100
0010
1001
0000
,  // measure 23
0010
0000
0100
0000
,  // measure 24
1000
0000
0000
0010
0000
0000
0100
0000
0000
0001
0000
0000
1000
0000
0001
0000
1000
0000
0001
0000
0000
1000
0000
0000
,  // measure 25
0020
0000
0000
0000
,  // measure 26
0000
0000
0000
0000
0000
0130
0000
0000
,  // measure 27
1000
0001
0100
0000
0010
1000
0001
0000
,  // measure 28
0001
0100
0010
1000
0001
0000
1001
0000
,  // measure 29
0010
0100
0001
0000
1000
0010
0100
0000
,  // measure 30
1000
0010
0100
0001
1000
0000
1001
0000
,  // measure 31
0010
1000
0001
0000
0100
0010
1000
0000
,  // measure 32
0001
0010
1000
0100
0001
0000
1001
0000
,  // measure 33
0010
1000
0001
0000
0001
0100
1000
0000
,  // measure 34
0010
1000
0001
0100
0001
1000
1001
0000
,  // measure 35
0010
1000
0010
1000
0001
1000
0001
1000
,  // measure 36
0001
0010
0001
0010
0100
0010
1001
0000
,  // measure 37
0010
1000
0010
1000
0001
0100
0001
0100
,  // measure 38
1000
0100
1000
0100
0010
0100
0110
0000
,  // measure 39
0001
1000
0010
1000
0001
1000
0010
1000
,  // measure 40
0001
0100
0001
1000
0001
0100
1001
0000
,  // measure 41
0010
1000
0100
0001
0010
0100
1000
0010
,  // measure 42
1000
0100
0001
0010
1000
0001
1001
0000
,  // measure 43
0220
0000
0000
0000
,  // measure 44
0000
0000
0000
0000
,  // measure 45
0330
0000
0000
0000
,  // measure 46
0000
0000
0000
0000
,  // measure 47
1000
0100
0000
0100
,  // measure 48
0001
0100
0000
0100
,  // measure 49
1000
0100
0000
0100
,  // measure 50
0010
0100
0000
0100
,  // measure 51
0001
0100
1000
0100
,  // measure 52
0010
0001
0010
1000
,  // measure 53
0020
0000
0230
0000
,  // measure 54
0302
0000
0000
0000
0000
0000
1003
0010
1000
0010
0000
0000
,  // measure 55
0001
0100
0001
0100
0000
0000
0001
1000
0001
1000
0000
0000
,  // measure 56
0010
0100
0010
0100
0010
0100
0010
0000
0000
0000
0000
0000
,  // measure 57
1001
0001
1000
0010
1000
0001
0100
0010
,  // measure 58
1000
0001
0100
1000
1100
0000
1100
0000
,  // measure 59
0010
1000
0001
0100
0010
1000
0010
0100
,  // measure 60
0001
0010
1000
0010
0011
0000
0011
0000
,  // measure 61
0001
0100
1000
0100
0001
0100
1000
0100
,  // measure 62
0001
0010
1000
0010
0001
0010
1010
0000
,  // measure 63
0010
1000
0001
0100
0010
1000
0100
0010
,  // measure 64
0001
0100
0010
1000
0010
1000
1001
0000
,  // measure 65
0200
0000
0000
0000
1000
0000
1000
0000
0000
1000
0000
0000
1300
0000
0000
0000
,  // measure 66
0001
1000
0010
0100
0001
1000
1001
0000
,  // measure 67
0020
0000
0000
0000
0100
0000
0100
0000
0000
0100
0000
0000
0130
0000
0000
0000
,  // measure 68
0100
0001
1000
0010
1000
0000
1001
0000
,  // measure 69
0200
0000
0000
0000
1000
0000
1000
0000
0000
0010
0000
0000
1300
0000
0000
0000
,  // measure 70
0001
0010
1000
0010
0100
0001
1001
0000
,  // measure 71
0020
0000
0000
0000
0001
0000
0001
0000
0000
0100
0000
0000
0031
0000
0000
0000
,  // measure 72
0001
0000
0000
0010
0000
0000
1000
0000
0000
0010
0000
0000
0100
0000
0001
0000
1000
0000
1001
0000
0000
0000
0000
0000
;

//---------------dance-single - ----------------
#NOTES:
     dance-single:
     :
     Beginner:
     2:
     0.145806,0.150919,0.041490,0.091277,0.000000,107.000000,5.000000,11.000000,0.000000,0.000000,0.000000,0.145806,0.150919,0.041490,0.091277,0.000000,107.000000,5.000000,11.000000,0.000000,0.000000,0.000000:
// measure 0
0000
0000
0000
0000
,  // measure 1
0000
0000
0000
0000
,  // measure 2
0000
0000
0000
0000
,  // measure 3
0000
0000
0000
0000
,  // measure 4
0000
0000
0000
0000
,  // measure 5
0010
0000
0010
0000
,  // measure 6
0020
0000
0000
0000
,  // measure 7
0130
0000
0100
0000
,  // measure 8
0200
0000
0000
0000
,  // measure 9
1300
0000
1000
0000
,  // measure 10
2000
0000
0000
0000
,  // measure 11
3001
0000
0001
0000
,  // measure 12
0002
0000
0000
0000
,  // measure 13
1003
0000
0000
0000
,  // measure 14
0100
0000
0000
0000
,  // measure 15
0010
0000
0000
0000
,  // measure 16
0100
0000
0000
0000
,  // measure 17
0010
0000
0000
0000
,  // measure 18
1000
0000
0000
0000
,  // measure 19
0001
0000
0000
0000
,  // measure 20
1000
0000
0000
0000
,  // measure 21
0001
0000
0000
0000
,  // measure 22
0110
0000
0000
0000
,  // measure 23
0110
0000
0000
0000
,  // measure 24
0220
0000
0000
0000
,  // measure 25
0330
0000
0000
0000
,  // measure 26
0000
0000
0000
0000
,  // measure 27
1000
0000
0100
0000
,  // measure 28
1000
0000
0010
0000
,  // measure 29
1000
0000
0100
0000
,  // measure 30
1000
0000
0010
0000
,  // measure 31
0001
0000
0010
0000
,  // measure 32
0001
0000
0100
0000
,  // measure 33
0001
0000
0010
0000
,  // measure 34
0001
0000
1001
0000
,  // measure 35
0100
0000
1000
0000
,  // measure 36
0100
0000
0001
0000
,  // measure 37
0100
0000
1000
0000
,  // measure 38
0100
0000
0001
0000
,  // measure 39
0001
0000
0010
0000
,  // measure 40
1000
0000
0010
0000
,  // measure 41
0001
0000
0010
0000
,  // measure 42
1000
0000
0010
0000
,  // measure 43
0002
0000
0000
0000
,  // measure 44
0000
0000
0000
0000
,  // measure 45
0003
0000
0000
0000
,  // measure 46
0000
0000
0000
0000
,  // measure 47
1000
0000
0100
0000
,  // measure 48
1000
0000
0100
0000
,  // measure 49
0001
0000
0100
0000
,  // measure 50
0001
0000
0100
0000
,  // measure 51
1000
0000
0010
0000
,  // measure 52
1000
0000
0010
0000
,  // measure 53
0001
0000
0010
0000
,  // measure 54
0001
0000
0010
0000
,  // measure 55
0010
0000
0010
0000
,  // measure 56
0010
0010
0010
0000
,  // measure 57
0100
0000
1000
0000
,  // measure 58
0100
0000
0010
0000
,  // measure 59
0100
0000
0001
0000
,  // measure 60
0100
0000
0010
0000
,  // measure 61
1000
0000
0010
0000
,  // measure 62
0100
0000
0010
0000
,  // measure 63
0001
0000
0010
0000
,  // measure 64
0100
0000
0010
0000
,  // measure 65
1000
0000
0100
0000
,  // measure 66
0002
0000
0003
0000
,  // measure 67
0001
0000
0010
0000
,  // measure 68
2000
0000
3000
0000
,  // measure 69
0001
0000
0100
0000
,  // measure 70
2000
0000
3000
0000
,  // measure 71
1000
0000
0010
0000
,  // measure 72
0002
0000
0003
0110
;
