#TITLE:Sleep Tight feat. まこと;
#SUBTITLE:;
#ARTIST:Neko Hacker;
#TITLETRANSLIT:;
#SUBTITLETRANSLIT:;
#ARTISTTRANSLIT:;
#GENRE:Japanese Pops;
#CREDIT:;
#BANNER:;
#BACKGROUND:;
#LYRICSPATH:;
#CDTITLE:;
#MUSIC:Sleep Tight feat Makoto.ogg;
#OFFSET:0.934000;
#SAMPLESTART:51.010826;
#SAMPLELENGTH:15.000000;
#SELECTABLE:YES;
#DISPLAYBPM:123.000000;
#BPMS:0.000000=123.000000
,156.000000=122.900002
,172.000000=123.000000
;
#STOPS:
;
#BGCHANGES:;
#KEYSOUNDS:;
#ATTACKS:;

//---------------dance-single - ----------------
#NOTES:
     dance-single:
     :
     Beginner:
     1:
     0.080922,0.125092,0.018882,0.056645,0.000000,60.000000,58.000000,2.000000,6.000000,0.000000,0.000000,0.080922,0.125092,0.018882,0.056645,0.000000,60.000000,58.000000,2.000000,6.000000,0.000000,0.000000:
0000
0000
0000
0000
,
0000
0000
0000
0000
,
0000
0000
0000
0000
,
0000
0000
0000
0000
,
0000
0000
0000
0000
,
0000
0000
0000
0000
,
1000
0000
0000
0000
,
0001
0000
0000
0000
,
1000
0000
0000
0000
,
0001
0000
0000
0000
,
0100
0000
0000
0000
,
1000
0000
0000
0000
,
0100
0000
0000
0000
,
0001
0000
0000
0000
,
0010
0000
0000
0000
,
1000
0000
0000
0000
,
0010
0000
0000
0000
,
0001
0000
0000
0000
,
0100
0000
0100
0000
,
1000
0000
0000
0000
,
0100
0000
0100
0000
,
0001
0000
0000
0000
,
0010
0000
0010
0000
,
1000
0000
0000
0000
,
0010
0000
0010
0000
,
0001
0000
0000
0000
,
2002
0000
3003
0000
,
1000
0000
0100
0000
,
1000
0000
0000
0000
,
0001
0000
0100
0000
,
0001
0000
0000
0000
,
1000
0000
0010
0000
,
1000
0000
0000
0000
,
0001
0000
0010
0000
,
0001
0000
0000
0000
,
0100
0000
0010
0000
,
0100
0000
0000
0000
,
0001
0000
1000
0000
,
0001
0000
0000
0000
,
2000
0000
0000
0000
,
3000
0000
0000
0000
,
0002
0000
0000
0000
,
0003
0000
0000
0000
,
0100
0000
1000
0000
,
0100
0000
0000
0000
,
0010
0000
0001
0000
,
0010
0000
0000
0000
,
0100
0000
1000
0000
,
0001
0000
0000
0000
,
0010
0000
0001
0000
,
1000
0000
0000
0000
,
2002
0000
0000
0000
,
0000
0000
0000
0000
,
3003
0000
0000
0000
;

//---------------dance-single - ----------------
#NOTES:
     dance-single:
     :
     Easy:
     4:
     0.215792,0.300221,0.094409,0.254905,0.000000,160.000000,150.000000,10.000000,27.000000,0.000000,0.000000,0.215792,0.300221,0.094409,0.254905,0.000000,160.000000,150.000000,10.000000,27.000000,0.000000,0.000000:
0000
0000
0000
0000
,
0000
0000
0000
0000
,
0000
0000
0000
0000
,
0000
0000
0000
0000
,
0000
0000
0000
0000
,
0000
0000
0000
0000
,
1000
0000
1000
0000
,
0001
0000
0001
0000
,
0100
0000
0100
0000
,
0020
0000
0030
0000
,
1000
0100
2000
3000
,
0010
0100
0010
0001
,
0001
0010
0002
0003
,
0100
0010
1000
1001
,
0100
1000
0020
0030
,
0100
0001
0010
0110
,
0010
0001
0200
0300
,
0001
0100
1000
1001
,
2000
0000
0100
3100
,
0002
0000
0100
0103
,
2000
0000
0010
3010
,
0002
0000
0010
0013
,
0100
1000
0010
0010
,
0100
0001
0010
0010
,
0200
0001
1000
0301
,
0020
1000
0001
1030
,
0220
0000
0330
0000
,
0001
0100
0001
0010
,
1000
0010
1000
0100
,
1000
0001
0100
0010
,
0002
1000
2000
3003
,
0100
1000
0010
0010
,
0100
0001
0010
0010
,
0100
0001
0100
1100
,
0010
1000
0010
0011
,
0001
0100
1000
1010
,
1000
0010
0001
0101
,
0100
0010
1000
0001
,
0200
0010
0020
0330
,
0002
0000
0103
0100
,
2000
0000
3100
0100
,
0010
0100
0001
1000
,
2002
0000
3003
0000
,
1000
0100
0020
0030
,
0001
0010
0200
0300
,
0001
0100
2000
3000
,
1000
0010
0002
0003
,
1000
0010
0100
0010
,
0001
0100
0010
0100
,
0001
0100
1000
0010
,
1000
0010
0001
0100
,
0220
0000
0000
0000
,
0000
0000
0000
0000
,
0330
0000
0000
0000
;

//---------------dance-single - ----------------
#NOTES:
     dance-single:
     :
     Medium:
     6:
     0.252207,0.375276,0.160495,0.217141,0.000000,187.000000,170.000000,17.000000,23.000000,0.000000,0.000000,0.252207,0.375276,0.160495,0.217141,0.000000,187.000000,170.000000,17.000000,23.000000,0.000000,0.000000:
0000
0000
0000
0000
,
0000
0000
0000
0000
,
0000
0000
0000
0000
,
0000
0000
0000
0000
,
0000
0000
0000
0000
,
0000
0000
0000
0000
,
0001
0100
0001
0000
,
1000
0100
1000
0000
,
0001
0010
0001
0000
,
1000
0000
0010
1000
,
0200
1000
1300
0010
,
0001
0100
1000
1001
,
0020
0001
0100
0130
,
1000
0010
0001
1001
,
0100
1000
0001
0010
,
1000
0100
0001
0010
,
0100
0001
1000
0010
,
0200
0010
0020
0330
,
0001
0100
2000
3000
,
1000
0010
0002
0003
,
0100
0010
2000
3000
,
0010
0100
0002
0003
,
0100
1000
0001
0010
,
0100
0001
1000
0010
,
0200
0010
1000
0310
,
0020
0001
0100
0031
,
2002
0000
0000
3003
,
1000
0100
1000
0000
0010
0000
0100
0000
,
0001
0010
0001
0000
0100
0000
0010
0000
,
1000
0100
0001
0010
,
0100
1000
2002
3003
,
0100
0010
0100
0000
1000
0000
0001
0000
,
0010
0100
0010
0000
0001
0000
1000
0000
,
0200
1000
0010
0301
,
0020
0001
0100
1030
,
0001
0100
0001
0000
1000
0000
1100
0000
,
1000
0010
1000
0000
0001
0000
0011
0000
,
0100
0001
1000
0010
,
0200
0010
0020
0330
,
0002
0000
0100
0103
,
2000
0000
0010
3010
,
0001
0000
0100
0000
1000
0001
1000
0002
,
0000
0000
0000
0000
,
1003
0100
0010
0110
,
0001
0010
0100
0110
,
0100
1000
0001
1001
,
0010
0001
1000
1001
,
0100
1000
0010
1010
,
0010
0001
0100
0101
,
0011
0001
0110
0100
,
1100
0000
1000
0000
0110
0000
0100
0001
,
2002
0000
0000
0000
,
0000
0000
0000
0000
,
3003
0000
0000
0000
;

//---------------dance-single - ----------------
#NOTES:
     dance-single:
     :
     Hard:
     9:
     0.399216,0.475350,0.273786,0.198259,0.037764,296.000000,267.000000,29.000000,21.000000,0.000000,0.000000,0.399216,0.475350,0.273786,0.198259,0.037764,296.000000,267.000000,29.000000,21.000000,0.000000,0.000000:
// measure 0
0000
0000
0000
0000
,  // measure 1
0000
0000
0000
0000
,  // measure 2
0000
0000
0000
0000
,  // measure 3
0000
0000
0000
0000
,  // measure 4
0000
0000
0000
0000
,  // measure 5
0000
0000
0000
0000
,  // measure 6
0200
1000
0010
0301
,  // measure 7
0020
0001
0100
1030
,  // measure 8
0001
0100
0001
0000
1000
0100
1000
0000
,  // measure 9
0020
0000
0200
0330
,  // measure 10
0001
0000
0100
0000
0001
0000
0100
0000
0010
0000
0000
0010
0000
0000
0010
0000
,  // measure 11
0100
0000
1000
0000
0100
0000
1000
0000
0010
0000
0000
0010
0000
0000
0010
0000
,  // measure 12
1000
0000
0001
0000
1000
0000
0001
0000
0100
0000
0000
0100
0000
0000
0100
0000
,  // measure 13
0001
0100
1000
0010
0001
1000
1001
0000
,  // measure 14
1000
0000
0100
0000
0010
0000
0001
0000
0010
0000
0000
0010
0000
0000
0010
0000
,  // measure 15
0001
0000
0010
0000
0100
0000
1000
0000
0100
0000
0000
0100
0000
0000
0100
0000
,  // measure 16
0001
1000
0010
0100
0001
0010
0100
1000
,  // measure 17
2000
3002
0203
0320
,  // measure 18
0230
0000
0001
0000
1000
1000
1300
0000
,  // measure 19
0020
0000
1000
0000
0001
0001
0031
0000
,  // measure 20
0200
0000
0001
0000
0010
0010
0310
0000
,  // measure 21
0020
0000
1000
0000
0100
0100
0130
0000
,  // measure 22
0001
0100
0001
0100
1000
0100
1000
0000
,  // measure 23
1000
0010
1000
0010
0001
0010
0001
0000
,  // measure 24
0100
0010
1000
0001
0100
0010
1000
0001
,  // measure 25
0010
0000
0100
0000
1000
0000
0001
0000
0010
0000
0100
0000
1000
0001
1000
0002
,  // measure 26
2000
0000
0000
3003
,  // measure 27
1000
0100
0010
0011
0000
0001
0010
0110
,  // measure 28
0000
0010
1000
1010
0000
1000
0100
1001
,  // measure 29
0000
0001
1000
0110
0000
0001
1000
1100
,  // measure 30
0000
1000
0001
0011
0000
1000
1001
0000
,  // measure 31
0001
0100
0001
0010
1000
0100
1000
0000
,  // measure 32
1000
0010
1000
0100
0001
0010
0001
0000
,  // measure 33
1000
0010
0100
0000
0001
0100
0010
0000
,  // measure 34
0001
1000
0001
1000
0010
0100
0010
0100
,  // measure 35
0001
0010
0100
1100
0000
1000
0100
0110
,  // measure 36
0000
0010
0001
0011
0000
0001
0100
1001
,  // measure 37
0000
1000
0100
1001
0000
0010
0100
0110
,  // measure 38
0000
0001
1000
1001
0000
0100
0110
0000
,  // measure 39
0002
0100
0010
0013
,  // measure 40
2000
0010
0100
3100
,  // measure 41
0010
1000
0010
0100
0001
0010
0100
1000
,  // measure 42
2002
0000
0000
3003
,  // measure 43
1000
0100
0010
0001
0101
0000
0110
0000
,  // measure 44
0001
0010
0100
1000
1010
0000
0110
0000
,  // measure 45
0001
0100
0010
1000
1100
0000
1010
0000
,  // measure 46
1000
0010
0100
0001
0011
0000
0101
0000
,  // measure 47
0001
0100
1000
0100
0001
0010
1000
0010
,  // measure 48
0001
1000
0010
0100
0001
0010
0100
1000
,  // measure 49
0020
1000
0100
0031
,  // measure 50
0101
0000
0000
0000
1100
0000
0000
0000
1001
0000
0000
0000
0010
0000
0100
0020
,  // measure 51
0200
0000
0000
0000
,  // measure 52
0000
0000
0000
0000
,  // measure 53
0330
0000
0000
0000
;
