#TITLE:Sing a Song Sign;
#SUBTITLE:;
#ARTIST:HuΣeR feat. NU-KO;
#TITLETRANSLIT:;
#SUBTITLETRANSLIT:;
#ARTISTTRANSLIT:;
#GENRE:pop'n music;
#CREDIT:;
#BANNER:;
#BACKGROUND:;
#LYRICSPATH:;
#CDTITLE:;
#MUSIC:Sing a Song Sign.ogg;
#OFFSET:0.818000;
#SAMPLESTART:55.252033;
#SAMPLELENGTH:15.000000;
#SELECTABLE:YES;
#BPMS:0.000000=186.019958
;
#STOPS:
;
#BGCHANGES:;
#KEYSOUNDS:;
#ATTACKS:;

//---------------dance-single - ----------------
#NOTES:
     dance-single:
     :
     Easy:
     6:
     0.367013,0.384663,0.080034,0.336143,0.000000,269.000000,10.000000,42.000000,0.000000,0.000000,0.000000,0.367013,0.384663,0.080034,0.336143,0.000000,269.000000,10.000000,42.000000,0.000000,0.000000,0.000000:
0000
0000
0000
0000
,
0000
0000
0000
0000
,
0000
0000
0000
0000
,
0000
0000
0000
0000
,
0000
0000
0000
0000
,
2000
0000
0000
0000
,
3002
0000
0000
0000
,
1003
0010
0100
0001
,
0001
1000
0001
1000
0000
0000
0000
0000
,
0010
1000
0001
0100
,
0010
0010
0200
0000
,
0301
1000
0010
1000
,
0010
0010
0020
0000
,
0031
0100
0010
1000
,
0001
0100
0002
0000
,
1003
0010
0100
0001
,
1000
0100
2000
0000
,
3010
0000
2000
0000
,
3001
0000
0020
0000
,
0130
0000
0002
0000
,
1003
0000
0200
0000
,
1300
0000
0020
0000
,
0031
0000
0200
0000
,
1300
0000
0200
0000
,
0301
0000
0010
1000
,
0001
0100
0001
0100
,
1000
0100
1000
0100
,
0001
0100
0001
0100
,
1000
0010
1000
0001
,
0020
0000
0100
0000
,
0100
0000
0001
0000
,
0230
0000
0010
0000
,
0010
0000
1000
0000
,
0301
1000
0010
1000
,
0001
1000
1001
0000
,
1000
0010
0100
0010
,
1000
0010
0110
0000
,
0001
0100
0010
0100
,
0001
0100
0010
1001
,
0020
0000
1030
0001
,
0200
0000
0310
1000
,
0002
0000
0103
0010
,
2000
0000
0002
0000
,
3003
0000
0010
0010
,
1001
0100
0000
1000
,
0010
0100
0001
1000
,
1001
0100
0000
0010
,
1000
0001
0100
0010
,
2000
0000
3001
0000
,
0010
1000
0001
0100
,
0020
0000
0130
0001
,
2000
0000
3001
0010
,
1001
0010
1000
0001
,
0200
0000
0310
1000
,
0002
0000
1003
0010
,
0100
0001
0010
0100
,
2000
0000
0000
0001
0000
0000
0002
0000
,
0000
0000
0000
3003
,
0001
0100
0010
1000
,
0001
0001
1001
0000
,
1000
0100
1000
0100
,
0001
0100
0001
0100
,
1000
0010
1000
0010
,
0001
0010
0001
0010
,
2000
0001
0001
3001
,
0002
1000
1000
1003
,
0010
0100
0001
1000
,
0020
0100
0100
0130
,
0001
0100
0000
1000
,
0000
0100
0000
0001
,
0000
0100
0000
1000
,
0000
0100
0000
0001
,
0200
0000
0010
0000
,
0010
0000
0310
0001
,
2000
0000
0001
0000
,
0001
0000
3001
0100
,
1001
0100
0001
1000
,
0020
0000
0130
0001
,
2000
0000
3001
0100
,
0010
1000
0100
0010
,
0002
0000
0000
1000
0000
0000
2000
0000
,
0000
0000
0000
3003
,
1000
0010
0100
0001
,
1000
1000
1001
0000
,
0100
0001
1000
0010
,
0100
0100
0020
0000
,
1030
0001
0100
0001
,
0100
0100
0200
0000
,
1300
0010
0100
0001
,
1000
0010
2000
0000
,
3001
0100
0010
1000
,
0001
0010
0002
0000
,
0103
0220
0000
0000
,
0000
0000
0000
0000
,
0000
0000
0000
0000
,
0000
0000
0000
0000
,
0000
0330
0000
0000
0000
0000
0000
0000
;

//---------------dance-single - ----------------
#NOTES:
     dance-single:
     :
     Beginner:
     2:
     0.150921,0.147663,0.056024,0.032014,0.000000,121.000000,7.000000,4.000000,0.000000,0.000000,0.000000,0.150921,0.147663,0.056024,0.032014,0.000000,121.000000,7.000000,4.000000,0.000000,0.000000,0.000000:
0000
0000
0000
0000
,
0000
0000
0000
0000
,
0000
0000
0000
0000
,
0000
0000
0000
0000
,
0000
0000
0000
0000
,
1000
0000
0000
0000
,
0001
0000
0000
0000
,
1000
0000
0000
0000
,
0001
0000
0000
0000
,
0100
0000
1000
0000
,
0100
0000
0000
0000
,
0100
0000
0001
0000
,
0100
0000
0000
0000
,
0010
0000
1000
0000
,
0010
0000
0000
0000
,
0010
0000
0001
0000
,
0010
0000
0000
0000
,
1000
0000
0000
0000
,
0100
0000
0000
0000
,
0010
0000
0000
0000
,
0001
0000
0000
0000
,
1000
0000
0000
0000
,
0100
0000
0000
0000
,
0010
0000
0000
0000
,
0001
0000
0000
0000
,
1000
0000
0100
0000
,
1000
0000
0000
0000
,
0001
0000
0100
0000
,
0001
0000
0000
0000
,
1000
0000
0010
0000
,
1000
0000
0000
0000
,
0001
0000
0010
0000
,
0001
0000
0000
0000
,
0100
0000
1000
0000
,
0100
0000
0000
0000
,
0100
0000
0001
0000
,
0100
0000
0000
0000
,
0010
0000
1000
0000
,
0010
0000
0000
0000
,
0010
0000
0001
0000
,
0010
0000
0000
0000
,
0100
0000
0010
0000
,
0100
0000
0000
0000
,
1001
0000
0000
0000
,
0100
0000
1000
0000
,
0100
0000
0001
0000
,
0100
0000
1000
0000
,
0100
0000
0001
0000
,
0010
0000
1000
0000
,
0010
0000
0001
0000
,
0010
0000
1000
0000
,
0010
0000
0001
0000
,
1001
0000
0000
0000
,
1001
0000
0000
0000
,
0100
0000
0000
0000
,
0010
0000
0000
0000
,
2002
0000
0000
0000
,
3003
0000
0000
0000
,
0100
0000
0000
0000
,
0010
0000
0000
0000
,
1000
0000
0100
0000
,
1000
0000
0100
0000
,
0001
0000
0100
0000
,
0001
0000
0100
0000
,
1000
0000
0010
0000
,
1000
0000
0010
0000
,
0001
0000
0010
0000
,
0001
0000
0010
0000
,
1001
0000
0000
0000
,
0000
0000
0000
0000
,
0100
0000
0000
0000
,
0010
0000
0000
0000
,
1000
0000
0000
0000
,
0001
0000
0000
0000
,
1000
0000
0000
0000
,
0001
0000
0000
0000
,
0100
0100
0000
0000
,
1000
0000
0000
0000
,
0001
0000
0000
0000
,
0010
0000
0000
0000
,
2002
0000
0000
0000
,
3003
0000
0000
0000
,
0010
0000
0100
0000
,
0010
0000
0100
0000
,
0100
0000
1000
0000
,
0100
0000
0000
0000
,
0100
0000
0001
0000
,
0100
0000
0000
0000
,
0010
0000
1000
0000
,
0010
0000
0000
0000
,
0010
0000
0001
0000
,
0010
0000
0000
0000
,
0000
1001
0000
0000
;

//---------------dance-single - ----------------
#NOTES:
     dance-single:
     :
     Medium:
     9:
     0.448190,0.461596,0.296126,0.200085,0.000000,330.000000,37.000000,25.000000,0.000000,0.000000,0.000000,0.448190,0.461596,0.296126,0.200085,0.000000,330.000000,37.000000,25.000000,0.000000,0.000000,0.000000:
0000
0000
0000
0000
,
0000
0000
0000
0000
,
0000
0000
0000
0000
,
0000
0000
0000
0000
,
0000
0000
0000
0000
,
2000
0000
0000
3100
0000
0000
0002
0000
,
0000
0103
0000
0000
1001
0000
0000
0000
,
0010
1000
0001
0100
,
0010
0100
0001
1000
0000
0000
0000
0000
,
0100
0010
1000
0001
,
0100
0001
1000
0000
0010
0000
1001
0000
,
0010
0100
0001
1000
,
0010
1000
0001
0000
0100
0000
1010
0000
,
0001
0100
0010
1000
,
0001
0100
0010
0000
1000
0000
0101
0000
,
0010
1000
0001
0100
,
0001
0100
1000
0010
0000
1001
0000
0000
,
1000
0000
0001
0000
,
0200
0000
0010
0000
0010
0300
0000
0000
,
0001
0000
1000
0000
,
0020
0100
0130
0000
,
0001
0000
1000
0000
,
0200
1000
1300
0000
,
0001
0000
1000
0000
,
0020
0001
0031
0000
,
0001
0100
0010
1000
,
0001
1000
0001
0000
1001
0000
0010
0000
,
0100
0001
1000
0010
,
1000
0001
1000
0000
1001
0000
0010
0000
,
1000
0001
0100
1000
,
0001
0010
1000
0001
,
0010
1000
0010
0100
,
0001
0010
0100
1000
0000
1001
0000
0000
,
0010
1000
0001
0100
,
1000
1001
1001
0000
,
0010
1000
0001
0100
,
0001
1001
1001
0000
,
1000
0010
0100
0001
,
1000
1001
1001
0000
,
0020
1000
1000
0130
,
0200
0001
0001
0310
,
0001
0100
0010
1000
,
0001
0100
0010
0010
,
2002
0000
3003
0010
,
1001
0000
0010
0000
1000
0001
0100
0010
,
0000
1001
0010
0100
,
1001
0000
0010
0000
0001
1000
0010
0100
,
0000
0001
1000
0010
,
1100
0010
1000
0001
,
0011
0100
0001
0010
,
1000
0010
0100
0001
,
1000
0010
1001
0110
,
1001
0000
0100
0010
,
2000
0000
0000
3000
0001
0000
0100
0000
,
0020
0000
0130
0001
,
0010
1000
0010
0100
,
1100
0000
0000
0101
0000
0000
2002
0000
,
0000
0000
0000
3003
,
0001
0100
0010
1000
,
0001
0100
0010
1000
0002
0000
0003
0000
,
1001
0010
1000
0010
,
0100
0001
0100
0010
,
2000
0001
0001
3010
,
0002
0100
0100
0013
,
0100
0001
1000
0010
,
1000
0100
0001
0100
,
1000
0100
1000
0000
0001
0100
0001
0000
,
1000
0001
1000
0000
0010
0100
0010
0000
,
0002
0100
0000
0010
,
0000
0000
0100
0100
0000
0000
0010
0000
,
0000
0100
0000
0010
,
0000
0000
0100
0100
0000
0000
0010
0000
,
0103
0001
1000
0010
,
0100
0001
1000
0010
,
1000
1000
0001
0001
,
0100
0010
0100
0000
0001
1000
0001
0000
,
1001
0000
0010
0100
,
0002
0000
0000
0003
1000
0000
0010
0000
,
0200
0000
0310
1000
,
0100
0001
0100
0010
,
0011
0000
0000
1010
0000
0000
2002
0000
,
0000
0000
0000
3003
,
1000
0010
0100
0001
,
1000
0010
0100
0001
2000
0000
3000
0000
,
0010
0100
0001
1000
,
0010
1000
0001
0000
0100
0000
1001
0000
,
0100
0010
1000
0001
,
0100
0001
1000
0000
0010
0000
0101
0000
,
1000
0010
0100
0001
,
1000
0010
0100
0000
0001
0000
1010
0000
,
0100
0001
1000
0010
,
1000
0010
0001
0100
0000
1001
0000
0000
,
1100
0202
0000
0000
,
0000
0000
0000
0000
,
0000
0000
0000
0000
,
0000
0000
0000
0000
,
0000
0303
0000
0000
0000
0000
0000
0000
;

//---------------dance-single - ----------------
#NOTES:
     dance-single:
     :
     Hard:
     12:
     0.626551,0.615461,0.424180,0.208088,0.000000,469.000000,53.000000,26.000000,0.000000,0.000000,0.000000,0.626551,0.615461,0.424180,0.208088,0.000000,469.000000,53.000000,26.000000,0.000000,0.000000,0.000000:
// measure 0
0000
0000
0000
0000
,  // measure 1
0000
0000
0000
0000
,  // measure 2
0000
0000
0000
0000
,  // measure 3
0000
0000
0000
0000
,  // measure 4
0000
0000
0000
0000
,  // measure 5
2000
0000
0000
3100
0000
0000
0002
0000
,  // measure 6
0000
0013
0000
0000
1000
0001
1000
0000
,  // measure 7
0001
0010
0100
1000
0001
0010
0100
1000
,  // measure 8
0001
0100
0010
1001
0000
0000
0010
0000
,  // measure 9
1000
0001
0100
0010
0000
0010
1000
0001
,  // measure 10
0000
0001
0100
1000
0000
0010
1000
0000
,  // measure 11
0001
1000
0010
0100
0000
1000
0001
0100
,  // measure 12
0000
0010
1000
0001
0000
0010
1001
0000
,  // measure 13
0010
1000
0001
0100
0000
0001
0100
1000
,  // measure 14
0000
0001
0010
1000
0000
0001
1001
0000
,  // measure 15
0010
1000
0100
0000
0010
0100
0001
0000
,  // measure 16
0001
0010
0100
1000
0010
0100
1001
0000
,  // measure 17
0020
0000
0130
0001
,  // measure 18
2000
0000
0000
0000
3010
0000
0100
0001
,  // measure 19
0020
0000
1030
0001
,  // measure 20
0200
0000
0000
0000
0301
0000
0010
1000
,  // measure 21
0002
0000
0103
0010
,  // measure 22
2000
0000
0000
0000
3010
0000
0100
0001
,  // measure 23
0020
0000
1030
0001
,  // measure 24
0100
0000
0010
0000
1000
0001
1000
0000
,  // measure 25
0001
0010
1000
0100
0001
0000
1001
0000
,  // measure 26
0001
1000
0010
0001
0100
0000
1001
0000
,  // measure 27
0010
0100
0001
0010
1000
0000
1001
0000
,  // measure 28
1000
0010
0100
0001
1000
0000
1001
0000
,  // measure 29
0010
1000
0100
0010
0100
0001
0010
0000
,  // measure 30
0001
0100
0010
0100
1000
0010
1000
0000
,  // measure 31
0001
1000
0010
1000
0001
0000
1000
0000
,  // measure 32
0001
1000
0001
0100
0001
0000
1001
0000
,  // measure 33
0010
1000
0001
1000
0000
0001
1001
0000
,  // measure 34
0010
1000
0100
0001
0000
1001
0000
0000
,  // measure 35
0001
0100
0010
1000
0000
0001
1001
0000
,  // measure 36
0010
1000
0100
0001
0000
0001
0000
0000
,  // measure 37
0001
1000
0010
0100
0000
0010
0110
0000
,  // measure 38
0001
0010
0100
1000
0010
0100
0001
0000
,  // measure 39
1001
1100
0101
1001
,  // measure 40
0001
1000
0010
0000
0010
1000
0001
0000
,  // measure 41
0100
0000
0010
1000
0001
0100
0000
0020
,  // measure 42
0000
0100
0100
0100
,  // measure 43
0130
0000
1001
1001
,  // measure 44
0110
0000
0001
1000
0010
1000
0001
0000
,  // measure 45
1001
0110
1001
0110
,  // measure 46
1001
0000
0001
0000
1000
0001
0100
0001
,  // measure 47
1000
1001
0110
1001
,  // measure 48
1000
0100
0001
0000
0100
0001
0010
0000
,  // measure 49
1000
0001
0010
0000
0010
1000
0001
0000
,  // measure 50
0001
0010
1000
0000
0010
1000
0001
0000
,  // measure 51
0100
1000
0010
0100
0001
0100
0010
0000
,  // measure 52
1001
0000
0110
0000
0001
0010
1000
0000
,  // measure 53
0010
0100
0001
1000
0010
1000
0100
0000
,  // measure 54
1100
0000
0101
0000
0010
1000
0001
0000
,  // measure 55
0001
0010
1000
0100
0010
0100
0001
0000
,  // measure 56
0011
0000
0000
0110
0000
0000
2200
0000
,  // measure 57
0000
0000
0000
3300
,  // measure 58
0001
0100
0010
1000
0010
0100
0001
0100
,  // measure 59
0010
1000
0100
0010
0001
0000
1001
0000
,  // measure 60
0010
1000
0100
0000
0001
0100
0010
0000
,  // measure 61
1000
0010
0100
0001
0010
1000
0001
0000
,  // measure 62
0010
1000
0001
0000
0001
1000
0100
0000
,  // measure 63
1000
0001
0100
0010
0100
0001
1001
0000
,  // measure 64
0010
1000
0100
0010
0100
0001
0010
0100
,  // measure 65
1000
0010
1000
0100
0010
0001
0100
0010
,  // measure 66
2010
0010
0001
0001
,  // measure 67
0100
0100
0001
3001
,  // measure 68
1002
0203
0000
0320
,  // measure 69
0000
0000
0100
0230
0000
0000
1300
0000
,  // measure 70
0020
2030
0000
3002
,  // measure 71
0000
0000
0013
0020
0000
0000
0230
0000
,  // measure 72
0301
1000
0010
0100
,  // measure 73
0001
1000
0010
0000
0010
1000
0001
0000
,  // measure 74
1000
0010
0100
0001
0010
0100
1000
0010
,  // measure 75
1000
0001
0100
0010
1000
0000
1001
0000
,  // measure 76
1001
0000
0110
0000
1000
0100
0001
0000
,  // measure 77
0100
0010
1000
0001
0100
0001
0010
0000
,  // measure 78
0011
0000
1010
0000
0100
0001
1000
0000
,  // measure 79
1000
0100
0001
0010
0100
0010
1000
0000
,  // measure 80
1100
0000
0000
0110
0000
0000
0022
0000
,  // measure 81
0000
0000
0000
0033
,  // measure 82
1000
0010
0100
0001
0100
0010
1000
0010
,  // measure 83
0100
0001
0010
0100
1000
0000
1001
0000
,  // measure 84
0001
1000
0010
0100
0000
0100
0001
1000
,  // measure 85
0000
1000
0010
0001
0000
0100
0001
0000
,  // measure 86
1000
0001
0100
0010
0000
0001
1000
0010
,  // measure 87
0000
0100
0001
1000
0000
0100
1001
0000
,  // measure 88
0100
0001
1000
0010
0000
1000
0010
0001
,  // measure 89
0000
1000
0100
0001
0000
1000
1001
0000
,  // measure 90
0100
0001
0010
0000
0100
0010
1000
0000
,  // measure 91
1000
0100
0010
0001
0100
0010
1001
0000
,  // measure 92
0011
2020
0000
0000
,  // measure 93
0000
0000
0000
0000
,  // measure 94
0000
0000
0000
0000
,  // measure 95
0000
0000
0000
0000
,  // measure 96
0000
3030
0000
0000
0000
0000
0000
0000
;
