#TITLE:春風ブローインウィンド;
#SUBTITLE:;
#ARTIST:TAG;
#TITLETRANSLIT:Shunpuu blowing wind;
#SUBTITLETRANSLIT:;
#ARTISTTRANSLIT:;
#GENRE:pop'n music;
#CREDIT:;
#BANNER:;
#BACKGROUND:;
#LYRICSPATH:;
#CDTITLE:;
#MUSIC:Shunpuu blowing wind.ogg;
#OFFSET:0.310000;
#SAMPLESTART:89.688560;
#SAMPLELENGTH:15.000000;
#SELECTABLE:YES;
#DISPLAYBPM:80.000000:160.000000;
#BPMS:0.000000=160.000000
,136.000000=80.000000
,152.000000=160.000000
;
#STOPS:
;
#BGCHANGES:;
#KEYSOUNDS:;
#ATTACKS:;

//---------------dance-single - ----------------
#NOTES:
     dance-single:
     :
     Hard:
     14:
     0.701901,1.000000,0.309171,0.150407,0.576562,533.000000,37.000000,18.000000,0.000000,0.000000,0.000000,0.701901,1.000000,0.309171,0.150407,0.576562,533.000000,37.000000,18.000000,0.000000,0.000000,0.000000:
// measure 0
0000
0000
0000
0000
,  // measure 1
0000
0000
0000
0000
,  // measure 2
0000
0000
0000
0000
,  // measure 3
0000
0000
0000
0000
,  // measure 4
0000
0000
0000
0000
,  // measure 5
2000
0000
0100
0000
0000
0000
3100
0002
,  // measure 6
0000
0000
0010
0000
0000
0000
0013
0100
,  // measure 7
1000
0000
0000
0010
0000
0000
0100
0000
0001
0000
0000
0000
0010
0000
2000
0000
,  // measure 8
0000
0000
0000
0000
0000
0000
0000
0000
0000
0000
0000
0000
0000
0000
0000
3000
,  // measure 9
0001
0000
0000
0000
1001
0000
0001
1000
0010
0000
0000
0000
0100
0000
0001
0000
,  // measure 10
1000
0000
0000
0001
0000
0000
1000
0000
0010
0000
0000
0000
1001
0000
0000
0000
,  // measure 11
0010
0000
1000
0000
0100
0000
0010
0100
0001
0000
0010
0000
0100
0000
1000
0000
,  // measure 12
0010
0000
0000
0100
0000
0000
1000
0000
1100
0000
0000
0000
1000
0000
0010
0000
,  // measure 13
1000
0000
0001
0100
0010
0000
0001
0010
,  // measure 14
0100
0000
0000
0001
0000
0000
1000
0000
0001
0000
0000
0000
1001
0000
0000
0000
,  // measure 15
0010
0000
0100
0000
1000
0000
0010
0000
0100
0000
0001
0000
0010
0000
0100
0010
,  // measure 16
0100
0000
0000
0000
0001
0000
1000
0010
1000
0000
0001
0000
0010
0000
1000
0000
,  // measure 17
0100
0000
0010
0000
0100
0000
0001
0000
0010
0000
0100
0010
0000
0100
0010
0000
,  // measure 18
0001
0010
1000
0100
0010
0001
1000
0000
,  // measure 19
0001
0000
0100
0000
0010
0000
1000
0000
0100
0000
0001
0100
0000
0001
0100
0000
,  // measure 20
0001
0010
0100
1000
0010
0100
1001
0000
,  // measure 21
0010
0000
1000
0000
0100
0000
0001
0000
0010
0000
1000
0010
0000
1000
0010
0000
,  // measure 22
0001
1000
0010
0100
0001
0010
1000
0000
,  // measure 23
0010
0000
1000
0000
0100
0000
0010
0000
0001
0000
0000
0100
0000
0000
0010
0000
,  // measure 24
1000
0000
0100
0000
0010
0000
0001
0010
0001
0000
0000
1000
0001
0000
1001
0000
,  // measure 25
0010
0000
1000
0000
0100
0010
0000
0100
0010
0000
0100
0001
0000
1000
0010
0000
,  // measure 26
0000
0000
0001
0000
1000
0001
0000
1000
0001
0000
0100
0010
0000
0100
0001
0000
,  // measure 27
0000
0000
0001
0000
0100
0010
0000
1000
0010
0000
1000
0010
0000
0100
0001
0000
,  // measure 28
0010
0000
0000
0100
0000
0000
1000
0000
0000
1100
0000
0000
0001
0000
0100
0000
,  // measure 29
0100
0000
0001
0000
0010
0100
0000
0010
0100
0000
0010
1000
0000
0001
0100
0000
,  // measure 30
0000
0000
1000
0000
0001
1000
0000
0001
1000
0000
0010
0100
0000
0010
1000
0000
,  // measure 31
0000
0000
1000
0000
0010
0100
0000
0001
0100
0000
0001
0100
0000
0010
1000
0000
,  // measure 32
0010
0000
0000
0100
0000
0000
1000
0000
0000
0010
1000
0010
0100
0000
0001
0010
,  // measure 33
0200
0000
0000
0000
0000
0000
0000
0000
0000
0000
0000
0000
0000
0000
0000
0000
0000
0000
0000
0000
0000
0300
0000
0000
0010
0000
0000
0000
1000
0000
0000
0000
0001
0000
0000
0000
0100
0000
0000
0000
0000
0000
0000
0000
0000
0000
0000
0000
,  // measure 34
1001
0000
0000
0000
0000
0000
0100
0000
1000
0000
0000
0000
1100
0000
0000
0000
0001
0000
0000
0100
0000
0000
0010
0000
1000
0000
0100
0000
0010
0100
1000
0100
,  // measure 35
0010
0000
0000
0000
0000
0000
0000
0000
0000
0000
0000
0000
0000
0000
0000
0000
0000
0000
0000
0000
0000
0000
0000
0000
0001
0000
0000
0000
0000
0000
0000
0000
0000
0000
0000
0000
0000
0000
0000
0000
0000
0000
0000
0000
0000
0000
0000
0000
0010
0000
0000
0000
0000
0000
0000
0000
0100
0000
0000
0000
0000
0000
0000
0000
1000
0000
0000
0000
0000
0000
0000
0000
0100
0000
0000
0000
0000
0000
0000
0000
0010
0000
0000
0000
0000
0000
0000
0000
0001
0000
0000
0000
0000
0000
0000
0000
0010
0000
0000
0000
0000
0000
0000
0000
0000
0000
0000
0000
0100
0000
0000
0000
0000
0000
0010
0000
0000
0000
0000
0000
1000
0000
0000
0000
0000
0000
0000
0000
0000
0000
0000
0000
0010
0000
0000
0000
0000
0000
0000
0000
0000
0000
0000
0000
0100
0000
0000
0000
0000
0000
0001
0000
0000
0000
0000
0000
1000
0000
0000
0000
0000
0000
0000
0000
0000
0000
0000
0000
0101
0000
0000
0000
0000
0000
0000
0000
0000
0000
0000
0000
1100
0000
0000
0000
0000
0000
0000
0000
0000
0000
0000
0000
,  // measure 36
1001
0000
0000
0000
0000
0000
0010
0000
0001
0000
0000
0000
0011
0000
0000
0000
1000
0000
0010
0000
0100
0000
0001
0000
0000
0000
0100
0000
0000
0010
0001
0010
,  // measure 37
0100
0000
0000
0000
0000
0000
0000
0000
0000
0000
0000
0000
0000
0000
0000
0000
0000
0000
0000
0000
0000
0000
0000
0000
1000
0000
0000
0000
0000
0000
0000
0000
0000
0000
0000
0000
0000
0000
0000
0000
0000
0000
0000
0000
0000
0000
0000
0000
0100
0000
0000
0000
0000
0000
0000
0000
0010
0000
0000
0000
0000
0000
0000
0000
0001
0000
0000
0000
0000
0000
0000
0000
0010
0000
0000
0000
0000
0000
0000
0000
0100
0000
0000
0000
0000
0000
0000
0000
1000
0000
0000
0000
0000
0000
0000
0000
0100
0000
0000
0000
0000
0000
0000
0000
0000
0000
0000
0000
0010
0000
0000
0000
0000
0000
0000
0000
0000
0000
0000
0000
0100
0000
0000
0000
0000
0000
1000
0000
0000
0000
0000
0000
0001
0000
0000
0000
0000
0000
0000
0000
0000
0000
0000
0000
0010
0000
0000
0000
0000
0000
0000
0000
0000
0000
0000
0000
0001
0000
0000
0000
0000
0000
2000
0000
0000
0000
0000
0000
0002
0000
0000
0000
0000
0000
0000
0000
0000
0000
0000
0000
3000
0000
0000
0000
0000
0000
0000
0000
0000
0000
0000
0000
,  // measure 38
1003
0000
0010
1000
1100
0000
0101
0000
,  // measure 39
1001
0000
0010
1000
0100
0001
0010
1000
,  // measure 40
0010
0000
0001
1000
0011
0000
1001
0000
,  // measure 41
1100
0000
0010
1000
0100
0010
0001
0100
,  // measure 42
1001
0000
0100
0001
0011
0000
1010
0000
,  // measure 43
1001
0000
0100
0001
0010
1000
0100
0001
,  // measure 44
0100
0000
1000
0001
1100
0000
1001
0000
,  // measure 45
0011
0000
0100
0001
0010
0100
1000
0010
,  // measure 46
0220
0000
0300
0000
,  // measure 47
0031
0000
0000
0010
0000
0000
0100
0000
0000
0000
1000
0000
1100
0000
0000
0000
,  // measure 48
2000
0000
0000
0000
3000
0000
0010
0100
0020
0000
0000
0000
0030
0000
0001
0100
,  // measure 49
0010
0000
0000
1000
0000
0000
0010
0000
2000
0000
0000
0000
0000
0000
0100
0000
,  // measure 50
3200
0000
0000
0000
0300
0000
1000
0010
0100
0000
0001
0000
0010
0000
0100
0000
,  // measure 51
0002
0000
0000
0010
0000
0000
0010
0000
0103
0000
0010
1000
0001
0100
1000
0100
,  // measure 52
0002
0000
0000
0000
0003
0000
0100
0010
0200
0000
0000
0000
0300
0000
1000
0010
,  // measure 53
0100
0000
0000
0001
0000
0000
0100
0000
0002
0000
0000
0000
0010
0000
0000
0000
,  // measure 54
0023
0000
0030
0001
0011
0000
0000
1000
,  // measure 55
2010
0000
0000
0100
0000
0000
3100
0000
0010
0000
1001
0000
1000
0010
1000
0010
,  // measure 56
0100
0000
0000
0000
0001
0000
0100
0010
1000
0000
0010
0000
1000
0000
0001
0100
,  // measure 57
0010
0000
0100
0010
0000
1000
0010
0000
0001
0000
0100
0000
0010
0000
1000
0000
,  // measure 58
0100
0000
0010
0000
0001
0000
0100
0001
1000
0000
0010
0000
1000
0000
0100
0000
,  // measure 59
0010
0000
0001
0100
0000
0010
1000
0000
0010
0000
1000
0000
0001
1000
0001
1000
,  // measure 60
0010
0100
0001
0010
1000
0100
0010
0001
,  // measure 61
1000
0000
0010
1000
0000
0100
1000
0000
0010
0000
0001
0000
0010
0000
0100
0000
,  // measure 62
1000
0000
0010
1000
0000
0001
0100
0000
0010
0000
0100
0001
0000
1000
0010
0000
,  // measure 63
1000
0000
0001
1000
0000
0010
1000
0000
0001
0000
0010
0000
1000
0000
0100
0000
,  // measure 64
1001
0000
0010
0000
1000
0000
0100
0000
0010
0000
0001
1000
0000
0010
1000
0001
,  // measure 65
0100
0000
0010
0000
1000
0000
0100
0000
0010
0000
0100
0001
0000
0001
0100
0010
,  // measure 66
1000
0000
0010
0000
0100
0000
0010
0000
1000
0000
0010
1000
0000
0100
0010
0100
,  // measure 67
0001
0000
0010
0000
0100
0000
1000
0000
0010
0000
0010
0100
0000
0001
0100
1000
,  // measure 68
0010
0000
0100
0000
0001
0000
0010
0000
0100
0000
1000
0001
0000
0100
0001
1000
,  // measure 69
0010
0000
0100
0000
0001
0000
0010
0000
0100
0000
0010
1000
0000
0001
0010
0100
,  // measure 70
0010
0000
1000
0000
0010
0000
0100
0000
0001
0000
0010
0001
0000
1000
0100
0010
,  // measure 71
0100
0000
1000
0000
0010
0000
0001
0000
0100
0000
0100
0010
0000
1000
0100
0000
,  // measure 72
0001
0000
0101
0000
0000
0000
1100
0000
1001
0000
0000
1001
0000
0000
0110
0000
;

//---------------dance-single - ----------------
#NOTES:
     dance-single:
     :
     Medium:
     11:
     0.459578,0.578494,0.167119,0.150407,0.033424,347.000000,20.000000,18.000000,0.000000,0.000000,0.000000,0.459578,0.578494,0.167119,0.150407,0.033424,347.000000,20.000000,18.000000,0.000000,0.000000,0.000000:
0000
0000
0000
0000
,
0000
0000
0000
0000
,
0000
0000
0000
0000
,
0000
0000
0000
0000
,
0000
0000
0000
0000
,
1000
0100
0010
0000
1000
0000
1001
0000
,
0001
0010
0100
0000
1000
0000
1001
0000
,
0001
0010
0100
0000
0010
1000
0100
0020
,
0000
0000
0000
0030
,
0001
0000
0010
1000
0100
0000
0010
0100
,
0001
0000
0010
0100
1000
0001
0010
0000
,
2000
0000
3100
0000
0010
0100
0001
0010
,
1000
0000
0001
0000
1001
0000
0001
1000
,
0010
0000
1000
0000
0100
0000
0010
0100
,
0001
0000
0010
0000
1000
0000
0001
1000
,
0100
0000
0001
0100
0010
0000
1000
0000
,
0002
0000
0000
0000
1000
0000
0000
0000
0100
0000
0000
0000
0010
0003
0000
0000
,
1000
0010
0100
0000
0001
0000
1001
0000
,
0001
0100
0010
0000
1000
0000
1001
0000
,
1000
0100
0010
0000
0100
0010
0001
0000
,
0001
0010
0100
0000
0010
0100
1000
0000
,
0010
1000
0100
0000
1001
0000
0001
0000
,
0010
1000
0100
0000
0001
0010
0100
0000
,
0001
0010
0100
0000
0101
0000
0010
0000
,
1000
0100
0010
0000
0001
0000
1001
0000
,
0220
0000
0330
0000
0010
0000
0010
1000
,
0100
0000
0001
0000
0010
1000
0100
0000
,
0001
0100
0001
0000
0010
0000
1000
0000
,
0001
0100
0010
0000
1000
0000
0100
0000
,
2002
0000
3003
0000
0010
0100
0001
0000
,
0010
0000
0100
0000
0001
1000
0100
0000
,
0010
0000
1000
0000
0100
0010
0001
0000
,
1000
0010
1000
0100
0010
0000
0001
0000
,
2002
0000
0000
3003
,
0001
0000
0000
1000
0100
0000
0000
0000
0100
0000
0010
0000
1001
0000
0000
0000
,
0001
0000
0010
0000
0100
1000
0100
0010
0002
0000
0000
0000
1003
0000
0010
0000
,
0200
0000
0000
0000
0310
0000
1000
0000
0001
0000
0010
0100
1000
0000
0010
0000
,
1000
0000
0010
0000
1000
0100
0010
0001
0010
0000
0100
0000
1001
0000
0000
0000
,
0010
0000
1000
0100
0010
0000
1000
0000
,
0001
0000
0100
0001
0010
0000
1000
0000
,
0010
0000
0001
0010
0100
0000
0010
0000
,
1000
0000
0010
1000
0100
0000
0010
0000
,
1000
0000
0001
1000
0100
0000
0001
0000
,
0010
0000
1000
0001
0010
0000
0100
0000
,
1001
0000
0010
1000
0100
0000
0010
0000
,
1001
0000
0001
0100
0010
1000
0001
0000
,
1002
0000
0000
0000
0000
0000
0000
0003
,
1000
0000
0000
0010
0000
0000
0100
0000
0000
0000
0000
0000
0001
0000
0000
0000
,
0020
0000
1030
0100
,
2000
0000
0000
0000
0001
3000
0000
0000
0010
0000
0000
0000
0000
0000
0000
0000
,
0020
0000
0000
0000
0000
0000
0000
0030
0100
0000
0001
0000
0010
0000
0000
0000
,
1000
0000
0010
1000
0100
0000
0000
0000
,
0010
0100
0001
0010
,
0001
0010
0100
1000
0010
0000
0001
0000
,
1000
0010
1000
0100
,
0001
0010
0100
1000
0010
0000
0000
0000
,
1100
0000
1001
0000
0001
0010
1000
0000
,
0010
0000
1000
0000
0100
0010
1000
0000
,
0001
0000
1000
0000
0100
1000
0100
0001
,
0010
0001
0010
0011
,
1000
0100
0001
0000
0001
0100
1000
0000
,
0010
1000
0100
0000
0010
0100
0001
0000
,
0020
1000
0100
0031
,
0001
0010
0100
1000
0010
0000
0000
0000
,
1100
0000
1000
0010
1000
0100
0001
0000
,
0010
0000
0100
0001
0010
0100
0001
0000
,
0010
0000
1000
0001
0010
0100
1000
0000
,
0010
0000
1000
0100
0010
0100
0001
0000
,
0001
0000
0010
0100
1000
0010
0100
0000
,
1000
0000
1000
0100
0010
0100
0001
0000
,
0001
0010
0100
1000
0001
0010
0100
1000
,
0002
0000
0000
0000
0000
0000
0000
0000
1000
0000
0000
0000
1000
0003
0000
0000
,
0200
0000
0010
0000
0000
0000
0310
0000
1000
0000
0000
0001
0000
0000
0010
0000
;

//---------------dance-single - ----------------
#NOTES:
     dance-single:
     :
     Easy:
     7:
     0.362888,0.365364,0.217255,0.233967,0.000000,250.000000,26.000000,28.000000,0.000000,0.000000,0.000000,0.362888,0.365364,0.217255,0.233967,0.000000,250.000000,26.000000,28.000000,0.000000,0.000000,0.000000:
0000
0000
0000
0000
,
0000
0000
0000
0000
,
0000
0000
0000
0000
,
0000
0000
0000
0000
,
0000
0000
0000
0000
,
2000
0000
0000
0000
,
3002
0000
0000
0000
,
1003
0000
0010
0000
0100
0000
0001
0020
,
0000
0000
0030
0000
,
0001
0010
1000
0100
,
0010
1000
0100
0000
0010
0000
1000
0000
,
0001
0010
0100
1000
,
0001
0100
0010
0000
1000
0000
0100
0000
,
1001
0010
1000
0100
,
0001
0100
0010
0000
1000
0000
0100
0000
,
0001
0100
0010
1000
,
0100
1000
0010
0000
0100
0000
1001
0000
,
0010
0000
0010
0000
1000
0100
0010
0000
,
0001
0010
0100
0010
,
1010
0000
0010
0000
0001
0100
0010
0000
,
0001
1000
0010
0001
,
0101
0000
0010
0000
0010
0100
0001
0000
,
0010
1000
0100
0010
,
0101
0000
0010
0000
0100
1000
0010
0000
,
2000
0000
0002
3003
,
0001
0000
0010
0000
0100
0000
1000
0010
,
0100
0000
0001
0000
0010
0000
0100
0001
,
0010
0000
1000
0000
0100
0000
0010
0100
,
0002
0000
0100
0103
,
0010
0000
1000
0000
0100
0010
1000
0000
,
0001
0000
0010
0000
0100
0001
0010
0000
,
1000
0100
0001
0010
,
2000
3010
0001
0010
,
0200
0000
0020
0330
,
0001
1100
1000
0101
,
0010
0010
0100
0000
1000
0000
1001
0000
,
0001
0101
1000
1100
,
0010
0000
0100
0000
1000
1000
0001
0000
,
0110
1000
0100
0000
,
0110
0001
0100
0000
,
1001
0100
0010
0000
,
1001
0010
0100
0000
,
1100
0010
0001
0000
,
0011
0100
1000
0000
,
1001
0100
0010
0100
,
1001
0100
0010
0100
,
0020
0000
0000
0000
,
0100
0000
0100
0030
0100
0000
2000
0000
,
0020
0030
0010
0000
,
0002
0003
0001
0000
,
3020
0000
0200
0300
,
0100
0002
0003
0031
,
0020
0000
0032
0000
,
0203
0000
2300
0000
,
3010
0010
0100
0100
,
1001
0000
0000
0000
,
1100
1000
0001
0010
,
1000
0100
0010
1000
,
0011
0100
0001
0010
,
1000
0100
0010
0001
,
0101
0010
1000
0100
,
0010
0001
0010
1000
,
1010
0100
1000
0010
,
0200
0000
0010
0310
,
0002
0010
0100
1003
,
2000
0100
0010
3001
,
0002
1000
0100
0013
,
2000
0001
0010
3100
,
0020
1000
0100
0031
,
0200
0001
0010
1300
,
0010
1000
0100
1100
,
1000
0010
0100
0011
,
0020
0100
0000
0100
0130
0000
0000
0110
;

//---------------dance-single - ----------------
#NOTES:
     dance-single:
     :
     Beginner:
     2:
     0.124146,0.121161,0.041780,0.000000,0.000000,99.000000,5.000000,0.000000,0.000000,0.000000,0.000000,0.124146,0.121161,0.041780,0.000000,0.000000,99.000000,5.000000,0.000000,0.000000,0.000000,0.000000:
0000
0000
0000
0000
,
0000
0000
0000
0000
,
0000
0000
0000
0000
,
0000
0000
0000
0000
,
0000
0000
0000
0000
,
1001
0000
0000
0000
,
0010
0000
0000
0000
,
0100
0000
0000
0000
,
0010
0000
0000
0000
,
1000
0000
0001
0000
,
1000
0000
0001
0000
,
1000
0000
1000
0000
,
0001
0000
0001
0000
,
0100
0000
0010
0000
,
0100
0000
0010
0000
,
0100
0000
0100
0000
,
0010
0000
0010
0000
,
1000
0000
0000
0000
,
0001
0000
0000
0000
,
1000
0000
0000
0000
,
0001
0000
0000
0000
,
0100
0000
0000
0000
,
0010
0000
0000
0000
,
0100
0000
0000
0000
,
0010
0000
0000
0000
,
1000
0000
0001
0000
,
1000
0000
0000
0000
,
0001
0000
1000
0000
,
0001
0000
0000
0000
,
0100
0000
0010
0000
,
0100
0000
0000
0000
,
0010
0000
0100
0000
,
0010
0000
0000
0000
,
1001
0000
0000
0000
,
0100
0000
0100
0000
,
0010
0000
0010
0000
,
1000
0000
1000
0000
,
0001
0000
0001
0000
,
1000
0000
0000
0000
,
0001
0000
0000
0000
,
1000
0000
0000
0000
,
0001
0000
0000
0000
,
0010
0000
0000
0000
,
0100
0000
0000
0000
,
0010
0000
0000
0000
,
0100
0000
0000
0000
,
1001
0000
0000
0000
,
0000
0000
0000
0000
,
0010
0000
0000
0000
,
0010
0000
0000
0000
,
0100
0000
0000
0000
,
0100
0000
0000
0000
,
1000
0000
0001
0000
,
1000
0000
0001
0000
,
0100
0000
0010
0000
,
0100
0000
0000
0000
,
1000
0000
0001
0000
,
1000
0000
0001
0000
,
1000
0000
0001
0000
,
1000
0000
0001
0000
,
0100
0000
0010
0000
,
0100
0000
0010
0000
,
0100
0000
0010
0000
,
0100
0000
0010
0000
,
1000
0000
0100
0000
,
1000
0000
0000
0000
,
0001
0000
0100
0000
,
0001
0000
0000
0000
,
1000
0000
0010
0000
,
1000
0000
0000
0000
,
0001
0000
0010
0000
,
0001
0000
0000
0000
,
0110
0000
0110
0000
;
