#TITLE:聖徳たいこの「日いずるまで飛鳥」;
#SUBTITLE:;
#ARTIST:Yuuya Kobayashi (IOSYS) feat. miko (From 太鼓の達人);
#TITLETRANSLIT:;
#SUBTITLETRANSLIT:;
#ARTISTTRANSLIT:;
#GENRE:Anime/Game;
#CREDIT:;
#BANNER:;
#BACKGROUND:;
#LYRICSPATH:;
#CDTITLE:;
#MUSIC:Shotoku Taiko no (Hi Izuru Made Asuka).ogg;
#OFFSET:1.820000;
#SAMPLESTART:48.272030;
#SAMPLELENGTH:15.000000;
#LASTBEATHINT:1.290445;
#SELECTABLE:YES;
#DISPLAYBPM:160.000000:200.000000;
#BPMS:0.000000=100.000000
,16.000000=160.000000
,208.000000=200.000000
,272.000000=160.000000
;
#STOPS:
;
#BGCHANGES:;
#KEYSOUNDS:;
#ATTACKS:;

//---------------dance-single - ----------------
#NOTES:
     dance-single:
     :
     Beginner:
     3:
     0.127407,0.200666,0.028769,0.165424,0.000000,124.000000,120.000000,4.000000,23.000000,0.000000,0.000000,0.127407,0.200666,0.028769,0.165424,0.000000,124.000000,120.000000,4.000000,23.000000,0.000000,0.000000:
0000
0000
0000
0000
,
0000
0000
0000
0000
,
0000
0000
0000
0000
,
0000
0000
0000
0000
,
0000
0000
0000
0000
,
0000
0000
0000
0000
,
0001
0000
0001
0000
,
2000
0000
3000
0000
,
1000
0000
1000
0000
,
0002
0000
0003
0000
,
0100
0000
0100
0000
,
0020
0000
0030
0000
,
0010
0000
0010
0000
,
0200
0000
0300
0000
,
1000
0000
0000
0000
,
0001
0000
0000
0000
,
1000
0000
0000
0000
,
0001
0000
0000
0000
,
0100
0000
0010
0000
,
0100
0000
0000
0000
,
0010
0000
0100
0000
,
0020
0000
0030
0000
,
1000
0000
0100
0000
,
0010
0000
0000
0000
,
0001
0000
0010
0000
,
0100
0000
0000
0000
,
1000
0000
0100
0000
,
0010
0000
0001
0000
,
2000
0000
3000
0000
,
0002
0000
0003
0000
,
0200
0000
0000
0000
,
0310
0000
0010
0000
,
0100
0000
0000
0000
,
1000
0000
0100
0000
,
0010
0000
0000
0000
,
0001
0000
0010
0000
,
0100
0000
0000
0000
,
1000
0000
0100
0000
,
0001
0000
0000
0000
,
0001
0000
0010
0000
,
1000
0000
0000
0000
,
0100
0000
1000
0000
,
0010
0000
0000
0000
,
0010
0000
0001
0000
,
0100
0000
0000
0000
,
2000
0000
0000
0000
,
3002
0000
0000
0000
,
0103
0000
0010
0000
,
0200
0000
0000
0300
,
0020
0000
0000
0030
,
2000
0000
0000
3000
,
0002
0000
0003
0000
,
1001
0000
0000
0000
,
1000
0000
0000
0000
,
0100
0000
0000
0000
,
1000
0000
0000
0000
,
0010
0000
0000
0000
,
0001
0000
0000
0000
,
0100
0000
0000
0000
,
0001
0000
0000
0000
,
0010
0000
0000
0000
,
1000
0000
0000
0000
,
0100
0000
0000
0000
,
0010
0000
0000
0000
,
0001
0000
0000
0000
,
0001
0000
0000
0000
,
0010
0000
0000
0000
,
0100
0000
0000
0000
,
1000
0000
0000
0000
,
1001
0000
0000
0000
,
0100
0000
0000
0000
,
0010
0000
0100
0000
,
0020
0000
0030
0000
,
1000
0000
0001
0000
,
2000
0000
3000
0000
,
0001
0000
1000
0000
,
0002
0000
0003
0000
,
1000
0000
0100
0000
,
0010
0000
0001
0000
,
1000
0000
0010
0000
,
0100
0000
0001
0000
,
0001
0000
0100
0000
,
0010
0000
1000
0000
,
0001
0000
1000
0000
,
2002
0000
0000
3003
,
0100
0000
1000
0000
,
0200
0000
0300
0000
,
0010
0000
0001
0000
,
0020
0000
0030
0000
,
1000
0000
0100
0000
,
0002
0000
0003
0000
,
0001
0000
0010
0000
,
2000
0000
3000
0000
,
1001
0000
0000
0000
;

//---------------dance-single - ----------------
#NOTES:
     dance-single:
     :
     Easy:
     6:
     0.307215,0.368877,0.093500,0.266116,0.000000,299.000000,286.000000,13.000000,37.000000,0.000000,0.000000,0.307215,0.368877,0.093500,0.266116,0.000000,299.000000,286.000000,13.000000,37.000000,0.000000,0.000000:
0000
0000
0000
0000
,
0000
0000
0000
0000
,
0000
0000
0000
0000
,
0000
0000
0000
0000
,
0000
0000
0000
0000
,
0000
0000
0000
0000
,
0001
0001
0100
1000
,
0100
0100
0010
1000
,
0010
0010
0100
0001
,
2000
0000
3002
0000
,
1003
0100
0010
0010
,
0001
0010
0100
0100
,
1000
0100
0010
0001
,
2002
0000
0000
3003
,
0200
0000
0000
0000
,
0010
0000
1000
0000
,
0320
0000
0000
0000
,
0100
0000
0001
0000
,
0130
0010
1000
0001
,
0100
0001
0010
1000
,
0200
0000
0320
0000
,
2030
0001
0002
3003
,
0001
0100
1000
0100
,
0001
0010
1000
0010
,
1000
0010
0001
0010
,
1000
0100
0001
0100
,
1000
0001
1000
0001
,
0100
0010
0100
0010
,
0001
0110
1000
0110
,
0001
0100
1000
0010
,
0002
0000
1000
1000
,
2000
0000
0000
3003
,
0100
1000
0010
0010
,
0100
0001
0010
0010
,
0100
1000
0001
0010
,
2000
0010
0200
3300
,
0010
0001
1000
0100
,
0010
0100
0001
1000
,
0010
1000
0100
0001
,
0010
0010
0220
0330
,
0001
0100
1000
0010
,
1000
0010
0001
0100
,
1000
0001
1000
0001
,
0100
0100
0220
0330
,
0001
0100
1000
0010
,
0001
0001
2002
3003
,
0010
0100
1000
1000
,
2002
0000
0000
3003
,
0100
1000
0010
0010
,
0100
0001
0010
0010
,
1000
0001
0100
0100
,
0001
1000
0200
0000
,
0020
0000
0000
0330
,
0001
0000
0100
0000
,
1000
1000
1000
0000
,
1000
0000
0010
0000
,
0001
0001
0001
0000
,
0100
0000
0010
0000
,
1000
1000
1000
0000
,
0010
0000
0100
0000
,
0001
0001
0001
0000
,
1000
0100
0010
0000
,
0001
0010
0100
0000
,
1000
0100
0001
0000
,
0001
0010
1000
0000
,
1000
0010
1000
0100
,
0001
0100
0001
0010
,
1000
0001
1000
0001
,
2002
0000
0000
3003
,
0200
0000
0000
0010
,
0020
0000
0000
0330
,
0001
0100
1000
0010
,
1000
0010
0001
0100
,
0001
0100
0010
1000
,
1000
0010
0100
0001
,
0100
1000
0010
0001
,
0100
0010
0220
0330
,
0001
0100
0010
0100
,
1000
0010
0100
0010
,
1000
0001
0100
0010
,
1000
1000
2002
3003
,
0001
0100
0010
1000
,
0001
0001
2002
3003
,
0100
0001
1000
1000
,
2002
0000
0000
3003
,
0100
1000
0010
0010
,
0100
0001
0010
0010
,
0100
0001
1000
1000
,
0010
1000
0001
0001
,
1000
0010
0100
0001
,
0001
0100
0010
1000
,
0001
1000
0001
1000
,
0020
0000
0100
0100
,
0130
0110
0000
0000
;

//---------------dance-single - ----------------
#NOTES:
     dance-single:
     :
     Medium:
     9:
     0.403798,0.503014,0.201385,0.287693,0.028769,393.000000,365.000000,28.000000,40.000000,0.000000,0.000000,0.403798,0.503014,0.201385,0.287693,0.028769,393.000000,365.000000,28.000000,40.000000,0.000000,0.000000:
0000
0000
0000
0000
,
0000
0000
0000
0000
,
0000
0000
0000
0000
,
0000
0000
0000
0000
,
0000
0000
0000
0000
,
0000
0000
0000
0000
,
1000
0000
0100
0000
0010
0010
0010
0000
,
0001
0000
0010
0000
0100
0100
0100
0000
,
1000
0000
0100
0000
0010
0010
0010
0000
,
0001
0000
0010
0000
0100
0100
0100
0000
,
1000
0000
0100
0000
0001
0001
0001
0000
,
0001
0000
0010
0000
1000
1000
1000
0000
,
0100
0000
1000
0000
0010
0010
0010
0000
,
2002
0000
0000
3003
,
0200
0000
0010
0310
,
0020
0000
0100
0130
,
0001
1000
0001
1000
,
0010
0100
0010
0000
0220
0000
0330
0000
,
0002
0000
1003
0000
0100
0010
1000
0000
,
0010
0001
0100
0000
0010
0000
1000
0000
,
2002
0000
0000
3003
,
0100
0000
0000
0100
0000
0000
0200
0000
0020
0000
0000
0000
0330
0000
0000
0000
,
0001
0000
0000
0100
0000
0000
1000
0000
0000
0000
0000
0000
1001
0000
0000
0000
,
1000
0000
0000
0010
0000
0000
0001
0000
0000
0000
0000
0000
1001
0000
0000
0000
,
0001
0000
0000
0010
0000
0000
1000
0000
0000
0000
0000
0000
1001
0000
0000
0000
,
0100
0010
0100
0010
0100
0000
1001
0000
,
0100
1000
0010
0000
0001
0000
1001
0000
,
0010
0001
0100
0000
1000
0000
1001
0000
,
0100
0100
0010
0000
1000
1000
0001
0000
,
0010
1000
0001
0000
0100
0010
1000
0000
,
0002
0000
1000
1003
,
0200
0000
0020
0330
,
0001
0100
1000
0000
0010
0000
0001
0000
,
1000
0010
0001
0000
0100
0000
1000
0000
,
0001
1000
0010
0100
,
0001
0100
2002
3003
,
1000
0010
0100
0000
0001
0000
0010
0000
,
0100
0001
0010
0000
1000
0000
0010
0000
,
0001
1000
0010
0100
,
0001
1000
0001
1000
0000
0000
1001
0000
,
0100
1000
0010
0010
,
0100
0001
0010
0010
,
0100
1000
0001
0010
,
1000
0001
1000
0000
2002
0000
3003
0000
,
0100
1000
0010
0010
,
0001
1000
2002
3003
,
0100
0010
1000
0001
,
2002
0000
0000
3003
,
0100
1000
0010
0000
0001
0000
1001
0000
,
0010
0001
0100
0000
1000
0000
1001
0000
,
0100
1000
0010
0000
0001
0000
1001
0000
,
0010
0000
0000
0100
0000
0000
0020
0000
0000
0000
0000
0000
0000
0000
0000
0000
,
0200
0000
0000
0330
,
0001
0100
1000
0010
,
0001
0000
1000
0000
0001
1000
0001
0000
,
0010
1000
0100
0010
,
0100
0000
0001
0000
1000
0001
1000
0000
,
0010
1000
0100
0001
,
0010
0000
1000
0000
0010
0100
0010
0000
,
0001
1000
0010
0100
,
0001
0000
1000
0000
0100
0010
0100
0000
,
0001
0100
1000
0010
,
0001
0000
1000
0000
0001
1000
0001
0000
,
0200
1000
0010
1300
,
0020
0001
0100
0031
,
0001
0000
0100
0000
1000
0010
1000
0000
,
0010
0001
0100
1000
,
0100
0000
0001
0000
0010
0001
0010
0000
,
2002
0000
0000
3003
,
0200
0000
0000
0000
0000
0000
0000
0000
0000
0000
0010
0000
0000
0010
0000
0000
,
0020
0000
0000
0330
,
0001
0100
1000
0000
0010
0000
1001
0000
,
1000
0010
0001
0000
1000
0000
1001
0000
,
0100
1000
0010
0001
,
0100
0010
0100
0000
0001
0000
1000
0000
,
0002
1000
0100
0013
,
2000
0001
0010
3100
,
0001
0000
1000
0000
0010
0100
0010
0000
,
1000
0000
0001
0000
0100
0010
0100
0000
,
0001
0100
1000
0010
,
0001
1000
2002
3003
,
0100
0000
1000
0000
0010
0100
0010
0000
,
0001
0000
0000
1000
0000
0000
2002
0000
0000
0000
0000
0000
3003
0000
0000
0000
,
1000
0000
0000
0000
0001
0000
0000
0000
1000
0000
0000
0001
0000
0000
2002
0000
,
0000
0000
0000
3003
,
0100
1000
0010
0000
0001
0000
1001
0000
,
0010
0001
0100
0000
1000
0000
1001
0000
,
0100
1000
0010
0000
0001
0000
1001
0000
,
0010
0001
0100
0000
1000
0000
1001
0000
,
0100
1000
0010
0000
0010
0100
0001
0000
,
0001
0100
0010
0000
0010
0100
1000
0000
,
1000
0100
0001
0000
0001
0010
1000
0000
,
0001
1000
0002
2000
,
3003
1001
0000
0000
;

//---------------dance-single - ----------------
#NOTES:
     dance-single:
     :
     Hard:
     12:
     0.531205,0.603616,0.230155,0.194193,0.251732,517.000000,485.000000,32.000000,27.000000,0.000000,0.000000,0.531205,0.603616,0.230155,0.194193,0.251732,517.000000,485.000000,32.000000,27.000000,0.000000,0.000000:
// measure 0
0000
0000
0000
0000
,  // measure 1
0000
0000
0000
0000
,  // measure 2
0000
0000
0000
0000
,  // measure 3
0000
0000
0000
0000
,  // measure 4
0000
0000
0000
0000
,  // measure 5
0000
0000
0000
0000
,  // measure 6
1000
0000
0000
0100
0000
0000
0010
0000
0000
0001
0000
0000
1001
0000
0000
0000
,  // measure 7
0001
0000
0000
0010
0000
0000
0100
0000
0000
1000
0000
0000
1001
0000
0000
0000
,  // measure 8
1000
0000
0000
0100
0000
0000
0010
0000
0000
0001
0000
0000
1001
0000
0000
0000
,  // measure 9
0001
0000
0000
0010
0000
0000
0100
0000
0000
1000
0000
0000
1001
0000
0000
0000
,  // measure 10
1000
0000
0000
0010
0000
0000
0100
0000
0000
0001
0000
0000
1001
0000
0000
0000
,  // measure 11
0001
0000
0000
0100
0000
0000
0010
0000
0000
1000
0000
0000
1001
0000
0000
0000
,  // measure 12
1000
0000
0000
0010
0000
0000
0100
0000
0000
0001
0000
0000
1001
0000
0000
0000
,  // measure 13
0020
0000
0100
0130
,  // measure 14
0002
0000
1000
1003
,  // measure 15
0001
0000
0100
0000
1000
0000
0100
0000
0001
0000
0000
0001
0000
0000
1000
0000
,  // measure 16
2002
0000
0000
3003
,  // measure 17
0011
0000
0000
0100
0000
0000
0010
0000
1000
0000
0000
0000
1001
0000
0000
0000
,  // measure 18
1000
0010
0100
0000
0001
0100
0010
0000
,  // measure 19
1000
0010
0100
0001
0100
0010
1000
0000
,  // measure 20
0002
0000
2000
3003
,  // measure 21
0001
0000
0000
1000
0000
0000
0010
0000
0100
0000
0000
0000
0110
0000
0000
0000
,  // measure 22
0001
0000
0000
0100
0000
0000
1000
0000
0000
0010
0000
0000
1001
0000
0000
0000
,  // measure 23
0010
0000
0000
0001
0000
0000
1000
0000
0000
0100
0000
0000
1001
0000
0000
0000
,  // measure 24
0001
0000
0000
0100
0000
0000
0010
0000
0000
1000
0000
0000
1001
0000
0000
0000
,  // measure 25
1000
0000
0000
0010
0000
0000
0100
0000
0000
0000
0001
1000
0001
0000
0000
0000
,  // measure 26
0001
0100
1000
0100
0001
0100
1000
0000
,  // measure 27
0001
0010
1000
0010
0001
0010
1000
0000
,  // measure 28
0010
1000
1010
0000
0100
0001
0101
0000
,  // measure 29
1000
0000
0001
0000
1001
0000
0000
0000
0010
0000
0000
0100
0000
0000
0001
0000
,  // measure 30
2000
0001
0001
3001
,  // measure 31
0010
0100
0000
0000
0000
0000
0100
0010
0000
0000
0000
0000
1001
0000
0000
0000
,  // measure 32
0100
1000
0100
0001
0010
0100
1000
0000
,  // measure 33
0010
0001
0010
1000
0100
0010
0001
0000
,  // measure 34
0010
1000
0001
0000
0001
1000
0010
0200
,  // measure 35
0000
0010
0010
0310
,  // measure 36
0001
0100
1000
0100
0001
1000
0010
0000
,  // measure 37
1000
0010
0001
0010
1000
0001
0010
0000
,  // measure 38
0100
0001
1000
0001
0100
0001
1000
0001
,  // measure 39
0010
1000
0001
1000
0000
0001
1001
0000
,  // measure 40
0100
1000
0010
0100
0001
0100
0010
1000
,  // measure 41
0001
0010
0100
0010
1000
0010
0100
0001
,  // measure 42
0010
0100
1000
0010
1000
0100
0001
1001
,  // measure 43
0000
0000
0001
0000
0100
0000
0010
0000
1000
0000
0001
0000
1000
0001
1000
0000
,  // measure 44
0020
0100
0001
1030
,  // measure 45
0100
0000
0000
0010
0000
0000
0220
0000
0000
0000
0000
0000
0330
0000
0000
0000
,  // measure 46
0001
0000
0100
0000
1000
0000
0010
0000
0001
0000
0000
1000
0000
0000
2002
0000
,  // measure 47
0000
0000
0000
3003
,  // measure 48
0001
0000
0000
0100
0000
0000
1000
0000
0000
0010
0000
0000
0001
1000
0001
0000
,  // measure 49
1000
0000
0000
0010
0000
0000
0100
0000
0000
0001
0000
0000
1000
0001
1000
0000
,  // measure 50
0010
0000
0000
0100
0000
0000
1000
0000
0000
0010
0000
0000
0001
1000
0001
0000
,  // measure 51
0100
0000
0000
0010
0000
0000
0220
0000
0000
0000
0000
0000
0330
0000
0000
0000
,  // measure 52
2002
0000
0000
3003
,  // measure 53
0001
0000
0100
0000
1000
0010
1000
0010
,  // measure 54
1000
0001
1000
0010
,  // measure 55
1000
0000
0100
0000
0001
0100
0001
0100
,  // measure 56
0001
0100
0010
1000
,  // measure 57
0001
0000
0100
0000
1000
0001
1000
0001
,  // measure 58
1000
0010
1000
0100
,  // measure 59
0010
0000
0001
0000
0100
0010
0100
0010
,  // measure 60
0100
0000
1000
0000
0100
0010
0100
0000
,  // measure 61
0001
0000
0100
0000
1000
0010
0100
0001
,  // measure 62
1000
0000
0001
0000
1000
0000
0010
0100
,  // measure 63
0000
0100
0000
0200
0000
0000
0000
0000
,  // measure 64
0310
0000
1000
0001
0100
0010
1000
0000
,  // measure 65
0001
1000
0010
1000
0100
0001
0010
0000
,  // measure 66
0001
0100
0010
1000
0010
0100
0001
0000
,  // measure 67
0001
1000
0001
1000
0010
0100
0010
0100
,  // measure 68
0002
0000
0000
1003
,  // measure 69
0210
0000
0000
0000
0000
0000
0000
0000
0000
0000
0310
0000
0000
0001
0000
0000
,  // measure 70
2002
0000
0000
3003
,  // measure 71
0001
0100
1000
0100
0001
0010
1000
0010
,  // measure 72
0000
0001
1000
0010
1000
0000
1001
0000
,  // measure 73
1000
0010
0100
0001
0100
0010
1000
0000
,  // measure 74
0001
0100
0010
1000
0010
0100
0001
0000
,  // measure 75
1000
0001
1000
0001
0100
0010
0100
0010
,  // measure 76
0001
0010
0100
1000
0000
0001
1001
0000
,  // measure 77
1000
0010
0100
0001
0100
0010
1000
0000
,  // measure 78
0001
0100
0010
1000
0010
0100
0001
0000
,  // measure 79
0001
0100
1000
0100
0001
0100
1000
0010
,  // measure 80
0000
0010
1000
0001
0100
0000
1001
0000
,  // measure 81
0010
1000
0100
0010
0001
0100
0010
1000
,  // measure 82
0001
0000
0000
1000
0000
0000
2002
0000
0000
0000
0000
0000
3003
0000
0000
0000
,  // measure 83
0001
0000
1000
0000
0010
0000
0100
0000
0010
0000
0000
0100
0000
0000
0220
0000
,  // measure 84
0000
0000
0000
0330
,  // measure 85
0001
0000
0000
0100
0000
0000
1000
0000
0000
0010
0000
0000
0001
1000
0001
1000
,  // measure 86
0001
0000
0000
0100
0000
0000
0010
0000
0000
1000
0000
0000
1000
0001
1000
0001
,  // measure 87
1000
0000
0000
0100
0000
0000
0010
0000
0000
0001
0000
0000
0001
1000
0001
1000
,  // measure 88
0001
0000
0000
0010
0000
0000
0100
0000
0000
1000
0000
0000
1000
0001
1000
0001
,  // measure 89
1000
0000
0000
0010
0000
0000
0100
0000
0000
1000
0000
0000
0010
0100
0010
0100
,  // measure 90
0010
0000
0000
1000
0000
0000
0001
0000
0000
0100
0000
0000
0100
0010
0100
0010
,  // measure 91
0100
0000
0000
0001
0000
0000
1000
0000
0000
0010
0000
0000
1000
0000
0001
0000
,  // measure 92
2000
0000
0001
3001
,  // measure 93
0000
1001
0000
0000
;
