#TITLE:Shiny Ray;
#SUBTITLE:;
#ARTIST:YURiKA;
#TITLETRANSLIT:;
#SUBTITLETRANSLIT:;
#ARTISTTRANSLIT:;
#GENRE:Anime/Game;
#CREDIT:;
#BANNER:;
#BACKGROUND:;
#LYRICSPATH:;
#CDTITLE:;
#MUSIC:Shiny Ray.ogg;
#OFFSET:0.783000;
#SAMPLESTART:54.920048;
#SAMPLELENGTH:15.000000;
#SELECTABLE:YES;
#BPMS:0.000000=182.988007
;
#STOPS:
;
#BGCHANGES:2.000=Shiny Ray.avi=1.000=0=0=0=StretchNoLoop====,
99999=-nosongbg-=1.000=0=0=0 // don't automatically add -songbackground-
;
#KEYSOUNDS:;
#ATTACKS:;

//---------------dance-single - ----------------
#NOTES:
     dance-single:
     :
     Hard:
     11:
     0.606999,0.603512,0.299537,0.277349,0.000000,331.000000,27.000000,25.000000,0.000000,0.000000,0.000000,0.606999,0.603512,0.299537,0.277349,0.000000,331.000000,27.000000,25.000000,0.000000,0.000000,0.000000:
// measure 0
0000
0000
0000
0000
,  // measure 1
0000
0000
0000
0000
,  // measure 2
0000
0000
0000
0000
,  // measure 3
1000
0100
0001
0001
0000
0001
0100
1000
,  // measure 4
0000
1000
0010
0100
0001
0000
1001
0000
,  // measure 5
0001
0100
1000
1000
0000
1000
0010
0100
,  // measure 6
0000
0001
0100
0010
1000
0000
1001
0000
,  // measure 7
0010
1000
0100
0001
0000
0001
0100
1000
,  // measure 8
0000
0001
0010
1000
0001
0000
1001
0000
,  // measure 9
0010
1000
0100
0001
0000
0001
0100
1000
,  // measure 10
0000
0010
1000
0001
0100
0010
1000
0001
,  // measure 11
0200
0000
0000
0000
0310
0000
1000
0001
,  // measure 12
0020
0000
0000
0000
1030
0001
0100
0010
,  // measure 13
2000
0000
0000
0000
3001
0000
0010
0100
,  // measure 14
2000
0000
0000
0000
3001
0100
0010
1000
,  // measure 15
0002
0000
0000
0000
0103
0000
0010
1000
,  // measure 16
0002
0000
0000
0000
0103
0000
0100
0001
,  // measure 17
2000
0000
3002
0000
,  // measure 18
0023
0000
0230
0000
,  // measure 19
0301
0100
0010
0000
1000
0000
1100
0000
,  // measure 20
1000
0010
0100
0000
0001
0000
0011
0000
,  // measure 21
0001
0100
1000
0000
0001
0010
1000
0000
,  // measure 22
1000
0010
0100
0001
1000
0010
1000
0000
,  // measure 23
0001
1000
0010
0000
1000
0000
1100
0000
,  // measure 24
1000
0010
0100
0000
0001
0000
0011
0000
,  // measure 25
1000
0010
0001
0000
1000
0100
0001
0000
,  // measure 26
1000
0010
0100
0001
1000
0010
1000
0000
,  // measure 27
1001
0000
1000
0000
0100
0010
1000
0001
,  // measure 28
0100
0000
0001
0000
1000
0010
0100
0001
,  // measure 29
0010
0000
1000
0000
0001
0100
0010
1000
,  // measure 30
0001
0000
1000
0000
0001
1000
0100
0000
,  // measure 31
0020
0000
0130
0001
,  // measure 32
2000
0000
3010
0100
,  // measure 33
0002
0000
0203
0000
,  // measure 34
0320
2030
3002
0000
,  // measure 35
0103
0000
0000
1000
0000
0000
0202
0000
,  // measure 36
0000
0000
0000
0303
,  // measure 37
0010
0000
0000
0001
0000
0000
2020
0000
,  // measure 38
0000
0000
0000
3030
,  // measure 39
0001
1000
0110
0000
0001
1000
0010
0000
,  // measure 40
1000
0001
1001
0000
0010
0100
0001
1000
,  // measure 41
0020
0100
0100
0100
,  // measure 42
0200
0000
0330
0000
1000
0001
0000
1001
,  // measure 43
0000
0000
0010
1000
0001
0010
0000
1000
,  // measure 44
0000
0010
1000
0001
0100
0010
0000
1001
,  // measure 45
0000
0010
1000
0100
0000
0001
0100
0010
,  // measure 46
0000
1000
0010
0100
0001
1000
0010
0000
,  // measure 47
1001
0000
0010
1000
0100
0000
0001
0100
,  // measure 48
0010
0000
1000
0010
0100
0001
1000
0000
,  // measure 49
1001
0000
0010
1000
0001
0000
0001
0000
,  // measure 50
1000
0010
0100
0001
1000
1001
0000
0010
,  // measure 51
0000
1000
0001
0100
0010
0000
1000
0000
,  // measure 52
1100
0000
1000
0010
0100
0001
0010
0000
,  // measure 53
0011
0000
0001
0100
0010
1000
0000
1100
,  // measure 54
0000
1000
0010
0000
0001
0010
1000
0000
,  // measure 55
1000
0100
0001
0100
1000
0100
0001
0000
,  // measure 56
1000
0010
0001
0010
1000
0010
0001
0000
,  // measure 57
0001
1000
0010
0100
0000
0010
1000
0000
,  // measure 58
0001
1000
0010
0000
1000
0100
0010
0001
,  // measure 59
1000
0100
0001
0010
0000
0010
1000
0001
,  // measure 60
0000
0001
1000
0010
0100
0001
1001
0000
,  // measure 61
0010
0100
1000
0001
0000
0010
1000
0000
,  // measure 62
1000
0010
1000
0001
0010
0100
1001
0000
,  // measure 63
0010
1000
0100
0001
0000
0001
0100
1000
,  // measure 64
0000
0010
0100
0001
1000
0010
1010
0000
,  // measure 65
1000
1100
0000
0010
0110
0000
0001
0011
,  // measure 66
0000
0001
1000
2002
0000
0000
0000
0000
,  // measure 67
0000
0000
0000
0000
,  // measure 68
3003
0000
0000
0000
;

//---------------dance-single - ----------------
#NOTES:
     dance-single:
     :
     Medium:
     8:
     0.458023,0.452634,0.221880,0.266255,0.000000,245.000000,20.000000,24.000000,0.000000,0.000000,0.000000,0.458023,0.452634,0.221880,0.266255,0.000000,245.000000,20.000000,24.000000,0.000000,0.000000,0.000000:
// measure 0
0000
0000
0000
0000
,  // measure 1
0000
0000
0000
0000
,  // measure 2
0000
0000
0000
0000
,  // measure 3
1000
0000
0010
0000
0100
0000
0001
1000
,  // measure 4
0000
0010
0000
0100
0000
1001
0000
0000
,  // measure 5
0010
0000
0100
0000
0001
0000
1000
0010
,  // measure 6
0000
0100
0000
0001
0000
1001
0000
0000
,  // measure 7
0001
0000
0100
0000
0010
0000
0001
0100
,  // measure 8
0000
0010
0000
1000
0000
0110
0000
0000
,  // measure 9
1000
0010
0100
0001
,  // measure 10
0100
1000
0001
0000
0010
0100
1000
0000
,  // measure 11
0002
0000
0103
0010
,  // measure 12
2000
0000
3010
0100
,  // measure 13
0002
0000
0103
0010
,  // measure 14
2000
0000
0000
0000
3010
0100
0001
0000
,  // measure 15
0020
0000
0130
0001
,  // measure 16
2000
0000
3010
0001
,  // measure 17
0200
0000
0310
0001
,  // measure 18
0002
0000
1003
0000
,  // measure 19
0001
1000
0010
1000
,  // measure 20
0001
0100
0010
0000
1000
0000
1001
0000
,  // measure 21
0010
1000
0100
0001
,  // measure 22
1000
0100
0010
0000
0001
0000
1001
0000
,  // measure 23
0010
1000
0001
0100
,  // measure 24
0001
0100
1000
0000
0010
1000
0001
0000
,  // measure 25
0010
1000
0001
0100
,  // measure 26
0210
0000
0310
0010
,  // measure 27
1000
0001
0100
0000
0010
0000
1001
0000
,  // measure 28
0100
0010
1000
0000
0001
0000
0011
0000
,  // measure 29
0100
0001
0010
0000
1000
0000
1100
0000
,  // measure 30
1000
0001
0100
0000
0010
0000
0001
0000
,  // measure 31
0200
0000
0310
1000
,  // measure 32
0002
0000
0103
0010
,  // measure 33
2000
0000
3020
0000
,  // measure 34
0230
0000
0302
0000
,  // measure 35
1003
0000
0000
0100
0000
0000
0002
0000
,  // measure 36
0000
0000
0000
0003
,  // measure 37
0001
0000
0000
0010
0000
0000
2000
0000
,  // measure 38
0000
0000
0000
3000
,  // measure 39
0010
1000
0001
0000
0100
0000
1001
0000
,  // measure 40
0001
0100
0010
0000
1000
0000
1100
0000
,  // measure 41
0200
0010
1000
0010
,  // measure 42
0020
0000
0000
0000
0330
0000
0000
0001
,  // measure 43
0000
0000
1000
0000
0010
0000
1000
0001
,  // measure 44
0000
0100
0010
0000
1000
0000
0001
0000
,  // measure 45
1001
0010
1000
0001
,  // measure 46
0110
0000
1100
0001
,  // measure 47
0010
1000
0001
0100
,  // measure 48
0010
0010
0100
0100
,  // measure 49
1000
0001
0010
1000
,  // measure 50
0001
0010
1000
0000
0002
0000
0000
1003
,  // measure 51
0000
0000
0010
0000
0200
0000
0000
0310
,  // measure 52
0000
0000
0001
0000
2000
0000
0000
3001
,  // measure 53
0000
0000
0010
0000
1000
0000
0001
0100
,  // measure 54
0000
0000
0010
0000
1000
0001
0100
0000
,  // measure 55
1000
0100
0010
0001
,  // measure 56
1000
0010
0100
0001
,  // measure 57
0100
0010
1000
0000
0001
0000
1001
0000
,  // measure 58
1000
0010
0001
0000
0100
0000
0110
0000
,  // measure 59
0010
0100
0001
1000
0000
0000
0100
0000
,  // measure 60
1001
0010
1000
0001
,  // measure 61
1000
0010
0100
0001
0000
0000
1000
0000
,  // measure 62
1001
0010
1000
0001
,  // measure 63
0100
0010
1000
0001
0000
0000
0100
0000
,  // measure 64
0110
0000
0001
0000
0100
0010
1000
0000
,  // measure 65
0001
0010
0000
0010
0100
0000
0100
1000
,  // measure 66
0000
0001
0000
2002
0000
0000
0000
0000
,  // measure 67
0000
0000
0000
0000
,  // measure 68
3003
0000
0000
0000
;

//---------------dance-single - ----------------
#NOTES:
     dance-single:
     :
     Easy:
     6:
     0.351838,0.377195,0.077658,0.255161,0.000000,192.000000,7.000000,23.000000,0.000000,0.000000,0.000000,0.351838,0.377195,0.077658,0.255161,0.000000,192.000000,7.000000,23.000000,0.000000,0.000000,0.000000:
// measure 0
0000
0000
0000
0000
,  // measure 1
0000
0000
0000
0000
,  // measure 2
0000
0000
0000
0000
,  // measure 3
0001
0100
1000
0000
,  // measure 4
0001
0010
1000
0000
,  // measure 5
1000
0100
0001
0000
,  // measure 6
1000
0010
0001
0000
,  // measure 7
0100
0010
1000
0000
,  // measure 8
0001
0100
0010
0000
,  // measure 9
1000
0100
0001
0010
,  // measure 10
1000
0001
0010
0100
,  // measure 11
2000
0000
3010
0000
,  // measure 12
0001
1000
0010
0000
,  // measure 13
0002
0000
0013
0000
,  // measure 14
1000
0001
0100
0000
,  // measure 15
2000
0000
3100
0000
,  // measure 16
0001
1000
0010
0000
,  // measure 17
0002
0000
0013
0000
,  // measure 18
1000
0001
0010
0000
,  // measure 19
1000
0100
0001
0000
,  // measure 20
1000
0010
0001
0000
,  // measure 21
0100
0010
1000
0000
,  // measure 22
0001
0100
0010
0000
,  // measure 23
1000
0100
0001
0100
,  // measure 24
1000
0010
0001
0010
,  // measure 25
1000
0001
0100
0000
,  // measure 26
1000
0001
0010
0000
,  // measure 27
1000
0001
1000
0010
,  // measure 28
1000
0001
1000
0100
,  // measure 29
0001
1000
0001
0010
,  // measure 30
0001
1000
0001
0100
,  // measure 31
0002
0000
0103
0010
,  // measure 32
2000
0000
0000
0000
,  // measure 33
3010
0000
1000
0001
,  // measure 34
0020
0000
0130
0000
,  // measure 35
1000
0000
0000
0100
0000
0000
0002
0000
,  // measure 36
0000
0000
0003
0000
,  // measure 37
0001
0000
0000
0010
0000
0000
2000
0000
,  // measure 38
0000
0000
3000
0000
,  // measure 39
1000
0010
0100
0000
,  // measure 40
0001
0100
0010
0000
,  // measure 41
1001
0000
1001
0000
,  // measure 42
1001
0000
0000
0000
0010
0000
0000
1000
,  // measure 43
0000
0010
1000
0001
,  // measure 44
0100
0010
1000
0001
,  // measure 45
0001
0100
0010
1000
,  // measure 46
0002
0000
1003
0010
,  // measure 47
0200
0000
0310
1000
,  // measure 48
0002
0000
0013
0100
,  // measure 49
2000
0000
3010
0100
,  // measure 50
0001
0000
1000
0000
0001
0000
0000
0100
,  // measure 51
0000
0010
2000
0000
,  // measure 52
3001
1000
0020
0000
,  // measure 53
0130
0001
2000
0000
,  // measure 54
3100
1000
0001
0010
,  // measure 55
1000
1000
0200
0000
,  // measure 56
0301
0001
0020
0000
,  // measure 57
1030
0100
0001
0010
,  // measure 58
1000
0001
2002
3003
,  // measure 59
0001
1000
0010
1000
,  // measure 60
0001
0100
1001
0000
,  // measure 61
0010
1000
0001
0100
,  // measure 62
0010
1000
1001
0000
,  // measure 63
1000
0010
0100
0001
,  // measure 64
1000
0010
1001
0000
,  // measure 65
0020
0000
0130
1000
,  // measure 66
0002
0000
2000
0000
,  // measure 67
0000
0000
0000
0000
,  // measure 68
3003
0000
0000
0000
;

//---------------dance-single - ----------------
#NOTES:
     dance-single:
     :
     Beginner:
     4:
     0.163240,0.180277,0.099846,0.044376,0.000000,90.000000,9.000000,4.000000,0.000000,0.000000,0.000000,0.163240,0.180277,0.099846,0.044376,0.000000,90.000000,9.000000,4.000000,0.000000,0.000000,0.000000:
// measure 0
0000
0000
0000
0000
,  // measure 1
0000
0000
0000
0000
,  // measure 2
0000
0000
0000
0000
,  // measure 3
0100
0000
0100
0000
,  // measure 4
0100
0000
0010
0000
,  // measure 5
0100
0000
0100
0000
,  // measure 6
0100
0000
0010
0000
,  // measure 7
0100
0000
0100
0000
,  // measure 8
0100
0000
0010
0000
,  // measure 9
0100
0000
0100
0000
,  // measure 10
0100
0000
0010
0000
,  // measure 11
1001
0000
0000
0000
,  // measure 12
0100
0000
0000
0000
,  // measure 13
1000
0000
0000
0000
,  // measure 14
0010
0000
0000
0000
,  // measure 15
0001
0000
0000
0000
,  // measure 16
0010
0000
0000
0000
,  // measure 17
1000
0000
0000
0000
,  // measure 18
0100
0000
0000
0000
,  // measure 19
1001
0000
0000
0000
,  // measure 20
0010
0000
0000
0000
,  // measure 21
1000
0000
0000
0000
,  // measure 22
0100
0000
0000
0000
,  // measure 23
1000
0000
0000
0000
,  // measure 24
0010
0000
0000
0000
,  // measure 25
0001
0000
0000
0000
,  // measure 26
0100
0000
0000
0000
,  // measure 27
1000
0000
1000
0000
,  // measure 28
0100
0000
0100
0000
,  // measure 29
0010
0000
0010
0000
,  // measure 30
0001
0000
0001
0000
,  // measure 31
1001
0000
0000
0000
,  // measure 32
0000
0000
0000
0000
,  // measure 33
0100
0000
0000
0000
,  // measure 34
0010
0000
0000
0000
,  // measure 35
1001
0000
0000
0000
,  // measure 36
0000
0000
0000
0000
,  // measure 37
2002
0000
0000
3003
,  // measure 38
0000
0000
0000
0000
,  // measure 39
0100
0000
0000
0000
,  // measure 40
0010
0000
0000
0000
,  // measure 41
2002
0000
0000
0000
,  // measure 42
3003
0000
0000
0000
,  // measure 43
0100
0000
0100
0000
,  // measure 44
1000
0000
1000
0000
,  // measure 45
0010
0000
0010
0000
,  // measure 46
0001
0000
0001
0000
,  // measure 47
0100
0000
1000
0000
,  // measure 48
0010
0000
0001
0000
,  // measure 49
1001
0000
0000
0000
,  // measure 50
0100
0000
0000
0000
,  // measure 51
0001
0000
0001
0000
,  // measure 52
0010
0000
0010
0000
,  // measure 53
0100
0000
0100
0000
,  // measure 54
1000
0000
1000
0000
,  // measure 55
0001
0000
0100
0000
,  // measure 56
0010
0000
1000
0000
,  // measure 57
0001
0000
0100
0000
,  // measure 58
0110
0000
0000
0000
,  // measure 59
1000
0000
1000
0000
,  // measure 60
1000
0000
0001
0000
,  // measure 61
1000
0000
1000
0000
,  // measure 62
1000
0000
0001
0000
,  // measure 63
1000
0000
1000
0000
,  // measure 64
1000
0000
0001
0000
,  // measure 65
1001
0000
0000
0000
;
