#TITLE:She-Wolf (Falling to Pieces);
#SUBTITLE:;
#ARTIST:DAVID GUETTA feat. SIA;
#TITLETRANSLIT:;
#SUBTITLETRANSLIT:;
#ARTISTTRANSLIT:;
#GENRE:;
#CREDIT:;
#BANNER:;
#BACKGROUND:;
#LYRICSPATH:;
#CDTITLE:cdtitle.png;
#MUSIC:She-Wolf (Fallen to Pieces).ogg;
#OFFSET:0.000000;
#SAMPLESTART:66.473000;
#SAMPLELENGTH:15.000000;
#SELECTABLE:YES;
#DISPLAYBPM:130.000000;
#BPMS:0.000000=130.059998
,42.000000=124.999992
,44.000000=130.059998
,48.000000=65.029999
,80.000000=130.059998
;
#STOPS:
;
#BGCHANGES:;
#KEYSOUNDS:;
#ATTACKS:;

//---------------dance-single - ----------------
#NOTES:
     dance-single:
     :
     Hard:
     12:
     0.448949,0.433468,0.049258,0.039406,0.359581,310.000000,5.000000,4.000000,0.000000,0.000000,0.000000,0.448949,0.433468,0.049258,0.039406,0.359581,310.000000,5.000000,4.000000,0.000000,0.000000,0.000000:
0000
0000
0000
0000
,
0000
0000
0000
0000
,
0000
0000
0000
0000
,
0000
0000
0000
0000
,
0001
0100
1000
0100
0000
0001
0100
1000
,
0010
1000
0100
0010
0000
0010
0100
1000
,
0010
1000
0100
0010
0000
0001
0100
0010
,
1000
0100
1000
0100
0000
1000
0100
0001
,
0010
1000
0100
0010
0000
0010
0100
0001
,
0010
0100
1000
0010
0000
1000
0100
0010
,
0001
0100
1000
0010
0000
1000
0010
0100
,
0001
0010
0100
1000
0000
1000
0010
0100
,
0001
0100
1000
0010
,
0001
0100
1000
0010
0001
0100
1000
0010
,
0001
1000
0100
0010
,
1000
0010
0100
0001
1000
0010
0100
0001
,
0100
1000
0100
1000
0001
0100
0001
0100
,
0010
0100
0010
0100
1000
0001
1000
0001
,
1000
0000
0100
0000
0010
0001
0010
0000
0001
0000
0010
0000
0100
1000
0100
0000
,
0001
0000
1000
0000
0010
1000
0010
0000
0100
0000
0001
0000
1000
0001
0100
0000
,
0001
0010
0100
1000
0010
1000
0010
0000
,
1000
0100
0010
0001
0100
0001
0100
0000
,
0001
0010
1000
0100
0010
0100
0010
0000
,
1000
0010
0100
0001
0010
0100
0010
0000
,
0001
0100
1000
0100
0001
0100
1000
0100
,
0001
0010
1000
0010
0001
0010
1000
0010
,
0001
0100
0001
0000
0100
1000
0100
0000
1000
0010
1000
0000
0010
0100
0001
0000
,
0010
1100
1000
1001
,
0001
0000
0001
0100
0000
0100
0000
0010
0000
1000
0010
0000
0100
0000
0001
0000
,
0000
0000
0010
1000
0000
0010
0000
0100
0000
0001
0010
0000
0100
0000
1000
0000
,
0000
0000
1000
0001
0000
0010
0000
0100
0000
1000
0010
0000
1000
0000
0001
0000
,
0000
0000
1000
0100
0000
0010
0000
0100
0000
0001
0010
0000
0100
0000
1000
0000
,
0000
0000
1000
0001
0000
0010
0000
1000
0000
0010
1000
0000
0100
0000
0010
0000
,
0000
0000
0010
0100
0000
0010
0000
1000
0000
0001
0010
0000
1000
0000
0100
0000
,
0000
0000
0100
0001
0000
0010
0000
0100
0000
1000
0010
0000
1000
0000
0001
0000
,
0000
0000
1000
0100
0000
0010
0000
0100
0000
0001
1000
0000
2002
0000
3003
0000
,
0010
0000
1000
0100
0000
0010
0000
0100
0000
0001
0010
0000
0100
0000
1000
0000
,
0010
0000
1000
0100
0000
0010
0000
0100
0000
0001
0010
0000
0100
0000
1000
0000
,
0010
0000
1000
0001
0000
0010
0000
1000
0000
0100
0010
0000
0001
0000
0010
0000
,
0100
0000
1000
0010
0000
1000
0000
0100
0000
0001
0100
0000
0010
0000
0100
0000
,
2100
0000
0000
0100
0000
0100
0000
0100
0000
0100
0000
0000
3100
0000
0001
0000
,
0102
0000
0000
0100
0000
0100
0000
0100
0000
0100
0000
0000
0103
0000
1000
0000
,
0001
0000
1000
0010
0000
1000
0000
0001
0000
1000
0010
0000
0100
0000
0001
0000
,
0010
0000
0100
1000
0000
0010
0000
1000
0000
0010
1000
0000
0010
0000
1000
0100
,
0001
0000
0000
0000
;

//---------------dance-single - ----------------
#NOTES:
     dance-single:
     :
     Medium:
     8:
     0.334952,0.346774,0.118218,0.108367,0.059109,215.000000,12.000000,11.000000,0.000000,0.000000,0.000000,0.334952,0.346774,0.118218,0.108367,0.059109,215.000000,12.000000,11.000000,0.000000,0.000000,0.000000:
0000
0000
0000
0000
,
0000
0000
0000
0000
,
0000
0000
0000
0000
,
0000
0000
0000
0000
,
1000
0000
0010
0100
0001
0010
0100
0000
,
0001
0000
0001
0100
0000
0100
0010
0000
,
1000
0000
0010
0100
0001
0010
1000
0000
,
0100
0000
0100
1000
0000
1000
0010
0000
,
1000
0000
0001
0100
1000
0010
1000
0000
,
0001
0000
0100
1000
0000
1000
0010
0000
,
1000
0000
0010
0100
0001
0010
1000
0000
,
1000
0000
1000
0100
0000
0100
0010
0000
,
0011
0000
0001
0100
1000
0000
0100
0000
,
0010
1000
0002
0003
,
0010
0000
0100
0000
0001
1000
0010
0000
,
0100
0001
2000
3000
,
0010
0010
0010
1000
0100
0100
0100
0001
,
1000
0100
1000
0100
0001
0100
0001
0000
,
1000
1000
1000
0100
0001
0001
0001
0010
,
1000
0010
1000
0010
0001
0010
0001
0010
,
0001
0010
0100
0000
2200
0000
3300
0000
,
1000
0100
0010
0000
0022
0000
0033
0000
,
0001
0100
0010
0000
2200
0000
3300
0000
,
1000
0010
0100
0000
0022
0000
0033
0000
,
0001
0100
0010
1000
,
0001
0100
0010
1000
,
1000
0100
1000
0100
0001
0100
0001
0100
,
0010
0010
0100
0100
,
1100
0000
0001
0100
0001
0000
0010
0000
,
0011
0000
0001
0100
0001
0000
0100
0000
,
1100
0000
0010
1000
0010
0000
0100
0000
,
0011
0000
0001
0010
0001
0000
0100
0000
,
1010
0000
0100
1000
0001
0000
0010
0000
,
0100
0000
0001
1000
0010
0000
0100
0000
,
0001
0000
1000
0010
0100
0000
0001
0000
,
1000
0000
0010
1000
0100
0000
2100
0000
,
3100
0000
0010
0000
0100
0001
0100
1000
,
0010
0000
0010
0000
1000
0010
0100
0001
,
0010
0000
0001
0000
0100
0001
0100
0010
,
1000
0000
0100
0000
0010
0100
0001
0000
,
0010
0000
0000
1000
0000
0100
0000
0010
0000
0000
0000
0000
0001
0000
0010
0000
,
0100
0000
0000
0001
0000
0100
0000
0010
0000
0000
0000
0000
1000
0000
0010
0000
,
0100
0000
0000
0001
0000
1000
0000
0100
0000
0000
0000
0000
0010
0000
1000
0000
,
0001
0000
0000
0100
0000
0001
0000
1000
0000
0000
0000
0000
0010
0000
0100
0000
,
0110
0000
0000
0000
;

//---------------dance-single - ----------------
#NOTES:
     dance-single:
     :
     Easy:
     5:
     0.219549,0.216734,0.049258,0.078812,0.000000,143.000000,5.000000,8.000000,0.000000,0.000000,0.000000,0.219549,0.216734,0.049258,0.078812,0.000000,143.000000,5.000000,8.000000,0.000000,0.000000,0.000000:
0000
0000
0000
0000
,
0000
0000
0000
0000
,
0000
0000
0000
0000
,
0000
0000
0000
0000
,
1000
0000
0000
0100
0000
0010
0100
0000
,
0001
0000
0000
0100
0000
0000
0010
0000
,
1000
0000
0000
0001
0000
0100
0010
0000
,
1000
0000
0000
0010
0000
0000
0100
0000
,
0001
0000
0000
0100
0000
1000
0100
0000
,
0010
0000
0000
1000
0000
0000
0010
0000
,
0100
0000
0000
0001
0000
1000
0100
0000
,
0010
0000
0000
1000
0000
0000
0001
0000
,
0200
0000
0320
0000
,
2030
0000
0002
3003
,
0002
0000
0203
0000
,
0320
0000
2000
3030
,
1000
0100
1000
0000
0010
0000
0010
0000
,
0001
0100
0001
0000
0010
0000
0010
0000
,
1000
0010
1000
0000
0100
0000
0100
0000
,
0001
0010
0001
0000
0100
0000
0100
0000
,
1000
0100
1000
0000
,
0001
0100
0001
0000
,
1000
0010
1000
0000
,
0001
0010
0001
0000
,
1000
0010
0100
0000
,
0001
0100
0010
0000
,
1000
0100
0001
0010
,
1000
0100
0001
0010
,
1100
1000
0100
1000
,
0100
0100
0100
0000
,
0011
0001
0010
0001
,
0100
0100
0100
0000
,
1000
0100
0010
0001
,
0100
0010
1000
0000
,
0001
0010
0100
1000
,
0010
0100
0001
0000
,
1100
0001
0010
0100
,
1000
1000
0010
0010
,
1100
0010
0100
0001
,
0010
0010
0001
0001
,
0100
0001
0010
1000
,
0100
0010
1000
0001
,
0100
0001
1000
0010
,
1000
0100
0010
0001
,
0110
0000
0000
0000
;

//---------------dance-single - ----------------
#NOTES:
     dance-single:
     :
     Beginner:
     2:
     0.109774,0.130040,0.029555,0.039406,0.000000,71.000000,3.000000,4.000000,0.000000,0.000000,0.000000,0.109774,0.130040,0.029555,0.039406,0.000000,71.000000,3.000000,4.000000,0.000000,0.000000,0.000000:
// measure 0
0000
0000
0000
0000
,  // measure 1
0000
0000
0000
0000
,  // measure 2
0000
0000
0000
0000
,  // measure 3
0000
0000
0000
0000
,  // measure 4
1000
0000
0100
0000
,  // measure 5
0001
0000
0000
0000
,  // measure 6
0001
0000
0010
0000
,  // measure 7
1000
0000
0000
0000
,  // measure 8
0100
0000
1000
0000
,  // measure 9
0010
0000
0000
0000
,  // measure 10
0001
0000
0100
0000
,  // measure 11
0010
0000
0000
0000
,  // measure 12
2002
0000
0000
0000
,  // measure 13
3003
0000
0000
0000
,  // measure 14
0220
0000
0000
0000
,  // measure 15
0330
0000
0000
0000
,  // measure 16
1000
0100
1000
0000
,  // measure 17
0001
0100
0001
0000
,  // measure 18
1000
0010
1000
0000
,  // measure 19
0001
0010
0001
0000
,  // measure 20
1000
0100
1000
0000
,  // measure 21
0001
0100
0001
0000
,  // measure 22
1000
0010
1000
0000
,  // measure 23
0001
0010
0001
0000
,  // measure 24
0100
0000
0100
0000
,  // measure 25
0010
0000
0010
0000
,  // measure 26
1000
0000
1000
0000
,  // measure 27
0001
0000
0001
0000
,  // measure 28
1000
0000
0100
0000
,  // measure 29
1000
0000
0000
0000
,  // measure 30
0001
0000
0100
0000
,  // measure 31
0001
0000
0000
0000
,  // measure 32
1000
0000
0010
0000
,  // measure 33
1000
0000
0000
0000
,  // measure 34
0001
0000
0010
0000
,  // measure 35
0001
0000
0000
0000
,  // measure 36
0100
0000
0010
0000
,  // measure 37
0100
0000
0000
0000
,  // measure 38
0001
0000
1000
0000
,  // measure 39
0001
0000
0000
0000
,  // measure 40
1000
0000
0100
0000
,  // measure 41
0001
0000
0000
0000
,  // measure 42
0001
0000
0010
0000
,  // measure 43
1000
0000
0000
0000
,  // measure 44
1001
0000
0000
0000
;
