#TITLE:千本桜;
#SUBTITLE:;
#ARTIST:ギガP feat. kradness;
#TITLETRANSLIT:Senbonzakura;
#SUBTITLETRANSLIT:;
#ARTISTTRANSLIT:GigaP feat. kradness;
#GENRE:Pop;
#CREDIT:;
#BANNER:;
#BACKGROUND:;
#LYRICSPATH:;
#CDTITLE:;
#MUSIC:Senbonzakura.ogg;
#OFFSET:1.080000;
#SAMPLESTART:55.108578;
#SAMPLELENGTH:15.000000;
#LASTBEATHINT:0.131647;
#SELECTABLE:YES;
#DISPLAYBPM:175.000000;
#BPMS:0.000000=175.000000
;
#STOPS:
;
#BGCHANGES:;
#KEYSOUNDS:;
#ATTACKS:;

//---------------dance-single - ----------------
#NOTES:
     dance-single:
     :
     Hard:
     16:
     1.001983,1.071858,0.822681,0.063283,0.754124,665.000000,587.000000,78.000000,6.000000,0.000000,0.000000,1.001983,1.071858,0.822681,0.063283,0.754124,665.000000,587.000000,78.000000,6.000000,0.000000,0.000000:
0000
0000
0000
0000
,
0000
0000
0000
0000
,
0000
0000
0000
0000
,
0000
0000
0000
0000
0000
0000
0000
0000
0000
0000
0010
0000
0000
0000
1000
0100
,
0001
1001
0000
0000
0000
0000
0000
1000
,
1100
0110
0011
1001
,
0001
0000
0100
0000
0010
1000
0010
1000
0010
0000
0010
0000
0100
0001
0100
0001
,
0100
0000
0100
0000
0010
0100
0010
0100
0010
0000
1000
0001
1000
0000
0010
0000
,
1000
0000
0001
0010
0001
0000
1000
0100
1000
0000
0010
0100
0001
1000
0010
0100
,
0001
0000
1000
0010
1000
0000
0100
0000
0011
0000
0000
0000
0010
0000
1000
0000
,
0001
0000
0100
0000
0010
0001
0010
0001
0010
0000
0001
0000
0100
1000
0100
1000
,
0100
0000
1000
0000
0001
1000
0001
1000
0001
0000
0001
1000
0010
0000
0100
0000
,
0010
0000
1000
0000
0001
0100
0001
0100
0001
0000
0100
0000
1000
0010
1000
0010
,
1000
0000
0001
0000
0100
0000
0010
0000
1000
0100
0010
0100
1000
0000
0010
0000
,
0100
0000
1001
0000
0001
0010
0100
0010
0001
0000
0110
0000
1000
0100
0010
0100
,
1000
0000
1001
0000
0100
0001
0010
0001
0100
0000
0001
1000
0001
0000
0110
0000
,
0001
0100
0010
0100
0001
1000
0001
0100
0010
0000
1000
0000
0001
0000
0010
0000
,
1100
0000
0000
0011
0000
0000
1010
0000
0101
0000
0000
0000
1001
0000
0000
0000
,
0010
0000
0000
0000
0100
0000
0000
0010
1000
0000
0001
0000
0100
0000
0010
0000
,
1000
0000
0000
0000
0001
0000
0000
0100
0001
0000
1000
0000
0010
0000
0100
0000
,
0001
0000
0000
0000
0100
0000
0000
1000
0010
0000
0100
0000
0001
0000
0010
0000
,
0011
0110
1100
1001
,
0110
0000
0000
1000
0010
0000
0000
0010
0100
0000
0001
0000
1000
0000
0010
0000
,
0100
0000
0000
0001
0100
0000
0000
0100
0010
0000
1000
0000
0001
0000
0100
0000
,
0010
0000
0000
1000
0010
0000
0000
0010
0100
0000
0001
0000
1000
0000
0010
0000
,
1001
1100
0101
1010
,
1001
0010
1010
1000
1100
0100
0101
0001
,
0100
0000
0010
0100
0010
0000
1000
0000
0001
0000
0010
0000
1000
0000
0100
0000
,
0010
0001
0010
0100
1000
1000
0001
0001
,
1000
0010
0100
0001
0101
0000
1100
0000
,
1001
0010
1010
1000
1001
0001
0101
0100
,
0010
0000
1000
0001
0010
0000
1000
0000
0100
0000
0010
0000
0001
0000
0010
0000
,
0100
1000
0010
1000
0100
0001
0010
0100
,
1001
0000
0010
1001
0000
0000
0010
0100
,
2000
0000
0000
0001
0000
0000
0001
0000
3001
0000
0000
0000
0000
0000
0001
0000
,
0010
0100
1000
0010
1000
0000
0001
1000
,
0002
0000
0000
1000
0000
0000
1000
0000
1003
0000
0000
0000
0000
0000
0010
0000
,
1000
0100
0010
0100
0001
0000
0100
0010
,
2000
0100
0100
3010
,
0002
0100
0100
0013
,
0010
0000
0100
0000
0001
0000
1000
0000
0010
0100
0010
0100
1000
0001
0100
0010
,
1000
0001
0100
0010
1100
0000
0011
0000
,
1010
0000
0010
1000
0100
0000
0100
0001
0010
0000
0001
0000
1000
0000
0010
0000
,
0001
1000
0100
0010
0100
0000
0001
1000
0010
0000
0100
0000
1010
0000
0001
0000
,
0101
0000
0100
0001
0010
0000
0010
1000
0100
0000
1000
0000
0001
0000
0100
0000
,
1000
0001
0010
0100
0010
0000
1000
0001
0100
0000
0010
0000
0101
0000
1000
0000
,
1100
0000
0100
0001
0010
0000
0010
1000
0100
0000
0010
1000
0001
0000
0100
0000
,
0001
1000
0100
0010
0100
0000
0010
1000
0001
0000
0100
0001
0010
0000
0100
0000
,
1000
0000
0001
1000
0010
0000
1000
0001
0100
0000
0010
1000
0001
0000
1000
0001
,
0100
0010
0100
1000
0010
1000
0001
0100
0010
0001
0100
0010
1000
0010
0100
0001
,
0101
0000
0000
0000
1100
0000
0000
0000
0010
0000
0010
0000
0100
0010
0100
0010
,
0100
0000
1001
0000
0001
0010
0100
0010
0001
0000
1001
0000
1000
0100
0010
0100
,
1000
0000
0110
0000
0001
0100
0010
0100
0001
0000
0010
1000
0001
0000
1001
0000
,
0001
0000
0110
0000
0010
1000
0001
1000
0010
0000
0110
0000
0100
0001
1000
0001
,
0100
0000
1000
0000
0010
0000
0001
0000
0010
1000
0001
1000
0100
0000
0110
0000
,
0010
0000
1001
0000
1000
0100
0010
0100
1000
0000
1001
0000
0001
0010
0100
0010
,
0001
0000
0110
0000
1000
0010
0100
0010
1000
0000
0100
0001
1000
0000
1001
0000
,
1100
0000
1000
0100
0001
0000
0001
0010
1000
0000
1000
0010
0001
0010
0100
1000
,
0010
0000
0001
1000
0100
0000
1000
0000
1001
0000
0000
0000
0010
0100
0010
0100
,
0010
0000
1001
0000
0001
0010
0100
1000
0001
0000
0011
0000
1000
0100
0010
0001
,
1000
0000
1100
0000
0100
1000
0010
0100
0001
0000
0100
0001
1000
0000
0110
0000
,
0010
0000
0100
0000
0001
0010
0100
1000
0010
0000
1010
0000
1000
0100
0010
0001
,
0100
0000
0101
0000
0010
0000
1010
0000
0001
1000
0010
0100
0010
0000
1100
0000
,
0001
0000
0100
0000
0001
0100
0010
0100
0001
0000
1001
0000
1000
0100
1000
0100
,
1000
0000
0100
0001
1000
0000
0001
1000
0010
0000
0110
0000
1000
0010
0001
0100
,
0010
0100
1000
0010
0001
0100
0001
0010
1000
0000
0110
0000
0001
0000
0110
0000
,
0011
0000
0000
1100
0000
0000
0011
0000
1001
0000
0000
0000
0010
0000
0100
0010
,
0110
0000
0000
1001
0000
0000
0101
0000
2020
0000
0000
0000
3030
0000
0000
0000
;

//---------------dance-single - ----------------
#NOTES:
     dance-single:
     :
     Medium:
     12:
     0.641872,0.643115,0.348057,0.358604,0.047462,426.000000,393.000000,33.000000,34.000000,0.000000,0.000000,0.641872,0.643115,0.348057,0.358604,0.047462,426.000000,393.000000,33.000000,34.000000,0.000000,0.000000:
0000
0000
0000
0000
,
0000
0000
0000
0000
,
0000
0000
0000
0000
,
0000
0000
0000
0000
0000
0010
0000
0010
,
1000
0001
0000
0000
0000
0000
0000
0100
,
1100
0110
0011
0110
,
0010
0100
0001
0000
0001
0100
0010
0000
,
1000
0010
0100
0001
0100
0010
1000
0000
,
0001
0010
0100
1000
0001
0010
0100
1000
,
0010
0100
0001
1000
0010
0000
1001
0000
,
0100
1000
0100
0000
0010
0100
0010
0000
,
0001
0010
0001
0000
1000
0100
0001
0010
,
0100
1000
0001
0000
0001
0100
1000
0000
,
0010
1000
0001
0100
0010
0100
1100
0000
,
0010
1000
0001
0000
0001
1000
0010
0000
,
1000
0010
0100
0001
0010
0100
1100
0000
,
1000
0100
0010
0001
1000
1000
0001
0001
,
1000
0000
0000
0010
0000
0000
0100
0000
2001
0000
0000
0000
0000
0000
3000
0000
,
0010
0000
0100
0000
0001
0100
0010
1000
,
0010
0000
1000
0000
0010
0100
0001
0010
,
1000
0000
0100
0000
0010
0001
0100
1000
,
0020
0230
0302
2003
,
3010
0000
1000
0001
0100
0010
0100
0001
,
2000
0000
3001
0100
0010
0100
0001
1000
,
0002
0000
1003
0010
0100
0001
0100
0010
,
2000
3002
0203
0320
,
1030
0001
0100
0000
0001
0100
1000
0000
,
0010
1000
0001
0100
0110
0000
1100
0000
,
0010
1000
0001
0000
1000
0010
0100
0000
,
0001
1000
0010
0100
0011
0000
0110
0000
,
1000
0001
0100
0000
0001
1000
0010
0000
,
1000
0100
0001
0010
0110
0000
1100
0100
,
0001
0100
0010
0100
1000
0010
1000
0001
,
0200
0000
0010
0020
0000
0000
0330
0000
,
0002
0000
0000
0100
0000
0000
0100
0000
0203
0000
0000
0000
0000
0000
0000
0000
,
0310
1000
0002
0000
0203
0000
0000
0300
,
2000
0000
0000
0010
0000
0000
0010
0000
3020
0000
0000
0000
0000
0000
0000
0000
,
0130
0001
1000
0000
0020
0000
0000
0000
,
0230
0302
0023
0230
,
2300
3020
0230
0302
,
1003
0010
0100
0001
0010
0100
1000
0010
,
0100
0001
1000
0010
1001
0000
1100
0000
,
0101
0000
0000
0010
0000
0000
0100
0000
1000
0000
0000
0000
0010
0000
1000
0000
,
0100
0001
0010
0100
1000
0000
1010
0000
,
0010
0000
0000
0100
0000
0000
0001
0000
1000
0000
0000
0000
0010
0000
1000
0000
,
0100
0001
0010
0100
1000
0000
1001
0000
,
1000
0000
0000
0010
0000
0000
0100
0000
0001
0000
0000
0000
0010
0000
0100
0000
,
1000
0001
0100
0010
1000
0000
1100
0000
,
0011
0101
1100
1010
,
0010
1000
0100
0001
0010
0100
1000
0010
,
0200
0000
0010
0000
0010
0010
0310
0000
,
0001
0100
0010
1000
0010
0100
0001
0100
,
0010
1000
0001
1000
0010
0100
0101
0000
,
0010
0100
1000
0010
0100
0001
0010
1000
,
0100
0010
0100
0001
0010
0100
1100
0000
,
1000
0100
0010
0100
0001
0010
0100
1000
,
0010
1000
0100
0001
0010
0001
0110
0000
,
0010
0100
0001
0010
0100
1000
0010
1000
,
0001
0001
1000
1000
2002
0000
3003
0000
,
0010
1000
0100
0010
0100
0001
0010
0100
,
1000
0010
1000
0100
0001
0010
0011
0000
,
0001
0100
0010
1000
0010
1000
0100
0001
,
0010
0100
1000
0010
0100
0001
1100
0000
,
0100
0010
2000
0000
3010
0100
0002
0000
,
0103
0010
1000
0010
0100
0001
0020
0000
,
0130
0001
1000
0010
1000
0001
0100
0010
,
0010
0000
0000
0100
0000
0000
0010
0000
1001
0000
0000
0000
0000
0000
0100
0010
,
0100
0000
0000
0010
0000
0000
0100
0000
1001
0000
0000
0000
0110
0000
0000
0000
;

//---------------dance-single - ----------------
#NOTES:
     dance-single:
     :
     Easy:
     9:
     0.513799,0.571658,0.232038,0.242585,0.010547,341.000000,319.000000,22.000000,23.000000,0.000000,0.000000,0.513799,0.571658,0.232038,0.242585,0.010547,341.000000,319.000000,22.000000,23.000000,0.000000,0.000000:
0000
0000
0000
0000
,
0000
0000
0000
0000
,
0000
0000
0000
0000
,
0000
0000
0000
0000
0000
1000
0000
1000
,
0001
0100
0000
0000
0000
0000
0000
0000
,
0110
1100
0101
1001
,
0010
0100
0001
0000
0100
0000
0010
0000
,
1000
0010
0100
0000
0001
0000
1000
0000
,
0002
0000
0103
0000
1000
1000
0100
0000
,
0010
0000
1000
0001
0100
0000
0010
0000
,
0002
0000
0103
0010
1000
0000
0001
0000
,
2000
0000
3010
0100
0001
0000
1000
0000
,
0020
0000
0130
0001
1000
0000
0100
0000
,
0002
0000
1003
0010
0100
0000
0001
0000
,
2000
0000
3010
0100
0001
0000
1000
0000
,
0020
0000
1030
0001
0100
0000
0010
0000
,
1000
0010
0100
0001
0010
0000
0100
0000
,
1100
0000
0101
1001
,
0020
1000
0100
0031
,
0200
0001
0010
1300
,
0020
1000
0001
1030
,
0001
1000
0010
0000
0010
1000
0001
0000
,
0200
0001
0010
1300
,
0002
1000
0100
0013
,
2000
0010
0100
3010
,
0001
1001
1100
1001
,
0010
0100
0001
0000
0001
0100
0010
0000
,
1000
0010
0100
0001
1000
0000
1001
0000
,
1000
0010
0100
0000
0100
0010
1000
0000
,
1000
0001
0100
0010
1000
0000
1010
0000
,
0001
1000
0001
0000
0001
1000
0010
0000
,
0010
1000
0001
0100
0010
0000
1001
0000
,
0100
1000
0000
1000
0100
0000
0001
0000
,
0020
0000
0100
0200
0000
0000
0330
0000
,
0002
0000
0103
0000
,
2000
0000
3100
0000
,
0002
0000
0013
0000
,
2000
0000
3010
0000
,
0001
0001
0100
0100
,
1000
1000
0010
0010
,
1000
0001
0100
0000
0010
1000
0001
0000
,
0100
1000
0010
0100
0001
0000
1001
0000
,
0010
0000
1000
0010
0100
0000
0001
0000
,
0100
0010
1000
0000
0100
0001
1000
0000
,
0010
0000
0100
0001
0010
0000
1000
0000
,
0001
0010
1000
0000
1000
0100
0001
0000
,
0010
0000
0100
1000
0010
0000
0100
0000
,
0001
1000
0010
0000
0100
0001
1000
0000
,
0020
1030
0200
0301
,
0010
0100
1000
0001
0011
0000
1010
0000
,
2001
0001
0001
3001
,
1001
0000
0100
0010
1000
0000
0010
1000
,
0001
0000
0001
1000
0010
0000
1000
0000
,
0001
0000
0100
0001
1000
0000
1000
0001
,
0100
0000
0100
0001
1000
0000
1010
0000
,
1000
0000
0010
0100
0001
0000
0001
0100
,
0010
0000
0010
0100
0001
0000
0001
1000
,
0010
0100
0010
1000
0001
0100
0010
1000
,
0002
1000
1000
1003
,
0010
0100
1000
0000
1000
0100
0010
0000
,
0001
0010
0100
0000
0100
0010
0001
0000
,
1000
0001
0100
0000
1000
0001
0100
0000
,
1000
0001
0010
0000
0001
1000
0010
0000
,
1000
0001
0100
0100
0010
1000
0001
0001
,
1000
0010
0100
0001
1000
0000
1001
0000
,
0010
1000
0100
0010
0001
0000
0110
0000
,
1000
0000
0000
0100
0000
0000
0100
0000
0001
0000
0000
0000
0000
0000
0000
0000
,
0001
0000
0000
0010
0000
0000
0010
0000
1000
0000
0000
0000
1010
0000
0000
0000
;

//---------------dance-single - ----------------
#NOTES:
     dance-single:
     :
     Beginner:
     6:
     0.304362,0.357286,0.105472,0.411340,0.000000,202.000000,192.000000,10.000000,39.000000,0.000000,0.000000,0.304362,0.357286,0.105472,0.411340,0.000000,202.000000,192.000000,10.000000,39.000000,0.000000,0.000000:
// measure 0
0000
0000
0000
0000
,  // measure 1
0000
0000
0000
0000
,  // measure 2
0000
0000
0000
0000
,  // measure 3
0000
0000
0000
0000
,  // measure 4
1001
0000
0000
0000
,  // measure 5
0100
0000
0100
0000
,  // measure 6
1000
0000
1000
0100
,  // measure 7
0010
0000
0010
0000
,  // measure 8
0001
0000
0001
0010
,  // measure 9
0100
0000
0100
0000
,  // measure 10
1000
0000
0010
0000
,  // measure 11
0100
0100
0100
0000
,  // measure 12
0001
0000
0100
0000
,  // measure 13
0010
0010
0010
0000
,  // measure 14
1000
0100
0010
0000
,  // measure 15
0010
0100
1000
0000
,  // measure 16
0001
0010
0100
0000
,  // measure 17
0100
0010
0001
0000
,  // measure 18
2000
0000
3010
0000
,  // measure 19
0002
0000
0103
0000
,  // measure 20
2000
0000
3100
0000
,  // measure 21
0002
0000
0013
0000
,  // measure 22
0200
0000
1300
0000
,  // measure 23
0020
0000
0031
0000
,  // measure 24
0200
0000
0301
0000
,  // measure 25
0020
0000
1030
0000
,  // measure 26
1000
1000
0100
0100
,  // measure 27
0010
0010
0020
0030
,  // measure 28
0001
0001
0010
0010
,  // measure 29
0100
0100
0200
0300
,  // measure 30
1000
0100
0010
0001
,  // measure 31
1000
1000
2000
3000
,  // measure 32
0001
0010
0100
1000
,  // measure 33
0001
0001
0002
0003
,  // measure 34
2000
0000
3000
0000
,  // measure 35
0002
0000
0003
0000
,  // measure 36
0200
0000
0300
0000
,  // measure 37
0020
0000
0030
0000
,  // measure 38
0001
0001
0010
0010
,  // measure 39
0100
0100
1000
1000
,  // measure 40
0001
0010
0100
1000
,  // measure 41
0001
0001
2002
3003
,  // measure 42
1000
0100
0010
0001
,  // measure 43
0100
0100
0220
0330
,  // measure 44
0001
0010
0100
1000
,  // measure 45
0010
0010
0220
0330
,  // measure 46
1000
0100
0001
0010
,  // measure 47
1000
1000
1002
0003
,  // measure 48
0001
0010
1000
0100
,  // measure 49
0001
0001
2002
3003
,  // measure 50
0200
0010
0010
0310
,  // measure 51
0001
0100
1000
0010
,  // measure 52
1000
1000
2002
3003
,  // measure 53
1000
0010
0100
0001
,  // measure 54
0010
0010
0220
0330
,  // measure 55
0001
0100
1000
0010
,  // measure 56
0001
0001
2002
3003
,  // measure 57
1000
0100
0010
0100
,  // measure 58
0001
0010
0100
0010
,  // measure 59
1000
1000
0001
0010
,  // measure 60
0001
0001
1000
0100
,  // measure 61
0010
0100
0001
1000
,  // measure 62
0100
0010
1000
0001
,  // measure 63
0200
0310
0002
1003
,  // measure 64
0200
2300
3020
0031
,  // measure 65
0100
0010
1000
0001
,  // measure 66
0020
0000
0130
0000
,  // measure 67
0200
0000
0310
1001
;
