#TITLE:サヨナラ・ヘヴン;
#SUBTITLE:;
#ARTIST:猫叉Master;
#TITLETRANSLIT:Sayonara Heaven;
#SUBTITLETRANSLIT:;
#ARTISTTRANSLIT:Nekomata Master;
#GENRE:pop'n music;
#CREDIT:;
#BANNER:;
#BACKGROUND:;
#LYRICSPATH:;
#CDTITLE:;
#MUSIC:Sayonara Heaven.ogg;
#OFFSET:1.625997;
#SAMPLESTART:69.179642;
#SAMPLELENGTH:15.000000;
#LASTBEATHINT:1.086988;
#SELECTABLE:YES;
#DISPLAYBPM:111.000000;
#BPMS:0.000000=111.000000
;
#STOPS:
;
#BGCHANGES:0.000=Sayonara Heaven.avi=1.000=0=0=0=StretchNoLoop====,
99999=-nosongbg-=1.000=0=0=0 // don't automatically add -songbackground-
;
#KEYSOUNDS:;
#ATTACKS:;

//---------------dance-single - ----------------
#NOTES:
     dance-single:
     :
     Hard:
     10:
     0.462694,0.405261,0.177693,0.040385,0.165578,374.000000,22.000000,5.000000,0.000000,0.000000,0.000000,0.462694,0.405261,0.177693,0.040385,0.165578,374.000000,22.000000,5.000000,0.000000,0.000000,0.000000:
// measure 0
0000
0000
0000
0000
,  // measure 1
0000
0000
0000
0000
,  // measure 2
0000
0000
0000
0000
,  // measure 3
0000
0000
0000
0000
,  // measure 4
0000
0000
0000
0000
,  // measure 5
1000
0000
0000
1000
0100
0000
0000
0000
0100
0000
0000
0100
0010
0000
0000
0000
,  // measure 6
0010
0000
0000
0010
0001
0000
0000
0000
0001
0000
0000
0001
1000
0000
0000
0000
,  // measure 7
0010
0000
0000
1000
0020
0000
0000
0000
0130
0000
0000
0001
0200
0000
1300
0000
,  // measure 8
0010
0100
0001
0100
0010
0100
0001
0100
,  // measure 9
0010
1000
0010
0100
0010
1000
0010
0100
,  // measure 10
0001
1000
0001
0100
0001
1000
0001
0100
,  // measure 11
0010
1000
0010
0100
0001
0010
0002
0000
,  // measure 12
1003
0010
0100
0010
1000
0010
0100
0010
,  // measure 13
0001
0010
0100
0010
0001
0010
0100
0010
,  // measure 14
0001
1000
0100
0010
0100
1000
0010
0100
,  // measure 15
0001
0000
1000
0000
0010
0000
0100
0000
1001
0000
0000
0001
1000
0000
0000
0000
,  // measure 16
0010
0000
0000
1000
0000
0000
0001
0000
1000
0000
0000
0000
1001
0000
0000
0000
,  // measure 17
0010
1000
0001
0100
0010
0000
0110
0001
,  // measure 18
0100
0000
0000
0010
0100
0000
0000
0000
1000
0000
0000
0100
0010
0000
0100
0000
,  // measure 19
0001
0010
0100
1000
0010
0100
1001
0000
,  // measure 20
0100
0000
0000
0001
0000
0000
1000
0000
0001
0000
0000
0000
1001
0000
0000
0000
,  // measure 21
0100
0001
1000
0010
0100
0000
0110
1000
,  // measure 22
0010
0000
0000
0100
0010
0000
0000
0000
0001
0000
0000
0010
0100
0000
0010
0000
,  // measure 23
1000
0000
0100
0000
0010
0000
0001
0000
0110
0000
0000
0000
0100
0000
0010
1000
,  // measure 24
0001
0000
0000
1000
0000
0000
0010
0000
0001
0000
1001
0000
1001
0000
0000
0000
,  // measure 25
0010
0000
0000
0100
0000
0000
0001
0000
1000
0000
1001
0000
1001
0000
0000
0000
,  // measure 26
0010
1000
0001
0100
0010
1000
0001
0100
,  // measure 27
0020
0000
0000
0000
0100
0000
0000
0000
0001
0000
0000
0000
0130
0000
0100
0001
,  // measure 28
1000
0000
0000
0001
0000
0000
0100
0000
1000
0000
1001
0000
1001
0000
0000
0000
,  // measure 29
0100
0000
0000
0010
0000
0000
1000
0000
0001
0000
1001
0000
1001
0000
0000
0000
,  // measure 30
0100
0001
1000
0010
0100
0001
1000
0010
,  // measure 31
0200
0000
0010
0000
1000
0000
0310
0001
,  // measure 32
0100
0000
0000
0000
0100
0000
0000
0000
0100
0000
0000
0000
0000
0000
0000
0000
0010
0000
0000
0000
0010
0000
0000
0000
0010
0000
0000
0000
0000
0000
0000
0000
0000
0001
0000
0000
1000
0000
0000
0000
0000
0000
0001
0000
0000
0000
0000
0000
,  // measure 33
1001
0000
0000
0010
1000
0000
0001
0000
1000
0000
0000
0001
1000
0000
0010
0000
,  // measure 34
0100
0000
0000
0001
0100
0000
0010
0000
1000
0000
0010
0000
0100
0000
0001
0000
,  // measure 35
1000
0000
0000
1000
0010
0000
0100
0000
0001
0000
0010
0000
0100
0000
0010
0000
,  // measure 36
1000
0100
0001
0100
1000
0100
0001
0100
,  // measure 37
1000
0000
0000
0010
0100
0000
0001
0000
1000
0000
0000
0010
0100
0000
0001
0000
,  // measure 38
0010
0000
0000
1000
0010
0000
0001
0000
0010
0000
0100
0000
0010
0000
1000
0000
,  // measure 39
0001
0000
0000
0001
0010
0000
0100
0000
0010
0000
1000
0000
0001
0000
0100
0000
,  // measure 40
0010
1000
0100
0001
0100
1000
0100
0001
,  // measure 41
1001
0000
0000
0100
0001
0000
1000
0000
0001
0000
0000
1000
0001
0000
0100
0000
,  // measure 42
0010
0000
0000
1000
0010
0000
0100
0000
0001
0000
0100
0000
0010
0000
1000
0000
,  // measure 43
0001
0000
0000
0001
0100
0000
0010
0000
1000
0000
0100
0000
0010
0000
0100
0000
,  // measure 44
0001
0010
1000
0010
0001
0010
1000
0010
,  // measure 45
0001
0000
0000
0110
0000
0000
1000
0000
0001
0000
0000
0110
0000
0000
1000
0000
,  // measure 46
0100
0000
0000
1001
0000
0000
0010
0000
0100
0000
1000
0000
0100
0000
0001
0000
,  // measure 47
1000
0000
0000
1000
0100
0000
0010
0000
0100
0000
0001
0000
1000
0000
0010
0000
,  // measure 48
0100
1000
0001
0100
0010
1000
0010
0100
,  // measure 49
0001
0100
0001
0100
1000
0100
1000
0100
,  // measure 50
0010
1000
0010
0100
0001
0010
0001
0100
,  // measure 51
0010
1000
0100
0010
0100
0001
0100
1001
,  // measure 52
0010
1000
0001
0100
0010
1000
0001
0100
,  // measure 53
0010
1000
0100
0010
0001
1000
0010
0100
,  // measure 54
0001
0010
0100
0010
1000
0100
0010
0001
,  // measure 55
0100
0000
0100
0000
0010
0000
0010
0000
1000
0000
0000
0001
1001
0000
0000
0000
;

//---------------dance-single - ----------------
#NOTES:
     dance-single:
     :
     Medium:
     7:
     0.331155,0.315203,0.145385,0.080770,0.048462,259.000000,18.000000,10.000000,0.000000,0.000000,0.000000,0.331155,0.315203,0.145385,0.080770,0.048462,259.000000,18.000000,10.000000,0.000000,0.000000,0.000000:
// measure 0
0000
0000
0000
0000
,  // measure 1
0000
0000
0000
0000
,  // measure 2
0000
0000
0000
0000
,  // measure 3
0000
0000
0000
0000
,  // measure 4
0000
0000
0000
0000
,  // measure 5
1000
0000
0000
0100
0000
0000
0000
0000
1000
0000
0000
0100
0000
0000
0000
0000
,  // measure 6
0010
0000
0000
0100
0000
0000
0000
0000
0010
0000
0000
0100
0000
0000
0000
0000
,  // measure 7
0001
0000
0000
0010
0000
0000
0000
0000
0001
0000
0000
0010
0000
0000
0100
0000
,  // measure 8
0010
0000
1000
0000
0001
1000
0010
0000
,  // measure 9
1000
0000
0001
0000
1000
0001
0100
0000
,  // measure 10
0010
0000
1000
0000
0010
0100
0001
0000
,  // measure 11
0100
0000
0001
0000
0100
0010
1000
0000
,  // measure 12
0001
0000
1000
0000
0010
0100
0001
0000
,  // measure 13
1000
0000
0001
0000
0100
0010
1000
0000
,  // measure 14
0100
0000
0010
0000
0001
1000
0010
0000
,  // measure 15
1000
0010
0100
0001
1000
0000
0000
0000
,  // measure 16
1001
0000
0010
0000
1000
0001
0100
0000
,  // measure 17
0010
0000
1000
0000
0001
1000
0010
0000
,  // measure 18
1000
0100
0010
0000
0100
0010
0001
0000
,  // measure 19
0100
0000
0010
0000
1000
0001
1001
0000
,  // measure 20
0010
0000
0100
0000
0001
0100
1000
0000
,  // measure 21
0010
0000
0100
0000
0001
0010
1000
0000
,  // measure 22
0010
0000
0100
0000
1000
0010
0100
0000
,  // measure 23
0001
0000
1000
0000
0010
0100
0001
0000
,  // measure 24
0100
0000
0010
0000
1000
1001
1001
0000
,  // measure 25
0010
0000
1000
0000
0001
1001
1001
0000
,  // measure 26
0010
0000
1000
0000
0010
0000
0100
0001
,  // measure 27
0200
0010
1000
0310
,  // measure 28
0001
0000
1000
0000
0001
1001
1001
0000
,  // measure 29
0010
0000
0100
0000
1000
1001
1001
0000
,  // measure 30
0010
1000
0001
0100
,  // measure 31
0020
0000
0000
0000
0100
0000
0000
0000
0001
0000
0000
0000
0100
0000
0000
0030
,  // measure 32
0100
0000
0000
0100
0000
0100
0000
0000
0010
0000
0000
0000
0001
0000
0000
0000
,  // measure 33
1000
0000
0010
1000
0001
0000
1000
0010
,  // measure 34
0001
0000
1000
0010
0001
0000
0010
0000
,  // measure 35
1000
0000
0100
0001
1000
0000
0001
0100
,  // measure 36
1000
0000
0001
0100
1000
0000
0010
0000
,  // measure 37
1001
0000
0010
1000
0001
0000
1000
0010
,  // measure 38
0001
0000
1000
0010
0001
0000
0100
0000
,  // measure 39
0010
0000
0100
1000
0001
0000
1000
0100
,  // measure 40
0001
0000
1000
0100
0001
0000
0010
0000
,  // measure 41
1001
0000
0010
1000
0001
0000
2000
0010
,  // measure 42
3001
0000
2000
0010
3001
0000
0100
0000
,  // measure 43
1001
0000
0100
0001
1000
0000
0002
0100
,  // measure 44
1003
0000
0002
0100
1003
0000
0010
0000
,  // measure 45
1000
0000
0000
0200
0000
0000
0000
0000
1300
0000
0000
0200
0000
0000
0000
0000
,  // measure 46
0301
0000
0000
0020
0000
0000
0000
0000
0031
0000
0000
0020
0000
0000
0031
0000
,  // measure 47
0100
0000
0001
0000
1000
0001
0100
0000
,  // measure 48
0010
0000
1001
0000
0010
1000
0001
0000
,  // measure 49
0100
0000
1000
0000
0010
0100
0001
0010
,  // measure 50
0010
0000
1001
0000
0010
1000
0001
0000
,  // measure 51
0100
0000
0001
0000
1000
0010
0100
1000
,  // measure 52
1000
0000
0010
0000
1000
0010
0001
0000
,  // measure 53
0010
0000
1001
0000
0001
0100
0010
0000
,  // measure 54
1000
0000
1001
0000
1000
0010
0100
0000
,  // measure 55
0001
0100
0010
1000
0001
0000
1001
0000
;

//---------------dance-single - ----------------
#NOTES:
     dance-single:
     :
     Easy:
     5:
     0.288463,0.270174,0.250386,0.258463,0.000000,187.000000,31.000000,32.000000,0.000000,0.000000,0.000000,0.288463,0.270174,0.250386,0.258463,0.000000,187.000000,31.000000,32.000000,0.000000,0.000000,0.000000:
0000
0000
0000
0000
,
0000
0000
0000
0000
,
0000
0000
0000
0000
,
0000
0000
0000
0000
,
0000
0000
0000
0000
,
0200
1300
0200
0301
,
2000
3100
0002
0103
,
0020
1030
0020
0031
,
1000
0010
0100
1001
,
0001
0100
0010
1001
,
0100
0010
1000
0001
,
0100
0100
0110
0000
,
0001
0100
0010
1001
,
1000
0010
0100
1001
,
0100
0010
1000
0001
,
0100
0100
0110
0000
,
2000
0100
0100
3001
,
0010
1000
2002
3003
,
0002
0100
0100
0013
,
0100
0010
1001
0000
,
2000
0010
0100
3010
,
0001
1000
0110
0000
,
0002
0100
0010
0100
,
0013
1000
1001
0000
,
1000
0010
1001
1001
,
0010
0100
1001
1001
,
0010
0100
0001
0100
,
0020
1000
1000
1030
,
0001
0100
1001
1001
,
0100
0010
1001
1001
,
0010
1000
0010
0001
,
0200
0001
0001
0301
,
1001
0000
0110
0000
,
1000
0010
0100
0001
,
1000
1000
2002
3003
,
0001
0100
0010
1000
,
0001
0001
2002
3003
,
0010
1000
0001
0100
,
0010
0010
0220
0330
,
1000
0010
0100
0001
,
0100
0100
0220
0330
,
1000
0100
0010
0001
,
1000
0010
0100
0001
,
1000
0100
0010
0001
,
1000
0010
0100
0001
,
2200
3300
0202
0303
,
2002
3003
0220
0330
,
0001
0100
0010
1000
,
0001
0001
0100
0010
,
1000
1000
0010
0100
,
0001
0100
0010
1000
,
0001
0001
2002
3003
,
0100
0010
1000
0001
,
0100
0100
0010
0010
,
1000
0001
0100
0010
,
1000
0001
1001
0110
;

//---------------dance-single - ----------------
#NOTES:
     dance-single:
     :
     Beginner:
     2:
     0.113077,0.112573,0.048462,0.016154,0.000000,90.000000,6.000000,2.000000,0.000000,0.000000,0.000000,0.113077,0.112573,0.048462,0.016154,0.000000,90.000000,6.000000,2.000000,0.000000,0.000000,0.000000:
0000
0000
0000
0000
,
0000
0000
0000
0000
,
0000
0000
0000
0000
,
0000
0000
0000
0000
,
0000
0000
0000
0000
,
0000
0000
0000
0000
,
0000
0000
0000
0000
,
0000
0000
0000
0000
,
1000
0000
1000
0000
,
0100
0000
0100
0000
,
0010
0000
0010
0000
,
0001
0000
0001
0000
,
1000
0000
0100
0000
,
1000
0000
0010
0000
,
1000
0000
0001
0000
,
0010
0000
0110
0000
,
1000
0000
0100
0000
,
1000
0000
0100
0000
,
0001
0000
0100
0000
,
0001
0000
0100
0000
,
1000
0000
0010
0000
,
1000
0000
0010
0000
,
0001
0000
0010
0000
,
0001
0000
0010
0000
,
1000
0000
0010
0000
,
1000
0000
0100
0000
,
1000
0000
0010
0000
,
2000
0000
3000
0000
,
0001
0000
0100
0000
,
0001
0000
0010
0000
,
0001
0000
0100
0000
,
0002
0000
0003
0000
,
0000
0000
0000
0000
,
1001
0000
0100
0000
,
0010
0000
0100
0000
,
0001
0000
1000
0000
,
0001
0000
1000
0000
,
0010
0000
0100
0000
,
0010
0000
0100
0000
,
1000
0000
0001
0000
,
1000
0000
0001
0000
,
0100
0000
1000
0000
,
0010
0000
0001
0000
,
0100
0000
1000
0000
,
0010
0000
0001
0000
,
1001
0000
0000
0000
,
1001
0000
0000
0000
,
0010
0000
0100
0000
,
1001
0000
0000
0100
,
0100
0000
0000
0010
,
0010
0000
0000
1000
,
1000
0000
0000
0001
,
0001
0000
0000
1000
,
0100
0000
0000
0001
,
0100
0000
0000
1000
,
0010
0000
0000
1001
;

//---------------dance-single - ----------------
#NOTES:
     dance-single:
     :
     Challenge:
     10:
     0.451156,0.405261,0.161539,0.032308,0.161539,367.000000,20.000000,4.000000,88.000000,0.000000,0.000000,0.451156,0.405261,0.161539,0.032308,0.161539,367.000000,20.000000,4.000000,88.000000,0.000000,0.000000:
// measure 0
0000
0000
0000
0000
,  // measure 1
0000
0000
0000
0000
,  // measure 2
0000
0000
0000
0000
,  // measure 3
0000
0000
0000
0000
,  // measure 4
0000
0000
0000
0000
,  // measure 5
0001
0000
0000
0001
0010
0000
MMMM
0000
0010
0000
0000
0010
0100
0000
MMMM
0000
,  // measure 6
0100
0000
0000
0100
1000
0000
MMMM
0000
1000
0000
0000
1000
0001
0000
MMMM
0000
,  // measure 7
0100
0000
0000
0001
0200
0000
0000
0000
0310
0000
0000
1000
0020
0000
0031
0000
,  // measure 8
0100
0010
1000
0010
0100
0010
1000
0010
,  // measure 9
0100
0001
0100
0010
0100
0001
0100
0010
,  // measure 10
1000
0001
1000
0010
1000
0001
1000
0010
,  // measure 11
0100
0001
0100
0010
1000
0100
1000
MMMM
,  // measure 12
0001
0100
0010
0100
0001
0100
0010
0100
,  // measure 13
1000
0100
0010
0100
1000
0100
0010
0100
,  // measure 14
1000
0001
0010
0100
0010
0001
0100
0010
,  // measure 15
1000
0000
0001
0000
0100
0000
0010
0000
1001
0000
0000
1000
0001
0000
MMMM
0000
,  // measure 16
0100
0000
0000
0001
0000
0000
1000
0000
0001
0000
0000
0000
1001
0000
MMMM
0000
,  // measure 17
0100
0001
1000
0010
0100
0000
0110
1000
,  // measure 18
0010
0000
0000
0100
0010
0000
MMMM
0000
0001
0000
0000
0010
0100
0000
0010
0000
,  // measure 19
1000
0100
0010
0001
0100
0010
1001
0000
,  // measure 20
0010
0000
0000
1000
0000
0000
0001
0000
1000
0000
0000
0000
1001
0000
MMMM
0000
,  // measure 21
0010
1000
0001
0100
0010
0000
0110
0001
,  // measure 22
0100
0000
0000
0010
0100
0000
MMMM
0000
1000
0000
0000
0100
0010
0000
0100
0000
,  // measure 23
0001
0000
0010
0000
0100
0000
1000
0000
0110
0000
0000
0000
0010
0000
0100
0001
,  // measure 24
1000
0000
0000
0001
0000
0000
0100
0000
1000
0000
1001
0000
1001
0000
MMMM
0000
,  // measure 25
0100
0000
0000
0010
0000
0000
1000
0000
0001
0000
1001
0000
1001
0000
MMMM
0000
,  // measure 26
0100
0001
1000
0010
0100
0001
1000
0010
,  // measure 27
0200
0000
0000
0000
0010
0000
0000
0000
1000
0000
0000
0000
0310
0000
0010
1000
,  // measure 28
0001
0000
0000
1000
0000
0000
0010
0000
0001
0000
1001
0000
1001
0000
MMMM
0000
,  // measure 29
0010
0000
0000
0100
0000
0000
0001
0000
1000
0000
1001
0000
1001
0000
MMMM
0000
,  // measure 30
0010
1000
0001
0100
0010
1000
0001
0100
,  // measure 31
0020
0000
0100
0000
0001
0000
0130
1000
,  // measure 32
0010
0000
0000
0000
0010
0000
0000
0000
0010
0000
0000
0000
MMMM
0000
0000
0000
0100
0000
0000
0000
0100
0000
0000
0000
0100
0000
0000
0000
0000
0000
0000
0000
0000
1000
0000
0000
0001
0000
0000
0000
0000
0000
1000
0000
0000
0000
0000
0000
,  // measure 33
1001
0000
0000
0100
0001
0000
1000
0000
0001
0000
0000
1000
0001
0000
0100
0000
,  // measure 34
0010
0000
0000
1000
0010
0000
0100
0000
0001
0000
0100
0000
0010
0000
1000
0000
,  // measure 35
0001
0000
0000
0001
0100
0000
0010
0000
1000
0000
0100
0000
0010
0000
0100
0000
,  // measure 36
0001
0010
1000
0010
0001
0010
1000
MMMM
,  // measure 37
0001
0000
0000
0100
0010
0000
1000
0000
0001
0000
0000
0100
0010
0000
1000
0000
,  // measure 38
0100
0000
0000
0001
0100
0000
1000
0000
0100
0000
0010
0000
0100
0000
0001
0000
,  // measure 39
1000
0000
0000
1000
0100
0000
0010
0000
0100
0000
0001
0000
1000
0000
0010
0000
,  // measure 40
0100
0001
0010
1000
0010
0001
0010
MMMM
,  // measure 41
1001
0000
0000
0010
1000
0000
0001
0000
1000
0000
0000
0001
1000
0000
0010
0000
,  // measure 42
0100
0000
0000
0001
0100
0000
0010
0000
1000
0000
0010
0000
0100
0000
0001
0000
,  // measure 43
1000
0000
0000
1000
0010
0000
0100
0000
0001
0000
0010
0000
0100
0000
0010
0000
,  // measure 44
1000
0100
0001
0100
1000
0100
0001
MMMM
,  // measure 45
1000
0000
0000
0110
0000
0000
0001
0000
1000
0000
0000
0110
0000
0000
0001
0000
,  // measure 46
0010
0000
0000
1001
0000
0000
0100
0000
0010
0000
0001
0000
0010
0000
1000
0000
,  // measure 47
0001
0000
0000
0001
0010
0000
0100
0000
0010
0000
1000
0000
0001
0000
MMMM
0000
,  // measure 48
0010
0001
1000
0010
0100
0001
0100
0010
,  // measure 49
1000
0010
1000
0010
0001
0010
0001
0010
,  // measure 50
0100
0001
0100
0010
1000
0100
1000
0010
,  // measure 51
0100
0001
0010
0100
0010
1000
0010
MMMM
,  // measure 52
0100
0001
1000
0010
0100
0001
1000
0010
,  // measure 53
0100
0001
0010
0100
1000
0001
0100
0010
,  // measure 54
1000
0100
0010
0100
0001
0010
0100
1000
,  // measure 55
0010
0010
0100
0100
0001
MMMM
MMMM
0000
;
