#TITLE:サヨナラ・ヘヴン (Ryu☆Remix);
#SUBTITLE:;
#ARTIST:猫叉Master;
#TITLETRANSLIT:Sayonara Heaven (Ryu☆Remix);
#SUBTITLETRANSLIT:;
#ARTISTTRANSLIT:Nekomata Master;
#GENRE:DDR;
#CREDIT:;
#BANNER:;
#BACKGROUND:;
#LYRICSPATH:;
#CDTITLE:;
#MUSIC:Sayonara Heaven (Ryu Remix).ogg;
#OFFSET:0.965998;
#SAMPLESTART:87.499687;
#SAMPLELENGTH:15.000000;
#SELECTABLE:YES;
#DISPLAYBPM:135.000000;
#BPMS:0.000000=135.000000
;
#STOPS:
;
#BGCHANGES:;
#KEYSOUNDS:;
#ATTACKS:;

//---------------dance-single - ----------------
#NOTES:
     dance-single:
     :
     Hard:
     12:
     0.571450,0.685211,0.459276,0.333346,0.307419,540.000000,478.000000,62.000000,45.000000,0.000000,0.000000,0.571450,0.685211,0.459276,0.333346,0.307419,540.000000,478.000000,62.000000,45.000000,0.000000,0.000000:
0000
0000
0000
0000
,
0000
0000
0000
0000
,
0000
0000
0000
0000
,
0000
0000
0000
0000
,
0000
0000
0000
0000
,
2000
0000
0000
3100
1000
0000
0100
0000
0020
0000
0000
0130
0010
0000
0100
0000
,
0002
0000
0000
0013
0001
0000
0010
0000
0002
0000
0000
0000
1003
0000
0001
0000
,
1000
0000
0000
0010
0100
0000
0001
0000
1001
0000
0001
0000
0100
0000
1000
0000
,
0010
1000
0100
0001
0200
0000
0310
1000
,
0002
0000
0000
0103
0010
0000
0100
0000
2000
0000
0000
3100
0010
0000
0100
0000
,
0002
0000
0000
0103
0010
0000
0100
0000
2000
0000
0000
0000
3010
0000
0100
0000
,
2000
0000
0000
3010
0100
0000
0010
0000
0002
0000
0000
0013
0100
0000
0010
0000
,
2000
0000
0000
3010
0100
0000
0010
0000
0002
0000
0000
0000
0103
0000
0010
0000
,
0100
1000
0010
0100
0001
0010
0100
0010
,
1000
0001
0100
0010
1000
0100
0010
0001
,
1000
0010
1000
0010
1000
0001
1000
0001
1000
0001
0100
0001
0100
0010
0100
0010
,
2000
0000
0010
0000
0001
0000
3100
0001
,
1001
0000
0000
0010
1000
0000
0100
0000
1001
0000
0000
1000
0010
0000
0100
0000
,
0110
0000
0000
0001
0010
0000
0100
0000
1100
0000
0000
0000
1000
0000
0100
0000
,
0101
0000
0000
0001
0100
0000
1000
0000
1100
0000
1000
0000
0010
0000
0100
0000
,
0001
0010
0100
1000
0110
0000
1000
0001
,
0101
0000
0000
0001
0100
0000
1000
0000
1100
0000
0000
1000
0100
0000
0001
0000
,
0101
0000
0000
0001
1000
0000
0010
0000
1001
0000
0000
0000
0100
0000
1000
0000
,
1001
0000
0000
0001
0100
0000
0001
0000
0101
0000
0001
0000
1010
0000
0010
0000
,
2100
0100
0001
3001
,
0002
0100
0010
1003
,
0020
0100
0001
1030
,
0200
0001
1000
0310
,
2000
0010
0100
3001
,
0100
0000
0010
0000
1000
0010
0100
0001
,
1001
0000
0001
0000
0001
0100
0010
1000
,
1001
0000
0100
0000
1000
0010
0100
0001
,
1000
0010
0010
0100
0220
0000
0330
0000
,
0001
0000
0000
0100
0000
0000
1000
0000
0200
0000
0000
0000
1300
0000
0100
0000
,
0010
0001
0100
0010
1001
0000
0010
1000
,
0100
0000
0000
1000
0100
0000
0001
0000
0100
0000
0000
0101
0000
0000
0010
0000
,
1000
0000
0100
0000
0010
0000
1000
0000
1001
0000
0000
0010
1000
0000
0100
0000
,
0020
0000
0000
0130
0000
0000
1000
0000
0100
0000
0000
0000
1001
0000
0001
0000
,
1000
0000
0100
0000
0001
0000
0100
0000
1000
0000
0000
0001
0010
0000
1000
0000
,
0010
0000
0000
1000
0100
0000
0001
0000
0100
0000
0000
1100
0000
0000
1001
0000
,
1000
0000
0000
0011
0000
0000
1001
0000
0100
0000
0010
0000
1000
0000
0001
1000
,
0001
0000
0000
1000
0000
0000
0010
0000
1000
0000
0110
0000
0110
0000
0001
1000
,
0100
0000
0000
0010
0000
0000
1000
0000
0001
0000
1001
0000
1001
0000
1000
0001
,
0010
0000
0000
0100
0000
0000
1000
0000
0010
0000
0100
0000
0001
0000
1000
0000
,
0200
0000
0000
0000
0010
0000
0000
0000
1000
0000
0000
0000
0310
0000
1000
0001
,
1000
0000
0000
0001
0000
0000
0100
0000
0001
0000
0110
0000
0110
0000
1000
0001
,
0010
0000
0000
0100
0000
0000
0001
0000
1000
0000
1001
0000
1001
0000
0001
1000
,
0100
0000
0000
0010
0000
0000
0001
0000
0100
0000
0010
0000
1000
0000
0001
0000
,
0020
0100
0100
0130
,
0001
0000
1000
0000
1001
0000
0000
0000
0100
0000
0010
0000
0110
0000
0000
0000
0000
0000
0001
0000
0000
1000
0000
0000
,
1001
0000
0000
0001
1000
0001
1000
0000
0110
0000
0000
0010
0100
0010
0100
0000
,
1000
0000
0000
1000
0100
1000
0100
0000
0110
0000
0000
0000
0001
0000
0100
0000
,
0101
0000
0000
0001
0100
0001
0100
0000
0010
0000
1000
0000
0100
0000
0010
0000
,
1000
0001
0100
0010
0110
0000
1000
0010
,
0110
0000
0000
0001
0010
0100
1000
0000
1001
0000
0000
1000
0010
0100
0001
0000
,
1001
0000
0000
0001
0100
1000
0010
0000
1001
0000
0000
0000
1000
0000
0100
0000
,
1100
0000
0000
1000
0100
0010
0001
0000
0001
0000
0100
0000
0010
0000
1000
0000
,
0100
0001
0100
0010
1001
0000
1000
0100
,
1100
0000
0000
1000
0010
1000
0001
0000
1001
0000
0000
0001
0100
0001
1000
0000
,
1001
0000
0000
0010
0100
0001
1000
0000
1001
0000
0000
0000
0010
0000
1000
0000
,
1100
0000
0000
1000
0010
0100
0001
0000
0101
0000
0010
0000
0100
0000
1000
0000
,
0011
0010
1000
0100
1100
0000
1000
0010
,
1010
0000
0000
1000
0010
0100
0001
0000
1001
0000
0000
0001
0100
0010
1000
0000
,
1001
0000
0000
1000
0100
0010
0001
0000
1001
0000
0000
0000
0010
0000
0100
0000
,
1100
0000
0000
0100
0010
0100
0001
0000
1000
0000
0010
0000
0100
0000
0001
0000
,
2001
0010
0100
0001
,
3020
0000
0000
2030
,
3002
0000
0203
0320
,
2030
0000
3002
0203
,
1300
0100
0010
0001
0100
1000
0010
0100
,
0002
0000
0203
2300
,
3020
0000
2030
3200
,
0320
0000
0032
0203
,
1300
0010
0100
0001
2000
0000
0002
0000
,
3003
0000
0000
0000
;

//---------------dance-single - ----------------
#NOTES:
     dance-single:
     :
     Medium:
     8:
     0.419063,0.465943,0.466684,0.288900,0.044446,396.000000,333.000000,63.000000,39.000000,0.000000,0.000000,0.419063,0.465943,0.466684,0.288900,0.044446,396.000000,333.000000,63.000000,39.000000,0.000000,0.000000:
0000
0000
0000
0000
,
0000
0000
0000
0000
,
0000
0000
0000
0000
,
0000
0000
0000
0000
,
0000
0000
0000
0000
,
1001
0000
0110
0000
0001
0000
0100
0010
,
1000
0000
1001
0000
1000
0010
0100
0001
,
1001
0000
0010
0000
0001
0000
0100
0010
,
1000
0010
0100
0000
1001
0000
0110
0000
,
1000
0100
0010
0000
0100
0010
0001
0000
,
1000
0100
0010
0000
0100
0010
0001
0000
,
0001
0010
0100
0000
0010
0100
1000
0000
,
0001
0010
0100
0000
0010
0100
1000
0000
,
0001
0100
0010
0000
1000
0010
0100
0000
,
0001
0100
0010
0000
1000
0010
0100
0000
,
0001
0100
0010
1000
0001
0100
0010
1000
,
0020
0100
0100
0130
,
1001
0000
0100
0010
1010
0000
1000
0000
,
1001
0000
0100
0010
0001
1000
0010
0000
,
1001
0000
0010
0001
0101
0000
1001
0000
,
0010
0100
1000
0001
1001
0000
1000
0000
,
1100
0000
1000
0010
1010
0000
0001
0000
,
1001
0000
0001
0100
1000
0010
0100
0000
,
1001
0000
1000
0100
0010
0000
1001
0000
,
0001
0100
0010
1000
0001
0000
0100
0000
,
2000
0000
0010
0000
,
3200
0000
0310
0001
,
0020
0000
1030
0100
,
0002
0100
1000
0100
,
2003
0000
3010
0100
,
0002
0000
1003
0010
,
2000
0000
3100
0010
,
1000
0100
0001
0000
2002
0000
3003
0000
,
1001
0000
0000
0100
0000
0000
0010
0000
1000
0000
0000
0000
0001
0000
0000
0000
,
1001
0000
0100
0010
1000
0000
1001
0000
,
0200
0000
0000
0310
0100
0000
0001
1000
,
0010
0000
0100
0001
1000
0000
1001
0000
,
1001
0000
0000
0010
0000
0000
0100
0000
0001
0000
0000
0000
1000
0000
0000
0000
,
1001
0000
0010
0100
0001
0000
1001
0000
,
0020
0000
0000
0130
0010
0000
1000
0001
,
0100
0000
0010
1000
0001
0000
1001
0000
,
1000
0000
0000
0100
0000
0000
0010
0000
1001
0000
0000
0000
0110
0000
0000
0000
,
0001
0000
0000
0010
0000
0000
0100
0000
1001
0000
0000
0000
0110
0000
0000
0000
,
0100
0000
0000
1000
0000
0000
0100
0000
0020
0000
0000
0000
0130
0000
0000
0000
,
2000
3001
0020
0130
,
0001
0000
0000
0010
0000
0000
0100
0000
1001
0000
0000
0000
0110
0000
0000
0000
,
1000
0000
0000
0100
0000
0000
0010
0000
1001
0000
0000
0000
0110
0000
0000
0000
,
0010
0000
0000
0001
0000
0000
0010
0000
0200
0000
0000
0000
0310
0000
0000
0000
,
0002
1003
0200
0310
,
0001
0010
0001
0000
1000
0100
1000
0000
0000
0100
0000
0000
,
1100
0100
0101
0010
,
1010
0000
0001
0000
0011
0000
1000
0001
,
1001
0000
0100
0000
1100
0000
0100
0001
,
0100
1000
0010
0000
1001
0000
0010
0000
,
1001
0100
1100
0001
,
0101
0000
0001
1000
0110
0000
1000
0000
,
1100
0000
1000
0010
0100
0001
0100
0010
,
2000
0000
0001
0000
3100
0000
0010
0001
,
0011
0010
1010
0100
,
0101
0000
1000
0000
1100
0000
0001
1000
,
1001
0000
0010
0000
0011
0000
0010
1000
,
0010
0001
0100
0000
1001
0000
0100
0000
,
1001
0010
0011
1000
,
1010
0000
1000
0001
0110
0000
0001
0000
,
0011
0000
0001
0100
0010
1000
0010
0100
,
0012
0010
0010
0013
,
1002
0000
0000
0023
,
0230
0000
2300
3200
,
0320
0000
0032
2003
,
3010
0100
0010
0100
0001
1000
0001
1000
,
0002
0000
0203
0320
,
2030
0000
3200
0320
,
0032
0000
2003
3002
,
0103
0010
0100
0010
1001
0000
0220
0000
,
0330
0000
0000
0000
;

//---------------dance-single - ----------------
#NOTES:
     dance-single:
     :
     Easy:
     6:
     0.299482,0.355106,0.296307,0.600022,0.000000,283.000000,243.000000,40.000000,81.000000,0.000000,0.000000,0.299482,0.355106,0.296307,0.600022,0.000000,283.000000,243.000000,40.000000,81.000000,0.000000,0.000000:
0000
0000
0000
0000
,
0000
0000
0000
0000
,
0000
0000
0000
0000
,
0000
0000
0000
0000
,
0000
0000
0000
0000
,
0002
0103
2000
3100
,
0002
0013
2000
3010
,
0100
0010
1000
0001
,
0210
0010
0310
0001
,
1001
1000
0100
0001
,
1001
1000
0100
0001
,
1001
0001
0010
1000
,
1001
0001
0010
1000
,
0010
0100
0010
0100
,
1000
0001
1000
0001
,
0001
0100
0010
1000
,
2001
0001
0002
3003
,
0002
0103
1000
1010
,
2000
3010
0100
0101
,
0200
1300
0010
0100
,
0011
0110
2200
3300
,
0002
0103
0010
1000
,
0001
1000
0010
1001
,
0200
1300
0010
0100
,
0011
0110
2200
3300
,
0200
0000
0000
1300
,
0020
0000
0000
0031
,
2000
0000
0000
3100
,
0010
0100
0001
1001
,
0020
0000
0230
0000
,
0302
0000
2003
3200
,
0320
0000
2030
0000
,
3002
0203
0020
0330
,
0001
0100
2002
3003
,
1000
0100
2002
3003
,
0010
0100
1000
0001
,
0100
0010
1000
1001
,
1000
0010
2002
3003
,
0001
0010
2002
3003
,
0100
0010
0001
1000
,
0010
0100
0001
1001
,
1000
0100
0220
0330
,
0001
0010
0220
0330
,
1000
0010
0100
0001
,
2001
0001
0001
3001
,
0001
0010
0220
0330
,
1000
0100
0220
0330
,
0001
0100
0010
1000
,
1002
1000
1000
1003
,
0020
0030
0200
0300
,
1001
0100
1000
0010
,
0101
0100
0020
0130
,
0101
1000
0010
0100
,
1001
0100
2000
3100
,
1000
0100
0010
1001
,
0001
0100
0010
1001
,
0200
1300
0200
0301
,
0020
1030
0020
0031
,
1001
0010
0001
0100
,
1010
0010
0200
0310
,
1010
0001
0100
0010
,
1001
0010
0002
0013
,
0001
0010
0100
1001
,
1000
0010
0100
1001
,
0020
0031
0020
1030
,
0200
0001
1000
0301
,
2000
0000
0000
3100
,
0020
0000
0130
0200
,
0302
0000
1003
2000
,
3200
0320
0032
2003
,
3002
0000
0203
0320
,
2030
0000
3020
0230
,
0302
0000
2003
3020
,
0230
0302
2000
3003
;

//---------------dance-single - ----------------
#NOTES:
     dance-single:
     :
     Beginner:
     2:
     0.108999,0.162228,0.022223,0.014815,0.000000,103.000000,100.000000,3.000000,2.000000,0.000000,0.000000,0.108999,0.162228,0.022223,0.014815,0.000000,103.000000,100.000000,3.000000,2.000000,0.000000,0.000000:
// measure 0
0000
0000
0000
0000
,  // measure 1
0000
0000
0000
0000
,  // measure 2
0000
0000
0000
0000
,  // measure 3
0000
0000
0000
0000
,  // measure 4
0000
0000
0000
0000
,  // measure 5
1000
0000
0000
0000
,  // measure 6
1000
0000
0000
0000
,  // measure 7
1001
0000
0000
0000
,  // measure 8
0001
0000
0000
0000
,  // measure 9
0100
0000
0000
0000
,  // measure 10
0100
0000
0000
0000
,  // measure 11
0100
0000
0000
0000
,  // measure 12
0100
0000
0000
0000
,  // measure 13
1000
0000
0100
0000
,  // measure 14
0010
0000
0001
0000
,  // measure 15
1000
0000
0001
0000
,  // measure 16
0220
0000
0330
0000
,  // measure 17
1000
0000
0100
0000
,  // measure 18
1000
0000
0100
0000
,  // measure 19
0001
0000
0010
0000
,  // measure 20
0001
0000
0010
0000
,  // measure 21
1000
0000
0001
0000
,  // measure 22
1000
0000
0001
0000
,  // measure 23
0100
0000
0010
0000
,  // measure 24
0100
0000
0010
0000
,  // measure 25
0001
0000
0000
0000
,  // measure 26
1000
0000
0000
0000
,  // measure 27
0100
0000
0000
0000
,  // measure 28
0010
0000
0000
0000
,  // measure 29
1000
0000
0000
0000
,  // measure 30
0001
0000
0000
0000
,  // measure 31
0010
0000
0000
0000
,  // measure 32
0100
0000
0000
0000
,  // measure 33
1000
0000
0100
0000
,  // measure 34
1000
0000
0000
0000
,  // measure 35
0001
0000
0100
0000
,  // measure 36
0001
0000
0000
0000
,  // measure 37
1000
0000
0010
0000
,  // measure 38
1000
0000
0000
0000
,  // measure 39
0001
0000
0010
0000
,  // measure 40
0001
0000
0000
0000
,  // measure 41
1000
0000
0000
0000
,  // measure 42
0100
0000
0000
0000
,  // measure 43
0010
0000
0000
0000
,  // measure 44
0001
0000
0000
0000
,  // measure 45
0001
0000
0000
0000
,  // measure 46
0010
0000
0000
0000
,  // measure 47
0100
0000
0000
0000
,  // measure 48
1000
0000
0000
0000
,  // measure 49
1001
0000
0000
0000
,  // measure 50
1000
0000
0100
0000
,  // measure 51
1000
0000
0100
0000
,  // measure 52
0001
0000
0010
0000
,  // measure 53
0001
0000
0010
0000
,  // measure 54
1000
0000
0001
0000
,  // measure 55
1000
0000
0001
0000
,  // measure 56
0100
0000
0010
0000
,  // measure 57
0100
0000
0010
0000
,  // measure 58
0001
0000
0100
0000
,  // measure 59
0001
0000
0100
0000
,  // measure 60
1000
0000
0010
0000
,  // measure 61
1000
0000
0010
0000
,  // measure 62
0100
0000
0010
0000
,  // measure 63
0100
0000
0010
0000
,  // measure 64
1000
0000
0001
0000
,  // measure 65
1000
0000
0001
0000
,  // measure 66
1000
0000
0000
0000
,  // measure 67
0100
0000
0000
0000
,  // measure 68
0010
0000
0000
0000
,  // measure 69
0001
0000
0000
0000
,  // measure 70
0001
0000
0000
0000
,  // measure 71
0010
0000
0000
0000
,  // measure 72
0100
0000
0000
0000
,  // measure 73
1000
0000
0000
0000
;
