#TITLE:燦々デイズ;
#SUBTITLE:;
#ARTIST:スピラ・スピカ (From その着せ替え人形は恋をする);
#TITLETRANSLIT:;
#SUBTITLETRANSLIT:;
#ARTISTTRANSLIT:;
#GENRE:Anime/Game;
#CREDIT:;
#BANNER:Sansan Days.png;
#BACKGROUND:Sansan Days-bg.png;
#LYRICSPATH:;
#CDTITLE:;
#MUSIC:Sansan Days.ogg;
#OFFSET:0.026000;
#SAMPLESTART:58.585022;
#SAMPLELENGTH:15.000000;
#SELECTABLE:YES;
#BPMS:0.000000=180.000000
;
#STOPS:
;
#BGCHANGES:6.000=Sansan Days.avi=1.000=0=0=0=StretchNoLoop====,
99999=-nosongbg-=1.000=0=0=0 // don't automatically add -songbackground-
;
#KEYSOUNDS:;
#ATTACKS:;

//---------------dance-single - ----------------
#NOTES:
     dance-single:
     :
     Hard:
     11:
     0.544209,0.625007,0.271329,0.206210,0.000000,351.000000,326.000000,25.000000,19.000000,0.000000,0.000000,0.544209,0.625007,0.271329,0.206210,0.000000,351.000000,326.000000,25.000000,19.000000,0.000000,0.000000:
// measure 0
0000
0000
0000
0000
,  // measure 1
0000
0000
0000
0000
,  // measure 2
0000
0000
0000
0000
,  // measure 3
0000
0000
0000
0000
,  // measure 4
0000
0000
0000
0000
,  // measure 5
0000
0000
0000
0000
,  // measure 6
0000
0000
0000
0000
,  // measure 7
2000
0000
3100
0010
,  // measure 8
0002
0000
0013
0100
,  // measure 9
1000
0001
0000
0100
0010
0000
1000
0002
,  // measure 10
0000
0000
0000
0000
0000
0010
0013
0000
,  // measure 11
0001
0010
0100
0000
1000
0100
0010
0000
,  // measure 12
0001
0100
1000
0000
1000
0010
0001
0000
,  // measure 13
1000
0010
1000
0010
0001
0100
0001
0100
,  // measure 14
0020
0000
0230
0000
0300
0001
1000
0000
,  // measure 15
1001
0000
0100
0000
1000
0100
0010
0000
,  // measure 16
0001
0000
0010
0000
0001
0010
0100
0000
,  // measure 17
1000
0010
0100
0000
0001
0100
0010
0000
,  // measure 18
1000
0100
0001
0000
0001
0010
1000
0000
,  // measure 19
1000
0010
0100
0001
0100
0010
1000
0000
,  // measure 20
0001
0100
0010
1000
0010
0100
0001
0000
,  // measure 21
1000
0100
1000
0100
0001
0010
0001
0010
,  // measure 22
0100
0110
0000
0000
1001
0000
1100
0000
,  // measure 23
1000
0100
0001
0000
0001
1000
0001
0000
,  // measure 24
0001
0010
1000
0000
0010
0100
0010
0000
,  // measure 25
0001
0100
1000
0000
0100
0000
1001
0000
,  // measure 26
1000
0010
0001
0000
0010
0000
1001
0000
,  // measure 27
0100
1000
0010
0000
0010
0001
0100
0000
,  // measure 28
0100
0010
1000
1001
,  // measure 29
0100
1000
0010
0000
0010
0001
0100
0000
,  // measure 30
0020
1000
0100
0031
,  // measure 31
0200
0000
0000
0010
0000
0000
1300
0000
,  // measure 32
0002
1000
0100
0013
,  // measure 33
0020
0000
0000
0100
0000
0000
0031
0000
,  // measure 34
2000
0001
0010
3100
,  // measure 35
0001
0100
1000
0000
0001
0000
1001
0000
,  // measure 36
1000
0010
0001
0000
1000
0000
1001
0000
,  // measure 37
0100
1000
0010
0000
0010
0001
0100
0000
,  // measure 38
0100
0010
0100
0010
1000
0001
1000
0001
,  // measure 39
0200
0010
0010
1300
,  // measure 40
0020
0100
0100
0031
,  // measure 41
0200
0010
1000
0301
,  // measure 42
0020
0001
1000
0130
,  // measure 43
0001
0000
1001
0000
0000
1000
1001
0000
,  // measure 44
0100
1000
0100
0000
0010
0001
0010
0000
,  // measure 45
0100
0010
0100
0010
0100
0001
1000
0000
,  // measure 46
0001
1000
0010
0000
1000
0001
0100
0000
,  // measure 47
0001
1000
0001
1000
0001
0100
0010
0000
,  // measure 48
0010
1000
0001
0000
0001
1000
0010
0000
,  // measure 49
1000
0010
1000
0010
0001
0010
0001
0000
,  // measure 50
1000
1100
0000
0001
0101
0000
0001
1002
,  // measure 51
0000
0100
0100
0103
,  // measure 52
0001
0100
1000
0100
0001
0100
1000
0000
,  // measure 53
1000
0010
0001
0010
1000
0010
0001
0000
,  // measure 54
1000
0010
0100
0000
0001
0100
0010
0000
,  // measure 55
1000
0010
0100
0001
1000
0010
0100
0000
,  // measure 56
0001
0010
0100
0000
1000
0000
1001
0000
,  // measure 57
1000
0100
0010
0000
0001
0000
1001
0000
,  // measure 58
0100
1100
0000
0010
0011
0000
0001
2002
,  // measure 59
0000
0000
3003
0000
0000
0010
0110
0000
,  // measure 60
0001
0100
1000
0100
0001
0000
1000
0010
,  // measure 61
0001
0010
1000
0000
0001
1000
0010
0000
,  // measure 62
1001
0000
1000
0100
0000
1000
0001
0010
,  // measure 63
1000
0100
0010
0001
1000
0000
1001
0000
,  // measure 64
0001
0100
0010
1000
0010
0000
1001
0000
,  // measure 65
1000
0010
0100
0001
0100
0000
1001
0000
,  // measure 66
0100
1000
0100
1000
0000
0010
0001
0010
,  // measure 67
0000
0100
0010
0000
0220
0000
0330
0000
;

//---------------dance-single - ----------------
#NOTES:
     dance-single:
     :
     Medium:
     8:
     0.435677,0.477946,0.336448,0.151944,0.000000,281.000000,250.000000,31.000000,14.000000,0.000000,0.000000,0.435677,0.477946,0.336448,0.151944,0.000000,281.000000,250.000000,31.000000,14.000000,0.000000,0.000000:
0000
0000
0000
0000
,
0000
0000
0000
0000
,
0000
0000
0000
0000
,
0000
0000
0000
0000
,
0000
0000
0000
0000
,
0000
0000
0000
0000
,
0000
0000
0000
0000
,
2000
0000
3100
0100
,
0002
0000
0013
0010
,
1000
0100
0000
0001
0010
0000
0200
0020
,
0000
0000
0030
0310
,
0001
0100
1000
0000
0100
0000
1001
0000
,
1000
0010
0001
0000
0010
0000
1001
0000
,
0100
0010
1000
0001
,
0100
0000
0110
0000
0000
0010
0110
0000
,
0001
0000
0100
1000
0100
0000
0001
0000
,
1000
0010
1000
0100
,
0001
0000
0010
0001
0010
0000
0100
0000
,
0001
1000
0010
0110
,
0100
1000
0010
0010
,
1000
0001
0100
0100
,
0001
0100
1000
0000
0010
0000
1001
0000
,
0000
0110
0000
0000
1001
0000
0110
0000
,
1000
0010
0100
0001
,
0100
0010
0100
0000
0001
0000
1001
0000
,
0010
0100
0001
1000
,
0010
0100
0010
0000
1000
0000
1001
0000
,
0100
1000
0010
0001
,
0100
0010
0100
0000
0001
1000
0001
0000
,
0100
1000
0010
0001
,
2000
0000
0001
3001
,
0002
0000
1000
0000
,
0100
0000
0010
0000
,
0003
2000
0001
0000
,
0010
0000
0100
0000
,
3100
1000
0100
1000
,
0010
0001
0100
0000
0010
0000
1001
0000
,
1000
0010
0001
0010
,
0100
1000
0010
0000
0001
0000
1001
0000
,
0000
0000
1000
0000
,
0010
0000
0000
0000
0001
0100
0000
0000
,
0001
0100
1000
0000
1000
0000
1001
0000
,
1000
0010
0001
0000
0001
0000
1001
0000
,
0200
0020
0330
0110
,
0001
0100
1000
0000
0001
0000
1001
0000
,
1000
0010
0100
1001
,
1000
0010
0001
0000
0100
0000
1001
0000
,
0100
0010
1000
1001
,
0100
1000
0010
0000
0001
0000
0011
0000
,
0001
0100
0010
1100
,
1000
0001
0000
0001
1000
0000
1000
0002
,
0000
0000
1000
1003
,
0100
0000
1000
0000
0010
0100
0010
0000
,
0001
1000
0010
1001
,
0100
0000
0010
0000
0001
1000
0001
0000
,
0100
0010
1000
1100
,
1000
0010
0100
0101
,
0001
0010
1000
1010
,
1000
0010
0000
0010
0001
0000
0001
0020
,
0000
0100
0100
0130
,
0001
0100
1000
0000
0001
0000
1001
0000
,
1000
0010
0001
0000
1000
0000
1001
0000
,
0100
1000
0010
0001
,
0200
0010
1000
0310
,
0001
1000
0001
0000
1001
0000
0100
0000
,
0010
0100
0010
0000
1001
0000
0010
0000
,
1000
0000
0010
0100
0000
0001
1000
0001
,
0000
0010
0100
0000
2002
0000
3003
0000
;

//---------------dance-single - ----------------
#NOTES:
     dance-single:
     :
     Easy:
     5:
     0.246522,0.294121,0.108532,0.325595,0.000000,159.000000,149.000000,10.000000,30.000000,0.000000,0.000000,0.246522,0.294121,0.108532,0.325595,0.000000,159.000000,149.000000,10.000000,30.000000,0.000000,0.000000:
0000
0000
0000
0000
,
0000
0000
0000
0000
,
0000
0000
0000
0000
,
0000
0000
0000
0000
,
0000
0000
0000
0000
,
0000
0000
0000
0000
,
0000
0000
0000
0000
,
2000
0000
0100
3100
,
0002
0000
0100
0103
,
2000
0000
3002
0000
,
0200
0000
0000
0303
,
0100
1000
0010
0000
,
0010
0001
0100
0000
,
1000
0001
0100
0000
,
0020
0000
0200
0330
,
0001
0100
1000
0000
,
0010
0000
1001
0000
,
1000
0010
0001
0000
,
0100
0000
1001
0000
,
0100
1000
0010
0000
,
0010
0001
0100
0000
,
0020
0000
1000
0000
,
0100
0000
0001
0031
,
0001
0100
1000
0000
,
0010
0000
1001
0000
,
1000
0010
0001
0000
,
0100
0000
1001
0000
,
0200
1000
0310
0000
,
0020
0001
0130
0000
,
1000
0100
0010
0001
,
0200
0000
0020
0330
,
0002
0000
1000
0000
,
0100
0000
0013
0000
,
2000
0000
0001
0000
,
0010
0000
3100
0000
,
2000
0000
0100
0000
,
0010
0000
3001
0000
,
0002
0000
0010
0000
,
0100
0000
1003
0000
,
0200
0000
0010
0000
,
1000
0000
0310
0000
,
0020
0000
0001
0000
,
0100
0000
0031
0000
,
0100
0200
0000
0310
,
0001
0000
0100
1000
,
0010
0000
1001
0000
,
0010
0100
0001
0000
,
0100
0010
1000
0000
,
0020
0000
0100
0031
,
0200
0000
0010
1300
,
0002
0000
1000
0000
,
0200
0000
0000
0303
,
0100
1000
0010
0000
,
0001
0000
1001
0000
,
0010
0001
0100
0000
,
1000
0000
1001
0000
,
0200
1000
0010
0300
,
0020
0001
0100
0030
,
0001
0000
1000
0000
,
0220
0000
0000
0330
,
0100
1000
0010
0000
,
0001
0000
1001
0000
,
0010
0001
0100
0000
,
1000
0000
1001
0000
,
0200
0000
1000
0000
,
0010
0000
0301
0000
,
0010
0100
0010
0000
,
1000
0002
2000
3003
;

//---------------dance-single - ----------------
#NOTES:
     dance-single:
     :
     Beginner:
     2:
     0.103880,0.181791,0.021706,0.010853,0.000000,67.000000,65.000000,2.000000,1.000000,0.000000,0.000000,0.103880,0.181791,0.021706,0.010853,0.000000,67.000000,65.000000,2.000000,1.000000,0.000000,0.000000:
0000
0000
0000
0000
,
0000
0000
0000
0000
,
0000
0000
0000
0000
,
0000
0000
0000
0000
,
0000
0000
0000
0000
,
0000
0000
0000
0000
,
0000
0000
0000
0000
,
1000
0000
0000
0000
,
0001
0000
0000
0000
,
0100
0000
0000
0000
,
0010
0000
0000
0000
,
1000
0000
0000
0000
,
0100
0000
0000
0000
,
0010
0000
0000
0000
,
0001
0000
0000
0000
,
1000
0000
0000
0000
,
0001
0000
0000
0000
,
0100
0000
0000
0000
,
0010
0000
0000
0000
,
0001
0000
0000
0000
,
1000
0000
0000
0000
,
0010
0000
0000
0000
,
0100
0000
0000
0000
,
1000
0000
0000
0000
,
1000
0000
0000
0000
,
0010
0000
0000
0000
,
0100
0000
0000
0000
,
0001
0000
0000
0000
,
0001
0000
0000
0000
,
0100
0000
0000
0000
,
0010
0000
0000
0000
,
1000
0000
0000
0000
,
0100
0000
0000
0000
,
0010
0000
0000
0000
,
0001
0000
0000
0000
,
0001
0000
0000
0000
,
0010
0000
0000
0000
,
0100
0000
0000
0000
,
1000
0000
0000
0000
,
1001
0000
0000
0000
,
0100
0000
0000
0000
,
1001
0000
0000
0000
,
0010
0000
0000
0000
,
0200
0000
0300
0000
,
1000
0000
0100
0000
,
1000
0000
0000
0000
,
0001
0000
0000
0000
,
0001
0000
0000
0000
,
0001
0000
0010
0000
,
0001
0000
0000
0000
,
1000
0000
0000
0000
,
1000
0000
0000
0000
,
0100
0000
1000
0000
,
0100
0000
0000
0000
,
0010
0000
0000
0000
,
0010
0000
0000
0000
,
0010
0000
0001
0000
,
0010
0000
0000
0000
,
0100
0000
0000
0000
,
0100
0000
0000
0000
,
1000
0000
0000
0000
,
0100
0000
0000
0000
,
0010
0000
0000
0000
,
0001
0000
0000
0000
,
1000
0000
0000
0000
,
0010
0000
0000
0000
,
0100
0000
0000
0000
,
0001
0000
0000
0000
;
