#TITLE:サクラあっぱれーしょん (IIDX Edition);
#SUBTITLE:;
#ARTIST:Remixed by BEMANI Sound Team "TAG" feat. 柊木りお;
#TITLETRANSLIT:;
#SUBTITLETRANSLIT:;
#ARTISTTRANSLIT:;
#GENRE:Japanese Pops;
#CREDIT:;
#BANNER:;
#BACKGROUND:;
#LYRICSPATH:;
#CDTITLE:;
#MUSIC:Sakura apparition (IIDX Edition).ogg;
#OFFSET:-0.062000;
#SAMPLESTART:77.207741;
#SAMPLELENGTH:15.000000;
#SELECTABLE:YES;
#BPMS:0.000000=140.000000
;
#STOPS:
;
#BGCHANGES:;
#KEYSOUNDS:;
#ATTACKS:;

//---------------dance-single - ----------------
#NOTES:
     dance-single:
     :
     Beginner:
     2:
     0.109447,0.139486,0.008328,0.033310,0.000000,92.000000,91.000000,1.000000,4.000000,0.000000,0.000000,0.109447,0.139486,0.008328,0.033310,0.000000,92.000000,91.000000,1.000000,4.000000,0.000000,0.000000:
0000
0000
0000
0000
,
0000
0000
0000
0000
,
0000
0000
0000
0000
,
0000
0000
0000
0000
,
0000
0000
0000
0000
,
1000
0000
1000
0000
,
0100
0000
0000
0000
,
0001
0000
0001
0000
,
0010
0000
0000
0000
,
1000
0000
0100
0000
,
1000
0000
0100
0000
,
0001
0000
0000
0000
,
0001
0000
0000
0000
,
0001
0000
0010
0000
,
0001
0000
0010
0000
,
1000
0000
0000
0000
,
1000
0000
0000
0000
,
1000
0000
0100
0000
,
0010
0000
0000
0000
,
0001
0000
0010
0000
,
0100
0000
0000
0000
,
1000
0000
0010
0000
,
1000
0000
0010
0000
,
0001
0000
0000
0000
,
0001
0000
0000
0000
,
0001
0000
0100
0000
,
0001
0000
0100
0000
,
1000
0000
0000
0000
,
1000
0000
0000
0000
,
1000
0000
0100
0000
,
0010
0000
0000
0000
,
0001
0000
0010
0000
,
0100
0000
0000
0000
,
1000
0000
0001
0000
,
1000
0000
0000
0000
,
0001
0000
1000
0000
,
0001
0000
0000
0000
,
0001
0000
0100
0000
,
0010
0000
0000
0000
,
1000
0000
0010
0000
,
0100
0000
0000
0000
,
0010
0000
0100
0000
,
0010
0000
0000
0000
,
0100
0000
0010
0000
,
0100
0000
0000
0000
,
1000
0000
0100
0000
,
1000
0000
0100
0000
,
0010
0000
0000
0000
,
0010
0000
0000
0000
,
0001
0000
0010
0000
,
0001
0000
0010
0000
,
0100
0000
0000
0000
,
0100
0000
0000
0000
,
1000
0000
0100
0000
,
0010
0000
0100
0000
,
1000
0000
0000
0000
,
0001
0000
0000
0000
,
0001
0000
0010
0000
,
0100
0000
0010
0000
,
0001
0000
0000
0000
,
1000
0000
0000
0000
,
0200
0000
0300
0000
,
0200
0000
0300
0000
,
0010
0000
1000
0000
,
0100
0000
0000
0000
,
0001
0000
0000
0000
,
2002
0000
0000
0000
,
3003
0000
0000
0000
;

//---------------dance-single - ----------------
#NOTES:
     dance-single:
     :
     Easy:
     5:
     0.251015,0.306868,0.066620,0.224843,0.000000,211.000000,203.000000,8.000000,27.000000,0.000000,0.000000,0.251015,0.306868,0.066620,0.224843,0.000000,211.000000,203.000000,8.000000,27.000000,0.000000,0.000000:
0000
0000
0000
0000
,
0000
0000
0000
0000
,
0000
0000
0000
0000
,
0000
0000
0000
0000
,
0000
0000
0000
0000
,
1000
0100
1000
0000
,
0001
0100
0001
0000
,
1000
0010
1000
0000
,
0001
0010
0001
0000
,
1000
0000
0100
0000
,
0010
0010
0010
0000
,
0001
0000
0010
0000
,
0100
0100
0100
0000
,
1000
0001
0100
0000
,
0001
1000
0010
0000
,
1000
0100
0010
0001
,
0100
0010
0220
0330
,
0001
0100
0001
0000
,
1000
0100
1000
0000
,
0001
0010
0001
0000
,
1000
0010
1000
0000
,
0002
0000
0100
0103
,
2000
0000
0100
3100
,
0002
0000
0010
0013
,
2000
0000
0010
3010
,
0100
1000
0010
0010
,
0100
0001
0020
0030
,
0001
0100
0010
0010
,
0100
1000
0020
0030
,
0100
1000
0001
0000
,
0010
0001
1000
0000
,
0100
1000
0010
0100
,
0002
0000
1003
0000
,
0100
1000
0001
0000
,
0010
0001
1000
0000
,
0100
1000
0010
0001
,
0200
0010
0020
0330
,
0001
0100
0010
0000
,
1000
0010
0100
0000
,
0001
0100
1000
0000
,
1000
0010
0001
1000
,
0020
0100
0200
0330
,
0002
1000
2000
3003
,
0100
1000
0010
0001
,
0210
0010
0010
0310
,
0001
0100
1000
0010
,
1000
0010
0001
0100
,
0001
0100
0001
0010
,
1000
0010
1000
0100
,
0001
0001
1000
1000
,
0010
0100
0010
0110
,
2000
0100
0100
3010
,
0001
0100
0220
0330
,
0001
0100
1000
0010
,
1000
0010
0001
0100
,
0001
0100
1000
1000
,
0010
0100
0001
1001
,
0100
0100
1000
1000
,
0010
0010
0001
0001
,
0100
1000
0010
0001
,
0210
0010
0020
0330
,
0002
0000
0103
0000
,
2000
0000
3100
0000
,
1000
0100
0010
0001
,
0100
0010
1000
0001
,
0210
0010
0020
0330
,
2002
0000
0000
0000
,
3003
0000
0000
0000
;

//---------------dance-single - ----------------
#NOTES:
     dance-single:
     :
     Medium:
     8:
     0.353324,0.418457,0.183205,0.233170,0.000000,297.000000,275.000000,22.000000,28.000000,0.000000,0.000000,0.353324,0.418457,0.183205,0.233170,0.000000,297.000000,275.000000,22.000000,28.000000,0.000000,0.000000:
// measure 0
0000
0000
0000
0000
,  // measure 1
0000
0000
0000
0000
,  // measure 2
0000
0000
0000
0000
,  // measure 3
0000
0000
0000
0000
,  // measure 4
0000
0000
0000
0000
,  // measure 5
1000
0100
0010
0110
,  // measure 6
0001
0010
0100
0110
,  // measure 7
0001
0100
1000
1001
,  // measure 8
2000
0001
0002
3003
,  // measure 9
1000
0000
0100
0000
0010
0010
0010
0000
,  // measure 10
0001
0000
0010
0000
0100
0100
0100
0000
,  // measure 11
1000
0100
0010
0001
,  // measure 12
0001
0100
0010
1000
,  // measure 13
0001
0001
0001
0000
0100
0000
0010
0000
,  // measure 14
1000
1000
1000
0000
0010
0000
0100
0000
,  // measure 15
0001
1000
0010
0100
,  // measure 16
0002
1000
2000
3003
,  // measure 17
1000
1000
1000
0000
0100
0000
0010
0000
,  // measure 18
0001
0001
0001
0000
0010
0000
0100
0000
,  // measure 19
1000
1000
1000
0000
0010
0000
0100
0000
,  // measure 20
0001
0001
0001
0000
0100
0000
0010
0000
,  // measure 21
2000
0100
0000
3100
,  // measure 22
0002
0100
0000
0103
,  // measure 23
2000
0010
0000
3010
,  // measure 24
0002
0010
0000
0013
,  // measure 25
1000
0010
0100
0000
0001
0000
0101
0000
,  // measure 26
0001
0100
0010
0000
1000
0000
1100
0000
,  // measure 27
1000
0010
0100
0000
0001
0100
0010
0000
,  // measure 28
1000
0001
1000
0001
1000
0000
1001
0000
,  // measure 29
0200
1000
0010
1300
,  // measure 30
0010
0100
0010
0110
,  // measure 31
0020
0001
0100
0031
,  // measure 32
2002
0000
3003
1001
,  // measure 33
0100
1000
0010
0000
0001
0000
0100
0000
,  // measure 34
0010
0001
0100
0000
1000
0000
0110
0000
,  // measure 35
0001
0100
1000
0010
,  // measure 36
1000
0010
0001
0100
,  // measure 37
2001
0001
0100
3100
,  // measure 38
0010
0100
0010
0000
0100
0010
0100
0000
,  // measure 39
1002
1000
0010
0013
,  // measure 40
0220
0000
0330
0110
,  // measure 41
0001
0100
1000
0000
0010
0000
0110
0000
,  // measure 42
1000
0010
0001
0000
0100
0000
0110
0000
,  // measure 43
0001
0100
0001
0000
1000
0010
1000
0000
,  // measure 44
0020
0100
0100
0130
,  // measure 45
0001
0100
1000
0000
0010
0000
1010
0000
,  // measure 46
1000
0010
0001
0000
0100
0000
0101
0000
,  // measure 47
0001
0100
0010
0000
1000
0010
0100
0000
,  // measure 48
0002
1000
1000
1003
,  // measure 49
1000
1000
1000
0000
0001
0001
0001
0000
,  // measure 50
0100
0100
0100
0000
0010
0010
0010
0000
,  // measure 51
0001
0100
0010
0000
1000
0000
1010
0000
,  // measure 52
1000
0010
0100
0000
0001
0000
0011
0000
,  // measure 53
0002
1000
0100
0013
,  // measure 54
0100
0001
1000
0000
0010
1000
0001
0000
,  // measure 55
2000
0001
0010
3100
,  // measure 56
0001
0100
0010
0000
1000
0010
0100
0000
,  // measure 57
0001
0001
0001
0000
0100
0010
0100
0000
,  // measure 58
1000
1000
1000
0000
0010
0100
0010
0000
,  // measure 59
1000
0001
0100
0000
0001
1000
0010
0000
,  // measure 60
0200
0010
1000
0301
,  // measure 61
0020
0000
1030
0000
,  // measure 62
0200
0001
0002
0303
,  // measure 63
0001
0100
1000
0000
1000
0010
0001
0000
,  // measure 64
0100
0010
0100
0000
0001
1000
0001
0000
,  // measure 65
0220
0000
0000
0330
,  // measure 66
2002
0000
0000
0000
,  // measure 67
3003
0000
0000
0000
;

//---------------dance-single - ----------------
#NOTES:
     dance-single:
     :
     Hard:
     12:
     0.535340,0.613737,0.299790,0.141568,0.174878,450.000000,414.000000,36.000000,17.000000,0.000000,0.000000,0.535340,0.613737,0.299790,0.141568,0.174878,450.000000,414.000000,36.000000,17.000000,0.000000,0.000000:
0000
0000
0000
0000
,
0000
0000
0000
0000
,
0000
0000
0000
0000
,
0000
0000
0000
0000
,
0000
0000
0000
0000
,
1000
0000
0110
0000
0001
0010
0001
0000
,
0001
0000
0110
0000
1000
0100
1000
0000
,
0010
0000
0110
0000
1000
0001
1000
0000
,
0100
0010
0100
0010
0100
0000
0110
0000
,
0001
0010
0100
0000
1000
0100
0010
0000
,
0001
0100
1000
0100
0001
0010
0100
0000
,
0010
1000
0010
1000
0001
1000
0001
1000
,
0001
0100
0001
0100
0010
0100
0010
0000
,
0001
0100
1000
0100
0001
0100
1000
0000
,
1000
0010
0001
0010
1000
0010
0001
0000
,
1000
0010
0100
0000
0001
0100
0010
0000
,
0001
1000
0001
1000
2002
0000
3003
0000
,
0100
0000
1000
0000
0010
0000
0000
0010
0000
0010
0000
0000
0001
0000
0100
0000
,
0010
0000
1000
0000
0001
0000
0100
0000
0010
0100
0010
0000
0110
0000
0000
0000
,
0100
0000
0001
0000
0010
0000
0000
0010
0000
0010
0000
0000
1000
0000
0001
0000
,
0100
0000
0010
0000
1000
0000
0001
0000
1000
0001
1000
0000
1001
0000
0000
0000
,
0200
0000
1000
0000
0010
0010
0310
0000
,
0020
0000
0001
0000
0100
0100
0130
0000
,
0001
0100
1000
0010
0001
1000
0001
0100
,
0100
0110
0000
0010
0010
0110
0000
0001
,
0100
1000
0010
0100
0001
1000
0010
0100
,
0001
0010
0100
1000
0010
0100
1001
0000
,
1000
0100
0010
0001
0010
0100
1000
0010
,
0100
0001
1000
0010
0110
0000
1001
0000
,
0100
0000
0000
0100
0000
0000
0100
0000
0000
0000
0001
0000
1000
0000
0010
0000
,
0100
0001
1000
0001
1001
0000
0010
0100
,
0010
0000
0000
0010
0000
0000
0010
0000
0000
0000
0001
0000
1000
0000
0001
0000
,
2001
0000
0100
0000
0010
0010
3010
0000
,
0001
0000
0100
0000
0001
0000
0100
0001
0000
0000
1000
0000
0100
0000
0010
0000
,
1000
0000
0010
0000
1000
0000
0010
1000
0000
0000
0001
0000
0100
0000
1000
0000
,
0010
0100
0000
0010
0000
0100
0000
0000
0001
1000
0000
0001
0000
1000
0000
0000
,
0001
1000
0100
0010
0001
0100
0110
0000
,
0001
0000
0000
0001
0000
0000
0001
0000
0000
0000
0100
0000
0010
0000
1000
0000
,
0001
0010
0100
1000
0010
0100
0110
0000
,
1000
0000
0000
1000
0000
0000
1000
0000
0000
0000
0010
0000
0100
0000
0001
0000
,
0210
0000
0001
0000
1000
1000
1300
0000
,
0001
0000
0100
0000
1000
0000
0010
0100
0000
0000
1000
0000
0010
0000
0100
0000
,
1000
0000
0010
0000
0001
0000
0100
0010
0000
0000
0001
0000
0100
0000
0010
0000
,
1000
0010
0000
1000
0000
0010
0000
0000
0001
0100
0000
0001
0000
0100
0000
0000
,
0010
0100
0001
1000
0010
0100
0110
0000
,
0201
0000
0000
0000
1000
0000
0000
0000
0301
0000
0000
1000
0000
0000
0010
0000
,
1000
0010
0100
0001
0100
0010
0110
0000
,
0120
0000
0000
0000
0001
0000
0000
0000
0130
0000
0000
0001
0000
0000
0100
0000
,
0001
0000
0100
0000
1000
0000
0010
0100
0000
0000
0001
0000
1001
0000
0000
0000
,
0010
0000
0100
0010
0100
0000
0001
1000
0001
0000
0100
0000
0110
0000
0000
0000
,
0001
0000
1000
0001
1000
0000
0010
0100
0010
0000
1000
0000
1001
0000
0000
0000
,
0100
1000
0100
0010
0001
0100
0010
1000
,
0002
1000
1003
0000
2000
0001
3001
0000
,
0110
0000
1100
0000
0101
0000
0010
0100
,
0001
0000
1000
0000
0010
0000
1000
0001
1000
0000
0010
0000
1000
0000
0100
0000
,
0110
0000
1010
0000
0011
0000
0010
0100
,
0001
0000
1000
0000
0010
0000
1000
0001
1000
0000
0010
0000
1000
0000
0100
0000
,
0001
0100
0001
0100
0001
0000
0100
0000
0010
0000
1000
0000
0100
0000
0000
0000
,
1000
0010
1000
0010
1000
0000
0010
0000
0100
0000
0001
0000
0010
0000
0000
0000
,
0001
1000
0001
1000
0010
0100
0010
0100
,
0001
0010
0100
1000
2001
0000
3001
0000
,
0201
0000
0000
1000
2000
0000
3300
0000
,
1020
0000
0000
0001
0000
0000
0001
0000
0002
0000
0000
0000
0033
0000
0000
0000
,
0001
0100
1000
0010
0100
0010
0001
0100
,
0010
0100
0001
1000
0010
1000
0100
0001
,
0110
0000
0000
0000
1001
0000
0000
0000
0110
0000
0000
0000
0010
0100
0010
0200
,
0020
0000
0000
0000
,
0330
0000
0000
0000
;
