#TITLE:SYSTEMATIC LOVE;
#SUBTITLE:;
#ARTIST:かめりあ feat.初音ミク;
#TITLETRANSLIT:;
#SUBTITLETRANSLIT:;
#ARTISTTRANSLIT:Camellia feat.Hatsune Miku;
#GENRE:Vocaloid;
#CREDIT:;
#BANNER:;
#BACKGROUND:;
#LYRICSPATH:;
#CDTITLE:;
#MUSIC:SYSTEMATIC LOVE.ogg;
#OFFSET:1.470000;
#SAMPLESTART:14.404968;
#SAMPLELENGTH:15.000000;
#LASTBEATHINT:0.864967;
#SELECTABLE:YES;
#DISPLAYBPM:136.000000;
#BPMS:0.000000=136.000000
;
#STOPS:
;
#BGCHANGES:;
#KEYSOUNDS:;
#ATTACKS:;

//---------------dance-single - ----------------
#NOTES:
     dance-single:
     :
     Hard:
     13:
     0.509180,0.511922,0.162012,0.126792,0.239496,506.000000,483.000000,23.000000,18.000000,0.000000,0.000000,0.509180,0.511922,0.162012,0.126792,0.239496,506.000000,483.000000,23.000000,18.000000,0.000000,0.000000:
0000
0000
0000
0000
,
0000
0000
0000
0000
,
0000
0000
0000
0000
,
0000
0000
0000
0000
,
0000
0000
0000
0000
,
1001
0000
0000
0000
0001
0000
0010
0000
0100
0000
0000
1000
0000
0000
0100
0000
,
0010
0100
0010
0100
0001
1000
0001
1000
,
0010
0100
1000
0100
0010
0001
0010
0100
,
0200
0000
0000
0000
0000
0000
0000
0000
0000
0010
0000
0000
0010
0000
0310
0000
,
0001
0000
0100
0000
1000
0000
0100
0000
0001
0000
0000
0001
0000
0000
0001
0000
,
1000
0100
0010
0001
0010
0100
1000
0010
,
0100
0000
0000
0000
0100
0000
0000
0000
1000
0000
0000
0001
0000
0000
0010
0000
,
0000
0000
0100
0000
1000
0000
0010
0100
0000
0000
0010
0000
0100
0000
0001
0000
,
1001
0000
0000
0000
0010
0000
1000
0000
0100
0000
0000
0001
0000
0000
0010
0000
,
0100
1000
0010
0100
0001
0010
0100
1000
,
0200
2300
3002
0023
,
1030
0000
0001
0000
1000
0001
0000
1000
0000
0000
0100
0000
0010
0000
0100
0000
,
0110
0000
0000
0000
0010
0000
0100
0000
1000
0000
0000
1000
0000
0000
1000
0000
,
0000
0000
0001
0000
1000
0000
0010
0100
0010
0000
1000
0000
0001
0000
0010
0000
,
1000
0000
0000
1000
0001
0000
0000
0001
1000
0000
0010
0000
0100
0000
0001
0000
,
1000
0000
0010
0000
0001
1000
0000
0001
0000
0000
0010
0000
0100
0000
0001
0000
,
1001
0000
0000
0000
0100
0000
1000
0000
0010
0000
0000
0001
0000
0000
0011
0000
,
0000
0001
0100
0010
1000
0100
0010
0001
,
0100
0000
0000
0000
1100
0000
0000
0000
0101
0000
0000
1001
0000
0000
0110
0000
,
0000
0000
0001
0000
0100
0010
0000
1000
0000
0010
0000
0100
0000
0000
0001
0000
,
0010
0000
0000
0100
0000
0000
1000
0000
0000
0010
0000
0000
0200
0000
0000
0000
,
0000
0010
0000
0010
,
0300
0000
0000
0001
0000
0000
0010
0000
0000
0100
0000
0000
2000
0000
0000
0000
,
0000
0100
0000
3100
,
0100
0000
0000
0010
0000
0000
0001
0000
0000
0100
0000
0000
0020
0000
0000
0000
,
0000
0100
0100
0130
,
0100
0010
0100
0010
0100
0010
0100
0010
,
0001
0010
0100
1000
0100
0010
0001
1001
,
0001
0000
0000
0100
0000
0000
1000
0000
0000
0100
0000
0000
0001
0000
0010
0000
,
0100
0000
1000
0000
0010
0000
0000
0000
0001
0100
0000
0010
0000
0000
1000
0000
,
0100
0010
0000
0001
0000
0010
0000
0100
,
1000
0000
0100
0000
0000
0010
0000
0000
0001
0000
0000
1000
0000
0000
1001
0000
,
0001
0000
0000
0100
0000
0000
1000
0000
0000
0010
0000
0000
0100
0000
0001
0000
,
1000
0000
0010
0000
0100
0000
0001
0000
1000
0010
0000
0100
0000
0000
0001
0000
,
0010
0100
1000
0000
0001
1000
0100
0001
,
0020
0000
0000
2030
0000
0000
3002
0000
2003
0000
0000
0000
0001
0000
3001
0000
,
1000
0000
0000
0010
0000
0000
0001
0000
0000
0010
0000
0000
1000
0000
0100
0000
,
0010
0000
0001
0000
0100
0000
0000
0000
1000
0010
0000
0100
0000
0000
0001
0000
,
0010
0100
0000
1000
0000
0100
0000
0010
,
0001
0000
0010
0000
0000
0100
0000
0000
1000
0000
0000
0001
0000
0000
1001
0000
,
1000
0000
0000
0010
0000
0000
0001
0000
0000
0010
0000
0000
1000
0000
0001
0000
,
1000
0100
1000
0010
1000
0100
1000
0010
,
0001
0010
0001
0010
1000
0100
1000
0100
,
2002
0000
0000
0000
3003
0000
0000
0000
0010
0100
0000
0000
0001
0000
1000
0000
,
1000
0000
0010
0000
0001
0000
0010
0000
1000
0000
0000
1000
0000
0000
1000
0000
,
0001
0010
0100
1000
0100
0010
0001
0100
,
0010
0000
0000
0000
0010
0000
0000
0000
0001
0000
0000
1000
0000
0000
0100
0000
,
0000
0000
0010
0000
0001
0000
0100
0010
0000
0000
0100
0000
0010
0000
1000
0000
,
1001
0000
0000
0000
0100
0000
0001
0000
0010
0000
0000
1000
0000
0000
0100
0000
,
0010
0001
0100
0010
1000
0100
0010
0001
,
0020
0032
2003
3200
,
0301
0000
1000
0000
0001
1000
0000
0001
0000
0000
0010
0000
0100
0000
0010
0000
,
0110
0000
0000
0000
0100
0000
0010
0000
0001
0000
0000
0001
0000
0000
0001
0000
,
0000
0000
1000
0000
0001
0000
0100
0010
0100
0000
0001
0000
1000
0000
0100
0000
,
0001
0000
0000
0001
1000
0000
0000
1000
0001
0000
0100
0000
0010
0000
1000
0000
,
0001
0000
0100
0000
1000
0001
0000
1000
0000
0000
0100
0000
0010
0000
1000
0000
,
1001
0000
0000
0000
0010
0000
0001
0000
0100
0000
0000
1000
0000
0000
1100
0000
,
0000
1000
0010
0100
0001
0010
0100
1000
,
0010
0000
0000
0000
0011
0000
0000
0000
1010
0000
0000
1001
0000
0000
0110
0000
,
0000
0000
1000
0000
0010
0100
0000
0001
0000
0100
0000
0010
0000
0000
1000
0000
,
0100
0000
0010
0000
1000
0000
0100
0000
0010
0000
0000
0001
0000
0000
0010
0000
,
0100
0000
1000
0000
0010
0000
0100
0000
0001
0000
1000
0010
0000
0000
0100
0000
,
0001
0010
0100
0000
1000
0100
0010
0000
,
0001
1000
0010
0100
0010
1000
0001
0100
,
0010
0000
0100
0000
0010
0000
0001
0000
1000
0000
0000
0100
0000
0000
0010
0000
,
0001
0000
0100
0000
0010
0000
1000
0000
0001
0000
1000
0001
0000
0000
0010
0000
,
1000
0100
0010
0001
0010
0100
1000
0010
,
0100
0001
0010
0100
1000
0010
0100
0001
,
1001
0000
0100
0000
1000
0000
0100
0010
,
0001
0000
0010
0000
0001
0000
0010
0100
,
1000
0000
0100
0000
1000
0000
0100
0010
,
0001
0000
0010
0000
0100
0010
0100
0010
,
0001
0000
1000
0000
0010
0000
1000
0001
,
0100
0000
0010
0000
0100
0000
0001
1000
,
0010
0000
0100
0000
0001
1000
0010
0100
,
0001
0000
1000
0000
0001
1000
1001
0000
;

//---------------dance-single - ----------------
#NOTES:
     dance-single:
     :
     Medium:
     10:
     0.437734,0.455042,0.253584,0.077484,0.063396,435.000000,399.000000,36.000000,11.000000,0.000000,0.000000,0.437734,0.455042,0.253584,0.077484,0.063396,435.000000,399.000000,36.000000,11.000000,0.000000,0.000000:
0000
0000
0000
0000
,
0000
0000
0000
0000
,
0000
0000
0000
0000
,
0000
0000
0000
0000
,
0000
0000
0000
0000
,
1001
0000
0010
0100
0010
0000
0010
0000
,
0001
1000
0001
1000
0001
0000
1001
0000
,
0100
1000
0100
0000
0010
0001
0010
0000
,
0220
0000
0000
0330
,
0001
0000
0100
0000
0001
0000
0000
0000
1000
0000
0000
1000
0000
0000
1000
0000
,
0010
0100
0010
0000
1000
0001
1000
0000
,
0001
0010
0100
0000
1000
0000
1010
0000
,
1000
0100
0010
0000
0001
0000
0101
0000
,
0011
0000
0000
0000
0001
0000
1000
0000
0001
0000
0000
0001
0000
0000
0001
0000
,
1000
0100
0010
0001
0010
0000
1001
0000
,
0001
0010
0100
0000
0010
0100
1000
0000
,
0100
0010
1000
0001
1000
0000
1001
0000
,
0010
0000
0000
0000
0001
0000
1000
0000
0001
0000
0000
0001
0000
0000
0001
0000
,
0010
0100
0010
0000
1000
0001
1000
0000
,
1000
0100
1000
0000
0001
0010
0001
0000
,
0100
0010
1000
0001
1000
0000
1001
0000
,
0010
0000
0100
0000
0010
0000
0000
0000
1000
0000
0000
1000
0000
0000
1000
0000
,
0010
0100
0010
0000
1000
0001
1000
0000
,
0001
0010
0100
0000
1000
0100
0010
0000
,
0001
1000
0001
0000
1001
0000
0110
0000
,
0001
0000
0000
0010
0000
0000
0100
0000
0000
0010
0000
0000
0002
0000
0000
0000
,
0000
0000
0000
0003
,
0000
0000
0000
1000
0000
0000
0100
0000
0000
0010
0000
0000
0200
0000
0000
0000
,
0000
0000
0000
0000
0000
0000
0000
0000
0000
0000
0000
0300
0000
0000
0000
0000
,
1000
0000
0000
0100
0000
0000
0010
0000
0000
0100
0000
0000
2000
0000
0000
0000
,
0000
0001
0001
0001
,
0001
0001
0001
3001
,
0001
1000
0001
0000
1000
0001
1001
0000
,
0100
0000
1000
0000
0010
0000
0001
0001
,
0001
0000
0010
0000
0100
0000
1000
1000
,
1000
0010
0100
0000
0010
0100
0001
0000
,
0100
1000
0001
0000
0010
0000
1001
0000
,
0100
0000
0010
0000
0001
0000
0100
0100
,
0100
0000
0010
0000
0001
0000
0010
0010
,
0010
0000
1000
0000
0100
0000
0001
0001
,
0010
0000
0000
0100
0000
0000
1000
0000
0100
0000
0000
0000
1001
0000
0000
0000
,
0100
0000
1000
0000
0010
0000
0001
0001
,
0010
0000
0100
0000
0001
0000
1000
1000
,
0100
0000
0010
0000
0100
0000
1000
1000
,
0001
0000
0010
0000
0100
0010
0110
0000
,
0001
0000
0010
0000
0100
0000
1000
1000
,
0001
0000
0010
0000
0100
0000
0001
0001
,
1000
0000
0010
0100
0010
0000
1001
0000
,
0220
0000
0000
0000
0330
0000
0000
0000
0000
0100
0000
0000
0010
0000
0100
0000
,
1000
0000
0010
0000
1000
0000
0000
0000
0001
0000
0000
0001
0000
0000
0001
0000
,
0100
0010
0100
0000
0001
1000
0001
0000
,
1000
0100
0010
0000
0001
0000
0101
0000
,
0001
0010
0100
0000
1000
0000
1010
0000
,
1100
0000
0000
0000
1000
0000
0001
0000
1000
0000
0000
1000
0000
0000
1000
0000
,
0001
0010
0100
1000
0100
0000
1001
0000
,
1000
0100
0010
0000
0100
0010
0001
0000
,
0010
0100
0001
1000
0001
0000
1001
0000
,
0100
0000
0000
0000
1000
0000
0001
0000
1000
0000
0000
1000
0000
0000
1000
0000
,
0100
0010
0100
0000
0001
1000
0001
0000
,
0001
0010
0001
0000
1000
0100
1000
0000
,
0010
0100
0001
1000
0001
0000
1001
0000
,
0100
0000
0010
0000
0100
0000
0000
0000
0001
0000
0000
0001
0000
0000
0001
0000
,
0100
0010
0100
0000
0001
1000
0001
0000
,
1000
0100
0010
0000
0001
0010
0100
0000
,
1000
0001
1000
0000
1001
0000
0110
0000
,
0001
0000
0000
0000
0100
0000
1000
0000
0010
0000
0000
0010
0000
0000
0001
0000
,
0100
0010
1000
0100
0001
0000
1001
0000
,
0100
0010
0001
0000
0010
0100
1000
0000
,
0100
0010
1000
0001
1000
0000
1001
0000
,
0010
0000
0000
0000
0001
0000
0010
0000
0100
0000
0000
0100
0000
0000
0100
0000
,
1000
0100
0010
0100
0001
1000
0010
0000
,
1001
0000
0110
0000
0001
0100
0010
0000
,
1000
0010
0100
0000
0001
0100
1000
0000
,
0210
0010
0010
0310
,
0001
1000
0001
1000
0001
0000
1001
0000
,
0120
0100
0100
0130
,
1000
0001
1000
0001
0010
0000
1001
0000
,
0200
1000
1000
1300
,
0010
0001
0010
0001
0100
0000
1001
0000
,
0021
0001
0001
0031
,
0100
1000
0100
1000
0010
0000
1001
0000
;

//---------------dance-single - ----------------
#NOTES:
     dance-single:
     :
     Easy:
     7:
     0.312954,0.398162,0.204276,0.084528,0.000000,311.000000,282.000000,29.000000,12.000000,0.000000,0.000000,0.312954,0.398162,0.204276,0.084528,0.000000,311.000000,282.000000,29.000000,12.000000,0.000000,0.000000:
0000
0000
0000
0000
,
0000
0000
0000
0000
,
0000
0000
0000
0000
,
0000
0000
0000
0000
,
0000
0000
0000
0000
,
1001
0010
0100
0010
,
1001
0100
0010
0100
,
0001
0010
0100
1000
,
2002
0000
0000
3003
,
0100
1000
0010
0010
,
0001
0100
0010
0010
,
1000
0100
0001
0010
,
0001
0010
1000
0100
,
0010
1000
0001
0001
,
0010
0100
1000
1000
,
0100
0010
1000
0001
,
0100
0010
1000
1001
,
0100
1000
0010
0010
,
0001
0010
0100
0100
,
1000
0100
0001
0010
,
0001
0010
1000
0100
,
1001
0010
0100
0010
,
1001
0100
0010
0100
,
0001
0010
0100
1000
,
2002
0000
0000
3003
,
0001
0000
0000
0010
0000
0000
0200
0000
,
0000
0000
0000
0000
,
0300
0000
0000
1000
0000
0000
0002
0000
,
0000
0000
0000
0003
,
0001
0000
0000
0100
0000
0000
0020
0000
,
0000
0100
0000
0100
,
0000
0100
0000
0130
,
0100
0100
0100
0110
,
1000
0000
0100
0000
0010
0000
0001
0001
,
0001
0010
0100
1000
,
0001
0000
0010
0000
0100
0000
1000
1000
,
1000
0100
0010
1001
,
0100
0000
1000
0000
0001
0000
0010
0010
,
0010
0001
1000
0100
,
1001
0010
0001
1000
,
1001
0100
1000
1001
,
0110
0000
1000
0000
0100
0000
0010
0010
,
0010
0001
0010
0100
,
1000
0000
0001
0000
0010
0000
0100
0100
,
0100
1000
0100
0001
,
0010
0000
1000
0000
0001
0000
0010
0010
,
0010
0001
0100
0010
,
1000
0000
0001
0000
0100
0000
0100
0100
,
0200
0000
0010
0310
,
0110
0000
0010
0010
0010
0000
1001
0000
,
0100
0001
0010
1000
,
0100
0100
0010
0010
,
0001
1000
0001
1001
,
0100
0000
1000
1000
1000
0000
0010
0000
,
0100
0001
0010
0100
,
1000
0010
0100
0001
,
1001
0010
1001
0100
,
1001
0000
0100
0100
0100
0000
1001
0000
,
0010
1000
0100
0001
,
0010
0010
0100
0100
,
1000
0001
1000
1001
,
0010
0000
0001
0001
0001
0000
0100
0000
,
0010
1000
0100
0010
,
0001
0100
0010
1000
,
1001
0100
1001
0010
,
1001
0000
0100
1000
0100
0000
1000
0000
,
0010
0100
0001
0010
,
1000
1000
0001
0001
,
0100
0010
0100
0010
,
1001
0000
0001
0010
0001
0000
0100
0000
,
0010
1000
0100
0001
,
0010
0100
1000
0100
,
0010
0001
0010
0100
,
2001
0001
0000
0001
,
0000
0001
0000
3001
,
1002
1000
0000
1000
,
0000
1000
0000
1003
,
0210
0010
0000
0010
,
0000
0010
0000
0310
,
0120
0100
0000
0100
,
0000
0100
0000
0130
;

//---------------dance-single - ----------------
#NOTES:
     dance-single:
     :
     Beginner:
     4:
     0.145911,0.169056,0.035220,0.049308,0.000000,145.000000,140.000000,5.000000,7.000000,0.000000,0.000000,0.145911,0.169056,0.035220,0.049308,0.000000,145.000000,140.000000,5.000000,7.000000,0.000000,0.000000:
// measure 0
0000
0000
0000
0000
,  // measure 1
0000
0000
0000
0000
,  // measure 2
0000
0000
0000
0000
,  // measure 3
0000
0000
0000
0000
,  // measure 4
0000
0000
0000
0000
,  // measure 5
0001
0000
0001
0000
,  // measure 6
1000
0000
1000
0000
,  // measure 7
0010
0000
0010
0000
,  // measure 8
0200
0000
0300
0000
,  // measure 9
1000
0100
0100
0000
,  // measure 10
0001
0000
0001
0000
,  // measure 11
0010
0000
0010
0000
,  // measure 12
0100
0000
0100
0000
,  // measure 13
0001
0001
0010
0000
,  // measure 14
0010
0000
0010
0000
,  // measure 15
0100
0000
0100
0000
,  // measure 16
1000
0000
1000
0000
,  // measure 17
0100
0100
0010
0000
,  // measure 18
0010
0000
0010
0000
,  // measure 19
1000
0000
1000
0000
,  // measure 20
0001
0000
0001
0000
,  // measure 21
0010
0010
0100
0000
,  // measure 22
0100
0000
0100
0000
,  // measure 23
1000
0000
1000
0000
,  // measure 24
0001
0000
0001
0000
,  // measure 25
2002
0000
0000
0000
,  // measure 26
3003
0000
0000
0000
,  // measure 27
0220
0000
0000
0330
,  // measure 28
0000
0000
0000
0000
,  // measure 29
2002
0000
0000
0000
,  // measure 30
3003
0000
0000
0000
,  // measure 31
1001
0000
0000
0000
,  // measure 32
1001
0000
0000
0000
,  // measure 33
0100
0000
0100
0000
,  // measure 34
1000
0000
1000
0000
,  // measure 35
0010
0000
0010
0000
,  // measure 36
0001
0000
0001
0000
,  // measure 37
0100
0000
0100
0000
,  // measure 38
0001
0000
0001
0000
,  // measure 39
0010
0000
0010
0000
,  // measure 40
1000
0000
1000
0000
,  // measure 41
0100
0000
0100
0000
,  // measure 42
1000
0000
1000
0000
,  // measure 43
0010
0000
0010
0000
,  // measure 44
0001
0000
0001
0000
,  // measure 45
0100
0000
0100
0000
,  // measure 46
0010
0000
0010
0000
,  // measure 47
1000
0000
1000
0000
,  // measure 48
0001
0000
0001
0000
,  // measure 49
1000
1000
0001
0000
,  // measure 50
0100
0000
0100
0000
,  // measure 51
0010
0000
0010
0000
,  // measure 52
1000
0000
1000
0000
,  // measure 53
0001
0001
1000
0000
,  // measure 54
0100
0000
0100
0000
,  // measure 55
0010
0000
0010
0000
,  // measure 56
0001
0000
0001
0000
,  // measure 57
1000
1000
0100
0000
,  // measure 58
0010
0000
0010
0000
,  // measure 59
0001
0000
0001
0000
,  // measure 60
1000
0000
1000
0000
,  // measure 61
0001
0001
0010
0000
,  // measure 62
0100
0000
0100
0000
,  // measure 63
0010
0000
0010
0000
,  // measure 64
1000
0000
1000
0000
,  // measure 65
0100
0000
1000
0000
,  // measure 66
0100
0000
1000
0000
,  // measure 67
0010
0000
0001
0000
,  // measure 68
0010
0000
0001
0000
,  // measure 69
1000
0000
0001
0000
,  // measure 70
1000
0000
0001
0000
,  // measure 71
0100
0000
0010
0000
,  // measure 72
0100
0000
0010
0000
,  // measure 73
0100
0000
0000
0000
,  // measure 74
0100
0000
0000
0000
,  // measure 75
0010
0000
0000
0000
,  // measure 76
0010
0000
0000
0000
,  // measure 77
1000
0000
0000
0000
,  // measure 78
1000
0000
0000
0000
,  // measure 79
0001
0000
0000
0000
,  // measure 80
0001
0000
0000
0000
;
