#TITLE:SYNTH 1997;
#SUBTITLE:;
#ARTIST:e.o.s;
#TITLETRANSLIT:;
#SUBTITLETRANSLIT:;
#ARTISTTRANSLIT:;
#GENRE:KONAMI originals;
#CREDIT:;
#BANNER:;
#BACKGROUND:;
#LYRICSPATH:;
#CDTITLE:;
#MUSIC:SYNTH 1997.mp3;
#OFFSET:-0.320000;
#SAMPLESTART:3.060001;
#SAMPLELENGTH:15.000000;
#SELECTABLE:YES;
#BPMS:0.000000=130.000000
;
#STOPS:
;
#BGCHANGES:;
#KEYSOUNDS:;
#ATTACKS:;

//---------------dance-single - ----------------
#NOTES:
     dance-single:
     :
     Beginner:
     1:
     0.080162,0.079196,0.010202,0.000000,0.000000,54.000000,1.000000,0.000000,0.000000,0.000000,0.000000,0.080162,0.079196,0.010202,0.000000,0.000000,54.000000,1.000000,0.000000,0.000000,0.000000,0.000000:
0000
0000
0000
0000
,
0000
0000
0000
0000
,
0000
0000
0000
0000
,
0000
0000
0000
0000
,
0000
0000
0000
0000
,
0000
0000
0000
0000
,
1000
0000
0000
0000
,
0001
0000
0000
0000
,
1000
0000
0001
0000
,
0000
0000
0000
0000
,
0000
0000
0010
0000
,
0100
0000
0000
0000
,
0000
0000
0100
0000
,
0010
0000
0000
0000
,
0000
0000
0001
0000
,
0001
0000
0001
0000
,
0000
0000
1000
0000
,
1000
0000
0000
0000
,
0000
0000
0100
0000
,
1000
0000
0010
0000
,
0000
0000
0001
0000
,
0100
0000
0010
0000
,
0000
0000
0001
0000
,
0001
0000
0000
0000
,
1000
0000
1000
0000
,
0000
0000
0010
0000
,
0010
0000
0000
0000
,
1000
0000
0010
0000
,
0001
0000
0000
0000
,
0000
0000
0001
0000
,
0010
0000
0000
0000
,
0000
0000
1000
0000
,
0100
0000
1000
0000
,
0000
0000
0001
0000
,
0010
0000
0000
0000
,
0000
0000
1000
0000
,
0100
0000
0001
0000
,
0000
0000
0001
0000
,
0100
0000
1000
0000
,
0000
0000
1000
0000
,
0010
0000
0001
0000
,
0000
0000
0001
0000
,
0010
0000
1000
0000
,
0001
0000
0000
0000
,
0000
0000
0000
0000
,
1000
0000
0001
0000
,
0000
0000
0000
0000
,
1000
0000
0000
0000
,
0100
0000
0000
0000
,
0010
0000
0000
0000
,
0000
0000
0000
0000
,
0000
0000
0000
1001
;

//---------------dance-single - ----------------
#NOTES:
     dance-single:
     :
     Easy:
     5:
     0.170526,0.237589,0.091822,0.153036,0.000000,93.000000,9.000000,15.000000,0.000000,0.000000,0.000000,0.170526,0.237589,0.091822,0.153036,0.000000,93.000000,9.000000,15.000000,0.000000,0.000000,0.000000:
0000
0000
0000
0000
,
0000
0000
0000
0000
,
0000
0000
0000
0000
,
0000
0000
0000
0000
,
0000
0000
0000
0000
,
0000
0000
0000
0000
,
1000
0100
0001
0000
,
0001
0000
0001
0000
,
0001
0000
0001
0000
,
0000
0000
0000
0000
,
0001
0010
1000
1000
,
1000
0000
0000
0000
,
1000
0100
0001
0001
,
0001
0000
0000
0000
,
0001
0010
1000
1000
,
1000
0000
1000
0000
,
1000
0000
1000
0000
,
1000
0000
0000
0000
,
0000
0000
0200
0000
,
0310
0000
1001
0000
,
0000
0000
0020
0000
,
0130
0000
1001
0000
,
0000
0000
2000
0000
,
3100
0000
0020
0000
,
0031
0000
0100
0010
,
0100
0000
0001
1000
,
0001
0000
0000
0000
,
1000
0100
0010
0010
,
0010
0000
0000
0000
,
0001
0010
0100
0100
,
0100
0000
0000
0000
,
1000
0010
0001
1000
,
0001
0000
1000
0000
,
0001
0000
1000
0000
,
1001
0000
0000
0000
,
0000
0000
1000
0100
,
0010
0001
1001
0000
,
0000
0000
0001
0010
,
0100
1000
1001
0000
,
0000
0000
1000
0100
,
0010
0001
1002
0000
,
0203
0000
0320
0000
,
1000
0000
0100
0000
,
0031
0000
0000
0000
,
0000
0000
1000
0100
,
0011
0010
2200
0000
,
0000
0000
3300
0000
,
2000
0000
3200
0000
,
0320
0000
0032
0000
,
2003
0000
3020
0000
,
0000
0000
0000
0030
,
0000
0000
0000
0110
;

//---------------dance-single - ----------------
#NOTES:
     dance-single:
     :
     Medium:
     6:
     0.221538,0.237589,0.142834,0.193846,0.000000,119.000000,14.000000,19.000000,0.000000,0.000000,0.000000,0.221538,0.237589,0.142834,0.193846,0.000000,119.000000,14.000000,19.000000,0.000000,0.000000,0.000000:
0000
0000
0000
0000
,
0000
0000
0000
0000
,
0000
0000
0000
0000
,
0000
0000
0000
0000
,
0000
0000
0000
0000
,
0000
0000
0000
0000
,
1000
0100
0010
0000
,
0100
0000
1000
0000
,
0010
0000
0000
0001
0001
0000
0000
0000
,
0000
0000
0000
0000
,
1000
0100
0010
0000
0001
0000
0100
0000
,
1000
0000
0000
0000
,
0001
0010
0100
0000
1000
0000
0010
0000
,
0001
0000
0000
0000
,
0010
0100
0010
0000
1000
0000
0100
0000
,
0001
0000
0110
0000
,
1000
0000
1001
0000
,
0110
0000
0010
0000
,
0010
0000
1000
0100
,
0010
0001
0010
0000
0200
0000
0000
0000
,
0000
0300
0001
0010
,
0100
1000
0100
0000
0020
0000
0000
0000
,
0000
0030
0001
0010
,
0100
1000
1001
0010
,
0100
1000
0100
0010
,
0001
0000
0002
0000
,
2003
0000
3020
0000
,
1030
0100
0010
0000
0001
0000
1000
0000
,
0110
0000
0000
0000
,
0001
0010
0100
0000
1000
0000
0001
0000
,
0110
0000
0000
0000
,
1000
0010
0100
0000
1001
0000
0000
0000
,
0110
0000
2000
0000
,
3020
0000
0230
0300
,
2002
0000
0000
0000
,
3003
0000
1000
0100
,
0010
0001
0010
0000
0200
0000
0000
0000
,
0000
0300
0001
0010
,
0100
1000
0100
0000
0020
0000
0000
0000
,
0000
0030
0001
0010
,
0100
1000
0100
0000
1010
0000
0000
0000
,
1000
0001
0110
0000
,
0020
0000
1000
0000
,
0130
0000
0000
0000
,
0000
0000
0000
0000
1000
0100
0010
0000
,
0011
0110
1100
0000
,
1000
0000
1000
0000
,
2000
3000
0020
0030
,
0002
0003
0200
0300
,
2000
3100
0020
0000
,
0000
0000
0000
0000
,
0000
0000
0000
0130
;

//---------------dance-single - ----------------
#NOTES:
     dance-single:
     :
     Hard:
     8:
     0.298785,0.369583,0.204048,0.357085,0.102024,150.000000,20.000000,35.000000,0.000000,0.000000,0.000000,0.298785,0.369583,0.204048,0.357085,0.102024,150.000000,20.000000,35.000000,0.000000,0.000000,0.000000:
// measure 0
0000
0000
0000
0000
,  // measure 1
0000
0000
0000
0000
,  // measure 2
0000
0000
0000
0000
,  // measure 3
0000
0000
0000
0000
,  // measure 4
0000
0000
0000
0000
,  // measure 5
0000
0000
0000
0000
,  // measure 6
1000
0000
0000
0100
0000
0000
0010
0000
0001
0000
0000
0000
0000
0000
0010
0000
,  // measure 7
0200
0000
0000
0000
0000
0000
0000
0300
0020
0000
0000
0000
0000
0000
0000
0000
,  // measure 8
2030
0000
0000
0001
3002
0000
0000
0000
,  // measure 9
0000
0000
0000
0003
,  // measure 10
1000
0000
0010
0000
0100
0000
0000
0000
0001
0000
0000
0010
0000
0000
0100
0000
,  // measure 11
1000
0000
0000
0000
,  // measure 12
0001
0000
0100
0000
0010
0000
0000
0000
1000
0000
0000
0100
0000
0000
0010
0000
,  // measure 13
0001
0000
0000
0000
,  // measure 14
0010
0000
1000
0000
0100
0000
0010
0000
0001
0000
0000
0010
0000
0000
0100
0000
,  // measure 15
2000
0000
3020
0000
,  // measure 16
0230
0000
0000
0000
0302
0000
0000
1000
,  // measure 17
2000
0000
0000
0000
,  // measure 18
3003
0000
0000
0000
0000
0000
0000
0000
1000
0000
0000
0100
0000
0000
0010
0000
,  // measure 19
0001
0000
0000
0010
0000
0000
0100
0000
2100
0000
0000
0000
0000
0000
0000
0000
,  // measure 20
3000
0000
0000
0000
0000
0000
0000
0000
0001
0000
0000
0010
0000
0000
0100
0000
,  // measure 21
1000
0000
0000
0100
0000
0000
0010
0000
0012
0000
0000
0000
0000
0000
0000
0000
,  // measure 22
0003
0000
0000
1000
0100
0000
1100
0000
,  // measure 23
0001
0000
0000
0010
0000
0000
0100
0000
1000
0000
0000
0000
1001
0000
0000
0000
,  // measure 24
0110
1100
0011
0110
,  // measure 25
1001
0000
0010
1000
0010
0000
0001
0000
,  // measure 26
0101
0000
0001
0100
0001
0000
0000
1000
,  // measure 27
0100
0000
1000
0000
0010
0000
0100
0000
0010
0000
0000
0100
0000
0000
0001
0000
,  // measure 28
1000
0000
0010
0000
0010
0000
0000
1000
,  // measure 29
0100
0000
1000
0000
0010
0000
0001
0000
0010
0000
0000
1000
0000
0000
0100
0000
,  // measure 30
0001
0000
0001
0000
0001
0000
0000
1000
,  // measure 31
0100
0001
1000
0010
0002
0000
0000
0000
,  // measure 32
2003
0000
3020
0000
,  // measure 33
0230
0000
0000
0000
0302
0000
0000
1000
,  // measure 34
2000
0000
0000
0000
,  // measure 35
3003
0000
0000
0000
0000
0000
0000
0000
1000
0000
0000
0100
0000
0000
0010
0000
,  // measure 36
0001
0000
0000
0010
0000
0000
0100
0000
2200
0000
0000
0000
0000
0000
0000
0000
,  // measure 37
3300
0000
0000
0000
0000
0000
0000
0000
0001
0000
0000
0010
0000
0000
0100
0000
,  // measure 38
1000
0000
0000
0100
0000
0000
0010
0000
0022
0000
0000
0000
0000
0000
0000
0000
,  // measure 39
0033
0000
0000
0000
0000
0000
0000
0000
0001
0000
0000
0100
0000
0000
0010
0000
,  // measure 40
1000
0000
0000
0100
0000
0000
0010
0000
0002
0000
0000
0000
0000
0000
0000
0000
,  // measure 41
2003
3020
0200
0000
,  // measure 42
0000
0000
0000
0000
0330
0000
0000
0000
0001
0000
0000
0010
0000
0000
0000
0100
,  // measure 43
2000
0000
0000
0000
,  // measure 44
3000
0000
0000
1000
0100
0010
0001
0010
,  // measure 45
0100
0000
0000
0010
0000
0000
0001
0000
2002
0000
0000
0000
0000
0000
0000
0000
,  // measure 46
0000
0000
3003
0000
,  // measure 47
2100
3000
0021
0030
,  // measure 48
0210
0300
1002
0003
,  // measure 49
2100
3000
0220
0000
,  // measure 50
0000
0000
0000
0000
,  // measure 51
0330
0000
0000
1001
;
