#TITLE:SYNCHRONIZED LOVE (Red Monster Hyper Mix);
#SUBTITLE:;
#ARTIST:JOE RINOIE;
#TITLETRANSLIT:;
#SUBTITLETRANSLIT:;
#ARTISTTRANSLIT:;
#GENRE:Dancemania;
#CREDIT:;
#BANNER:;
#BACKGROUND:;
#LYRICSPATH:;
#CDTITLE:;
#MUSIC:SYNCHRONIZED LOVE (Red Monster Hyper Mix).ogg;
#OFFSET:-0.022000;
#SAMPLESTART:67.220970;
#SAMPLELENGTH:15.000000;
#SELECTABLE:YES;
#DISPLAYBPM:150.000000;
#BPMS:0.000000=150.244995
,4.000000=149.992996
;
#STOPS:
;
#BGCHANGES:;
#KEYSOUNDS:;
#ATTACKS:;

//---------------dance-single - ----------------
#NOTES:
     dance-single:
     :
     Beginner:
     4:
     0.179810,0.277259,0.088019,0.044009,0.000000,143.000000,133.000000,10.000000,5.000000,0.000000,0.000000,0.179810,0.277259,0.088019,0.044009,0.000000,143.000000,133.000000,10.000000,5.000000,0.000000,0.000000:
0000
0000
0000
0000
,
0000
0000
0000
0000
,
0000
0000
0000
0000
,
0000
0000
0000
0000
,
0000
0000
0000
0000
,
0002
0000
0100
0000
,
0200
0000
0303
0000
,
2000
0000
0010
0000
,
0020
0000
0000
0000
,
3030
0000
0000
0000
,
1000
0000
0000
0000
,
0000
0100
0000
0001
,
0001
0000
0000
0000
,
0000
0100
0000
1000
,
1000
0000
0000
0000
,
0000
0010
0000
1000
,
1000
0000
0000
0000
,
0000
0010
0000
0001
,
0001
0001
0001
0001
,
0000
0100
0000
0000
,
0000
0010
0010
0010
,
0000
1000
0000
1000
,
0000
0001
0000
0001
,
0000
0100
0000
0100
,
0000
0001
0001
0001
,
0000
0100
0000
0100
,
0000
0100
0000
0100
,
0000
0001
0000
0001
,
0000
0001
0000
0001
,
0000
1000
0000
1000
,
0000
1000
0000
1000
,
0000
0010
0000
0010
,
0000
0010
0000
0010
,
0000
1001
1001
0000
,
0000
0100
0100
0000
,
0000
1001
1001
0000
,
0000
0010
0010
0000
,
0000
1000
0000
1000
,
0000
0001
0000
0001
,
0000
1000
0000
0001
,
0000
0000
0110
0110
,
0000
0010
0010
0010
,
0000
0100
0100
0100
,
0000
1001
0000
1001
,
0000
0010
0000
0100
,
0000
1000
1000
1000
,
0000
0001
0001
0001
,
0000
0110
0000
0110
,
0000
1000
0000
0001
,
0000
0100
0100
0000
,
0000
0010
0010
0000
,
0000
0100
0100
0000
,
0000
0010
0010
0010
,
0000
1000
0000
1000
,
0000
0100
0000
0100
,
0000
0010
0000
0010
,
0000
0001
0000
0001
,
0000
0100
0100
0100
,
0000
1000
1000
1000
,
0000
0010
0010
0010
,
0000
0001
0001
0001
,
0000
0100
0000
0010
,
0000
0100
0000
0010
,
0000
0001
0000
1000
,
0000
0001
0000
1000
,
0000
1000
1000
0000
,
0000
0001
0001
0000
,
0000
1000
1000
0000
,
0000
0001
0001
0000
,
0200
0000
0000
0000
,
0300
0000
0000
0000
;

//---------------dance-single - ----------------
#NOTES:
     dance-single:
     :
     Easy:
     6:
     0.298007,0.368359,0.123226,0.158434,0.000000,237.000000,223.000000,14.000000,18.000000,0.000000,0.000000,0.298007,0.368359,0.123226,0.158434,0.000000,237.000000,223.000000,14.000000,18.000000,0.000000,0.000000:
0000
0000
0000
0000
,
0000
0000
0000
0000
,
0000
0000
0000
0000
,
0000
0000
0000
0000
,
0000
0000
0000
0000
,
2000
0100
0000
3100
,
0002
0100
0000
0103
,
2000
0010
0000
3010
,
0002
0010
0000
0013
,
0220
0000
0000
0330
,
0001
0010
0100
0100
,
0200
1000
0000
1300
,
0001
0010
0100
0100
,
2000
0000
3001
0010
,
1000
0100
0010
0010
,
0020
0001
0000
0031
,
1000
0100
0010
0010
,
0002
0000
1003
0100
,
0010
0000
0001
0100
,
0020
0000
1000
1030
,
0001
0000
0010
0100
,
2000
0000
0001
3001
,
1000
0100
0001
0100
,
0010
1000
0001
0100
,
0010
0010
0010
0010
,
1001
0000
0100
0010
,
0001
0001
1000
1000
,
0100
0001
0100
0001
,
1000
1000
0100
0100
,
0010
0001
0010
0001
,
2000
3000
0002
0003
,
1000
0100
0010
0000
,
0002
0003
2000
3000
,
0100
0000
0010
0001
,
1000
0100
0000
0100
,
0000
0010
0000
0010
,
0001
0100
0000
0100
,
0000
0010
0000
0010
,
1000
0001
0100
0010
,
1000
0100
0020
0030
,
0001
0100
0010
1000
,
0001
0001
0002
0003
,
0010
0100
1001
0000
,
0100
0010
1001
0000
,
0010
0001
1000
0100
,
0010
0001
0000
1001
,
0010
0100
1001
0000
,
0100
0010
1001
0000
,
0010
0100
1000
0010
,
0100
0001
0000
1001
,
0100
0100
0100
0010
,
0100
0100
0010
0010
,
0100
0100
0100
0010
,
0100
0100
0010
0010
,
1000
0100
0010
1001
,
0100
0100
0010
1001
,
0100
0010
0001
0010
,
0100
0100
0000
1001
,
0100
0100
0001
1001
,
0100
0100
0010
1001
,
0100
0010
1000
0100
,
0010
0001
1000
1000
,
0100
0001
0100
1000
,
0100
0010
0010
0010
,
0001
0100
1000
0100
,
0010
0001
0001
0001
,
1000
1000
0100
0100
,
0010
0001
0100
0010
,
1000
1000
0001
0001
,
0100
0010
1000
1001
;

//---------------dance-single - ----------------
#NOTES:
     dance-single:
     :
     Medium:
     8:
     0.373452,0.368359,0.114425,0.281660,0.000000,297.000000,284.000000,13.000000,32.000000,0.000000,0.000000,0.373452,0.368359,0.114425,0.281660,0.000000,297.000000,284.000000,13.000000,32.000000,0.000000,0.000000:
0000
0000
0000
0000
,
0000
0000
0000
0000
,
0000
0000
0000
0000
,
0000
0000
0000
0000
,
0000
0000
0000
0000
,
1000
0100
0010
0000
0001
0000
0001
0000
,
0001
0010
0100
0000
1000
0000
1000
0000
,
0010
0100
0010
0000
1000
0000
0001
0000
,
0100
0010
0100
0000
0001
0000
1000
0000
,
0220
0000
0000
0330
,
0001
0010
1000
0000
0010
0000
0010
0000
,
0001
0001
1000
1000
,
0001
0100
1000
0000
0100
0000
0100
0000
,
0001
0010
0100
1001
,
1000
0100
0001
0000
0100
0000
0100
0000
,
1000
1000
0001
0001
,
1000
0010
0001
0000
0010
0000
0010
0000
,
1000
0100
0010
1001
,
0010
0000
0100
1000
0010
0000
0100
0000
,
0001
0010
1000
0001
,
1000
0000
0010
0100
0001
0000
0010
0000
,
1000
0001
1000
0010
,
0100
0001
0010
0000
0100
1000
0010
0000
,
0100
0001
0010
0100
,
1000
0001
0100
0000
1000
0001
0100
0000
,
1001
0000
0000
0100
0000
0010
0100
0000
,
1000
0000
0001
0000
0100
0010
1000
0000
,
0001
0000
0010
0100
0000
0010
0100
0000
,
1000
0001
0100
1000
,
0100
0000
0010
0001
0000
0010
0001
0000
,
1000
0100
0020
0000
0001
0000
0031
0000
,
1000
0100
0020
0000
0001
0000
0031
0000
,
1000
0010
0100
0000
0001
0010
0100
0000
,
2000
3002
0203
2300
,
3100
0100
0200
0000
0010
0000
0310
0000
,
0001
0001
0002
0000
0100
0000
0103
0000
,
0010
0010
0020
0000
1000
0000
1030
0000
,
0100
0100
0200
0000
0010
0000
0310
0000
,
0001
1000
0100
0010
,
0001
2000
0200
3300
,
0001
0100
0010
1000
,
1001
0110
2002
3003
,
0100
0000
0010
0001
0200
0000
0300
0000
,
0010
1000
0001
0000
0002
0000
0003
0000
,
0100
1000
0100
0010
,
0001
1000
0100
0000
0000
0000
1001
0000
,
0100
0000
0010
1000
0200
0000
0300
0000
,
0010
0001
1000
0000
0200
0000
0300
0000
,
0010
0001
0100
0000
0010
1000
0010
1000
,
0001
0001
0000
1001
,
0200
0000
0320
0000
,
1030
0000
0100
0000
0010
0001
1000
0000
,
0200
0000
0320
0000
,
0031
0000
0001
0000
1000
0100
1000
0100
,
0010
0000
0010
0001
0200
0000
0300
0000
,
0010
1000
0100
0000
0200
0000
0300
0000
,
0010
0000
0001
1000
0100
0000
0010
0001
,
0100
0100
0000
1001
,
0100
0000
0010
0001
2000
0000
3000
0000
,
0100
0010
0001
0000
0002
0000
0003
0000
,
1000
0000
0100
0010
0001
0000
0100
0010
,
1000
1000
0000
1001
,
0200
0000
0320
0000
,
0031
0000
1000
0100
1000
0000
0001
0000
,
0200
0000
0320
0000
,
1030
0000
0001
0000
0100
0010
1000
0000
,
0100
0000
0100
0000
0010
0001
0100
0000
,
0010
1001
0100
1001
,
0100
0000
0010
0000
1000
0100
0010
0000
,
0001
0000
1000
0000
0100
0010
0100
0000
;

//---------------dance-single - ----------------
#NOTES:
     dance-single:
     :
     Hard:
     12:
     0.582182,0.552539,0.061613,0.105623,0.246453,463.000000,456.000000,7.000000,12.000000,0.000000,0.000000,0.582182,0.552539,0.061613,0.105623,0.246453,463.000000,456.000000,7.000000,12.000000,0.000000,0.000000:
0000
0000
0000
0000
,
0000
0000
0000
0000
,
0000
0000
0000
0000
,
0000
0000
0000
0000
,
0000
0000
0000
0000
,
0100
0000
0010
1000
0000
0000
0000
0000
0010
0000
0100
0001
0000
0000
0000
0000
,
0100
0000
0010
1000
0000
0000
0000
0000
0001
0000
1000
0000
0010
0000
0000
0000
,
1000
0001
1000
0001
1000
0000
0000
0000
0010
0000
0100
0000
0010
0000
0000
0000
,
0001
1000
0001
1000
0001
0000
0000
0000
0100
0000
0010
0000
0100
0000
0000
0000
,
0002
0000
2000
3003
,
0001
0000
0010
0000
0100
0000
1000
0000
0001
0010
0000
0000
0100
0000
0000
0000
,
1000
0000
0010
0000
0100
0000
0001
0000
1000
0010
0000
0000
0100
0000
0000
0000
,
0001
0000
1000
0000
0100
0000
0010
0000
0001
0100
0000
0000
0010
0000
0000
0000
,
1000
0000
0001
0000
0100
0000
0010
0000
1000
0100
0000
0000
1000
0010
0000
0000
,
1000
0000
0100
0000
0010
0000
0001
0000
1000
0100
0000
0000
0010
0000
0000
0000
,
0001
0000
0100
0000
0010
0000
1000
0000
0001
0100
0000
0000
0010
0000
0000
0000
,
1000
0000
0001
0000
0010
0000
0100
0000
1000
0010
0000
0000
0100
0000
0000
0000
,
0001
0000
1000
0000
0010
0000
0100
0000
0001
0010
0000
0000
0001
0100
0000
0000
,
0010
0000
1000
0000
0001
0010
0000
0000
0100
0000
1000
0000
0001
0000
0000
0000
,
0100
0000
0010
0000
1000
0100
0000
0000
0010
0000
0001
0000
1000
0000
0100
0000
,
0010
0000
0001
0000
0100
0010
0000
0000
1000
0000
0001
0000
0010
0000
0000
0000
,
0100
0000
0001
0000
0100
1000
0000
0000
0001
0000
0100
0000
0010
0000
1000
0000
,
0001
0000
0010
0000
0100
1000
0000
0000
0001
0000
0010
0000
0100
1000
0000
0000
,
0010
0000
0100
0000
0001
1000
0000
0000
0010
0000
0100
0000
0001
1000
0000
0000
,
0100
0010
0001
1000
0010
0100
0001
0000
,
1000
0100
0000
0000
0010
0000
0001
0100
0000
0000
0010
0000
2000
0000
0000
0000
,
3001
0000
0010
0000
0100
1000
0000
0000
0001
0000
0100
0000
0010
0000
0000
0000
,
1000
0000
0001
0000
0010
0100
0000
0000
1000
0000
0001
0000
0100
0000
0010
0000
,
1000
0000
0100
0000
0010
0001
0000
0000
1000
0000
0100
0000
0010
0000
0000
0000
,
0001
0000
1000
0000
0010
0100
0000
0000
0001
0000
1000
0000
0100
0000
0010
0000
,
0001
0000
1000
0000
0010
0100
0000
0000
0001
0000
1000
0000
0100
0010
0000
0000
,
0001
0000
0100
0000
0010
1000
0000
0000
0100
0000
0010
0000
0001
0100
0000
0000
,
0010
1000
0100
0001
0100
1000
0010
0100
,
0001
1000
0100
0010
0001
1000
0010
0000
,
0100
0002
0000
0000
1003
0000
0000
0000
0100
2000
0000
0000
3001
0000
0000
0000
,
0010
0002
0000
0000
1003
0000
0000
0000
0010
2000
0000
0000
3001
0000
0000
0000
,
0100
0010
0000
1000
0100
0000
0000
0000
0010
0001
0000
0100
0010
0000
0000
0000
,
1000
0100
0000
0010
0001
0000
0000
0000
0100
0010
0000
1000
0001
0000
0000
0000
,
0010
0100
1000
0001
0000
0001
0001
0000
,
0100
0010
1000
0002
0000
0000
0003
0000
,
0010
0100
0010
0100
0000
0000
1001
0000
,
0010
0100
0000
0000
1000
0001
0000
0000
0100
0010
0000
0000
1001
0000
0000
0000
,
0100
0010
0001
1000
0010
0100
0001
1000
,
0100
0001
0100
1000
0010
0100
0001
1000
,
0100
0010
0001
1000
0010
0100
0001
1000
,
0100
0010
0002
0000
0003
0000
1100
0000
,
0001
0100
0010
1000
0001
0010
0100
1000
,
0010
0001
0010
1000
0001
0010
0100
1000
,
0001
0100
0010
1000
0001
0010
0100
1000
,
0001
0100
0200
0000
0300
0000
1100
0000
,
0010
0001
0001
0000
1000
0010
0010
0010
,
0000
0100
0001
1000
0100
0010
0001
1000
,
0010
0100
0100
0000
0001
1000
1000
1000
,
0000
0100
0010
0001
0100
0010
1000
0100
,
0010
0001
1000
0010
0100
0001
1000
0100
,
0010
0001
1000
0010
0100
0001
1000
0100
,
0010
0001
1000
0100
0010
0001
0100
1000
,
0100
0001
2000
0000
3000
0000
0110
0000
,
0001
1000
0010
0100
0001
1000
0100
0010
,
0001
0100
0010
1000
0001
0010
1000
0010
,
0001
1000
0010
0100
0001
1000
0100
0001
,
0100
1000
0002
0000
0003
0000
0110
0000
,
0001
0100
0100
0000
0010
1000
0100
0010
,
0000
0010
0001
1000
0100
0010
0001
1000
,
0010
0100
0100
0000
0010
1000
0001
0010
,
0000
0100
1000
0001
0100
0010
1000
0001
,
0010
0100
0000
0000
1000
0000
0000
0000
0001
0000
0100
0000
0010
0000
1000
0000
,
0001
0100
0000
0001
0100
0000
0001
0100
0000
0001
0100
0000
0010
0000
1000
0000
,
0100
0010
0001
0000
1000
0100
0010
0001
,
1000
0000
0000
0010
0000
0000
0100
0000
0000
0000
0001
0000
1001
0000
0000
0000
;

//---------------dance-double - ----------------
#NOTES:
     dance-double:
     :
     Easy:
     6:
     0.306809,0.337662,0.061613,0.079217,0.000000,244.000000,237.000000,7.000000,9.000000,0.000000,0.000000,0.306809,0.337662,0.061613,0.079217,0.000000,244.000000,237.000000,7.000000,9.000000,0.000000,0.000000:
00000000
00000000
00000000
00000000
,
00000000
00000000
00000000
00000000
,
00000000
00000000
00000000
00000000
,
00000000
00000000
00000000
00000000
,
00000000
00000000
00000000
00000000
,
20000000
01000000
00000000
31000000
,
00020000
01000000
00000000
01030000
,
00002000
00000010
00000000
00003010
,
00000002
00000010
00000000
00000013
,
00011000
00000000
00000000
00000000
,
10000000
00010000
01000000
00001000
,
00010000
00000010
00001000
01000000
,
00010000
10000000
01000000
00100000
,
00001000
00010000
00000100
00001000
,
00000001
00001000
00000010
00010000
,
00001000
01000000
00010000
00000010
,
00001000
00000001
00000010
00000100
,
00010000
00001000
00100000
00010000
,
00010000
00010000
00010000
00010000
,
01000000
01000000
00001000
00001000
,
00000100
00000100
00000100
00000100
,
00001000
00001000
00010000
00010000
,
01000000
10000000
00010000
01000000
,
00001000
00010000
01000000
10000000
,
00010000
00100000
01000000
10000000
,
10010000
01000000
00001000
00010000
,
00000010
00000010
00000010
00000010
,
00001000
00001000
00010000
00010000
,
01000000
01000000
01000000
01000000
,
00001000
00001000
00000100
00000100
,
00000001
00000010
00001000
00000010
,
00010000
00001000
00100000
00010000
,
00001000
00000100
00000001
00001000
,
00000100
00000100
00000100
00000100
,
00010000
00001000
00000200
00000300
,
00000001
00000010
00002000
00003000
,
00010000
00100000
20000000
30000000
,
00100000
00010000
00002000
00003000
,
00000010
00000001
00000100
00001000
,
00010000
01000000
10000000
00000000
,
00001000
00000100
00010000
01000000
,
10010000
10010000
10020000
00030000
,
00001000
00000100
00000001
00000000
,
00000010
00001000
00010000
00000000
,
00000001
00000100
00010000
01000000
,
10000000
00100000
00000000
10010000
,
00100000
00001000
00000010
00000000
,
00001000
00010000
00100000
00000000
,
10000000
01000000
00010000
00001000
,
00000100
00000001
00001000
00000100
,
00010000
00001000
00100000
00010000
,
10000000
01000000
01000000
01000000
,
00010000
00001000
00000100
00000001
,
00001000
00000100
00000100
00000100
,
00010000
00001000
00000010
00000000
,
00001000
00010000
00100000
00000000
,
10000000
01000000
00010000
01000000
,
00001000
00010000
00000000
00001001
,
00000100
00000010
00001000
00000000
,
00010000
00100000
10000000
00000000
,
00010000
01000000
00001000
00000100
,
00000010
00000001
00001000
00001000
,
00000100
00010000
00100000
10000000
,
00010000
01000000
00001000
00000010
,
00001000
00010000
00100000
00010000
,
00001000
00000010
00000001
00001000
,
00000100
00000100
00010000
01000000
,
00001000
00000100
00000001
00000001
,
00001000
00000100
00010000
00100000
,
00001000
00000100
00000001
00001000
;

//---------------dance-double - ----------------
#NOTES:
     dance-double:
     :
     Medium:
     9:
     0.372194,0.368359,0.044009,0.070415,0.000000,296.000000,291.000000,5.000000,8.000000,0.000000,0.000000,0.372194,0.368359,0.044009,0.070415,0.000000,296.000000,291.000000,5.000000,8.000000,0.000000,0.000000:
00000000
00000000
00000000
00000000
,
00000000
00000000
00000000
00000000
,
00000000
00000000
00000000
00000000
,
00000000
00000000
00000000
00000000
,
00000000
00000000
00000000
00000000
,
10000000
01000000
10000000
00000000
01000000
00000000
00010000
00000000
,
00001000
00010000
00001000
00000000
00001000
00000000
00000100
00000000
,
00000001
00000010
00000001
00000000
00000010
00000000
00000100
00000000
,
00001000
00010000
00001000
00000000
00010000
00000000
00100000
00000000
,
01200000
00000000
00300000
00010000
,
00001000
00010000
00000100
00000000
00001000
00000000
00001000
00000000
,
00000010
00000000
00000100
00000000
00000010
00000000
00010000
00001000
,
00000100
00000001
00001000
00000010
,
00010000
00000000
00010000
00001000
01000000
00000000
10000000
00000000
,
00010000
00001000
00100000
00000000
00010000
00000000
00010000
00000000
,
01000000
00000000
00100000
00000000
01000000
00000000
00001000
00010000
,
00100000
10000000
00010000
01000000
,
00001000
00000000
00001000
00010000
00000010
00000000
00000001
00000000
,
00001000
00000000
00000100
00010000
00001000
00000000
00000010
00000000
,
00000001
00001000
00000010
00000100
,
00001000
00000000
00010000
00001000
00000010
00000000
00000001
00000000
,
00001000
00000100
00010000
00001000
,
00100000
00000000
10000000
00100000
00010000
00000000
01000000
00000000
,
00001000
00000000
00010000
00001000
00100000
00000000
10000000
00000000
,
00010000
01000000
00100000
10000000
,
00010000
00100000
01000000
00000000
00010000
00000000
00001000
00000000
,
00000100
00000000
00000001
00000010
00000100
00000000
00001000
00000000
,
00000001
00000100
00001000
00000100
,
00010000
00000000
00001000
00000100
00000001
00000000
00000010
00000000
,
00001000
00010000
00000010
00000100
,
00000001
00001000
00000100
00000000
00010000
00000000
00000000
00000000
,
00000010
00000100
00001000
00000000
00010000
00000000
01000000
00000000
,
10000000
00010000
01000000
00100000
,
10000000
00010000
00010000
00010000
,
00100000
00000000
00001000
00010000
00000000
00000000
00000100
00000000
,
00000010
00000000
00001000
00010000
00000000
00000000
00000000
00000000
,
00100000
00000000
10000000
01000000
00000000
00000000
00100000
00000000
,
00001000
00000000
00010000
00000100
00000000
00000000
00000000
00000000
,
00000010
00000010
00000010
00000010
,
00000001
00000000
00001000
00000200
00000000
00000000
00000300
00000000
,
00010000
00001000
00100000
01000000
,
10010000
10010000
02200000
03300000
,
00010000
00000000
01000000
00100000
01000000
00000000
00010000
00000000
,
00100000
00001000
00010000
00000000
00000200
00000000
00000300
00000000
,
00000010
00000001
00000100
00000000
00000010
00000000
00001000
00000000
,
00000100
00000001
00000100
00000000
00001000
00000000
00000010
00000000
,
00010000
00000000
00001000
00000010
00001000
00000000
00010000
00000000
,
00100000
00010000
00100000
00000000
20000000
00000000
30000000
00000000
,
00010000
01000000
00010000
00000000
00100000
00000000
00001000
00000000
,
00000010
00000001
00001000
00000000
00000000
00000000
00000110
00000000
,
00010000
00000000
00001000
00000000
00100000
00000000
00010000
10000000
,
00000000
00010000
00000000
00010000
00000000
00010000
01000000
00000000
,
00001000
00000000
00010000
00000000
00000010
00000000
00000100
00000001
,
00000000
00000001
00000000
00000001
00000000
00000001
00001000
00000000
,
00000100
00000000
00010000
00001000
00100000
00000000
00001000
00000000
,
00010000
00001000
01000000
00000000
20000000
00000000
30000000
00000000
,
01000000
00010000
00100000
00000000
00001000
00000000
00010000
00000000
,
00000010
00000001
00000010
00000000
00001000
00000000
00000100
00000000
,
00000010
00000000
00001000
00010000
00001000
00000000
01000000
00000000
,
00010000
10000000
01000000
00000000
00100000
00000000
00010000
00000000
,
01000000
00001000
00010000
00000000
00000010
00000000
00000001
00000000
,
00001000
00000100
00002000
00000000
00000001
00000000
00003001
00000000
,
00000100
00000010
00001000
00000100
,
00000010
00000000
00001000
00000000
00010000
00100000
00010000
00000000
,
00001000
00000010
00000001
00000100
,
00000010
00000000
00010000
00000000
00001000
01000000
00010000
00000000
,
00100000
00000000
00100000
00000000
01000000
10000000
00010000
00000000
,
01000000
00000000
00001000
00010000
00000000
00001000
00010000
00000000
,
00000010
00000000
00000001
00000000
00001000
00000100
00000010
00000000
,
00001000
00010000
00100000
10000000
;

//---------------dance-double - ----------------
#NOTES:
     dance-double:
     :
     Hard:
     12:
     0.572123,0.552539,0.193642,0.017604,0.110024,455.000000,433.000000,22.000000,2.000000,0.000000,0.000000,0.572123,0.552539,0.193642,0.017604,0.110024,455.000000,433.000000,22.000000,2.000000,0.000000,0.000000:
00000000
00000000
00000000
00000000
,
00000000
00000000
00000000
00000000
,
00000000
00000000
00000000
00000000
,
00000000
00000000
00000000
00000000
,
00000000
00000000
00000000
00000000
,
10000000
00000000
01000000
10000000
00000000
00000000
00000000
00000000
00010000
00000000
00100000
00010000
00000000
00000000
00000000
00000000
,
00001000
00000000
00000010
00001000
00000000
00000000
00000000
00000000
00000001
00000000
00000100
00000000
00000001
00000000
00000000
00000000
,
00000100
00001000
00000100
00000000
00001000
00000000
00000000
00000000
00010000
00000000
00000000
00000000
00011000
00000000
00000000
00000000
,
00010000
00100000
00010000
00000000
00100000
00000000
00000000
00000000
01000000
00000000
00000000
00000000
01010000
00000000
00000000
00000000
,
00010200
00000000
00000300
00000101
,
00000001
00000000
00000010
00000000
00001000
00000000
00000000
00000000
00001000
00000010
00000000
00000000
00000001
00000000
00000000
00000000
,
00001000
00000000
00000000
00100000
00000000
00000000
10000000
00000000
00000000
00000000
01000000
00000000
00100000
00000000
00000000
00000000
,
00010000
00000000
01000000
00000000
00001000
00000000
00000000
00000000
00010000
01000000
00000000
00000000
10000000
00000000
00000000
00000000
,
00100000
00000000
00000000
00010000
00000000
00000000
00001000
00000000
00000000
00000000
00010000
00000000
01000000
00000000
00000000
00000000
,
10000000
00000000
01000000
00000000
00010000
00000000
00000000
00000000
00010000
01000000
00000000
00000000
10000000
00000000
00000000
00000000
,
00010000
00000000
00000000
00000100
00000000
00000000
00000001
00000000
00000000
00000000
00000010
00000000
00000100
00000000
00000000
00000000
,
00001000
00000000
00000010
00000000
00010000
00000000
00000000
00000000
00001000
00000010
00000000
00000000
00000001
00000000
00000000
00000000
,
00000100
00000000
00000000
00001000
00000000
00000000
00010000
00000000
00000000
00000000
01000000
00000000
10000000
00000000
00000000
00000000
,
00010000
01000000
10000000
01000000
00010000
00100000
00001000
00010000
,
00000010
00000100
00000001
00000010
00000001
00000100
00000010
00001000
,
00000100
00010000
00001000
00000100
00000001
00000010
00000100
00001000
,
00000001
00000100
00001000
00010000
01000000
10000000
00010000
01000000
,
00100000
10000000
01000000
00100000
00010000
01000000
00001000
00010000
,
00100000
10000000
01000000
00010000
00001000
00000100
00000001
00000010
,
00000100
00010000
00001000
00000100
00000001
00000010
00001000
00010000
,
00100000
00000000
00000000
10010000
00000000
11000000
10010000
00000000
,
01000000
00001000
00010000
00000100
00000001
00000100
00001000
00000010
,
00000100
00001000
00010000
01000000
10000000
00010000
01000000
00100000
,
10000000
01000000
00100000
00010000
10000000
01000000
00100000
00001000
,
00010000
00100000
10000000
01000000
00010000
00001000
00000100
00000001
,
00000010
00000100
00001000
00000001
00000100
00001000
00010000
01000000
,
10000000
00010000
01000000
00001000
00010000
01000000
10000000
00100000
,
00010000
00001000
00000010
00000001
00001000
00000010
00000100
00001000
,
00010000
01000000
10000000
00010000
01000000
00100000
10000000
00010000
,
00100000
00100000
00100000
00000000
00011000
00000000
00000100
00000000
,
00000010
00000010
00000010
00000000
00001001
00000000
00000100
00000000
,
00010000
00010000
00010000
00000000
00011000
00000000
00100000
00000000
,
10000000
10000000
10000000
00000000
10010000
00000000
01000000
00000000
,
00001000
00010000
00000010
00001000
00000100
00000010
00000001
00000000
,
00001000
00000010
00000100
00001000
00010000
01000000
10000000
00000000
,
00010000
01000000
00100000
10000000
01000000
00010000
00001000
00000000
,
00001001
00010100
00201000
00300000
,
10000000
00100000
01000000
00001000
00000010
00001000
00010000
00100000
,
10000000
01000000
00100000
00001000
00000100
00000001
00000010
00000000
,
00000100
00010000
00001000
00100000
00010000
01000000
00001000
00010000
,
00000010
00001000
00000001
00000000
00000010
00000100
00000010
00000000
,
00000001
00000100
00001000
00010000
01000000
10000000
00010000
01000000
,
00100000
10000000
01000000
00100000
00010000
01000000
00001000
00000000
,
00010000
00000010
00000001
00000010
00001000
00000100
00000010
00000001
,
00001000
00000100
00010000
00000000
00001000
00100000
00001000
00000000
,
01000000
00100000
00000000
00000000
10010000
00000000
00000000
00000000
01000000
00100000
00000000
00000000
10010000
00000000
00000000
00000000
,
01000000
00001000
00010000
00000010
00001000
00000100
00010000
00000000
,
00001000
00100000
00000000
00000000
10010000
00000000
00000000
00000000
01000000
00001000
00000000
00000000
00010010
00000000
00000000
00000000
,
00001000
00000001
00000010
00000100
00010000
00001000
00000100
00000001
,
00000010
00000100
00001000
00000010
00000100
00001000
00010000
01000000
,
10000000
00010000
01000000
00100000
10000000
01000000
00100000
00000000
,
00010000
01000000
00001000
00010000
00000010
00000001
00000010
00001000
,
00000100
00000010
00000001
00000000
00001000
00000100
00010000
00000000
,
00001000
00000100
00000001
00000010
00000100
00010000
00001000
00100000
,
10000000
00100000
00010000
01000000
00100000
10000000
01000000
00000000
,
00100000
00010000
01000000
00100000
10000000
01000000
00010000
00001000
,
00000100
00000001
00000010
00000000
00000100
00001000
00000010
00000000
,
00000100
00000010
00000000
00000000
00001001
00000000
00000000
00000000
00000100
00000010
00000000
00000000
00001001
00000000
00000000
00000000
,
00000100
00000010
00001000
00000100
00010000
00001000
01000000
00100000
,
10000000
01000000
00000000
00000000
00110000
00000000
00000000
00000000
01000000
00001000
00000000
00000000
00010010
00000000
00000000
00000000
,
00001000
00000001
00000010
00000100
00001000
00000010
00000100
00001000
,
00010000
00000000
01000000
00000000
10000000
00000000
00100000
00000000
01000000
00010000
00000000
00000000
10000000
00000000
00000000
00000000
,
01000000
00000000
00000000
00010000
00000000
00000000
00001000
00000000
00000000
00000000
00000100
00000000
00000001
00000000
00000000
00000000
,
00000010
00000000
00000100
00000000
00001000
00000000
00000010
00000000
00000100
00001000
00000000
00000000
00000001
00000000
00000000
00000000
,
00000010
00000000
00000000
00001000
00000000
00000000
00010000
00000000
00000000
00000000
00100000
00000000
10000000
00000000
00000000
00000000
;

//---------------dance-single - ----------------
#NOTES:
     dance-single:
     :
     Challenge:
     9:
     0.347046,0.369019,0.096821,0.096821,0.000000,276.000000,265.000000,11.000000,11.000000,172.000000,0.000000,0.347046,0.369019,0.096821,0.096821,0.000000,276.000000,265.000000,11.000000,11.000000,172.000000,0.000000:
0000
0000
0000
0000
,
0000
0000
0000
0000
,
0000
0000
0000
0000
,
0000
0000
0000
0000
,
0000
0000
0000
0000
,
1000
0100
0010
0000
0001
0000
MMMM
0000
,
0001
0010
0100
0000
1000
0000
MMMM
0000
,
0010
0100
0010
0000
1000
0000
MMMM
0000
,
0100
0010
0100
0000
0001
0000
MMMM
0000
,
0220
0000
0330
MMMM
,
0001
0010
1000
0000
0010
0000
0010
0000
,
0001
0001
1000
MMMM
,
0001
0100
1000
0000
0100
0000
0100
0000
,
0001
0010
0100
MMMM
,
1000
0100
0001
0000
0100
0000
0100
0000
,
1000
1000
0001
MMMM
,
1000
0010
0001
0000
0010
0000
0010
0000
,
1000
0100
0010
MMMM
,
0010
0000
0100
1000
0010
0000
0100
0000
,
0001
0010
1000
MMMM
,
1000
0000
0010
0100
0001
0000
0010
0000
,
1000
0001
1000
MMMM
,
0100
0001
0010
0000
0100
1000
0010
0000
,
0100
0001
0010
0100
,
1000
0001
0100
0000
1000
0001
0100
0000
,
1001
0000
0000
0100
0000
MMMM
0100
0000
,
1000
0000
0001
0000
0100
0010
1000
0000
,
0001
0000
0010
0100
0000
0010
0100
0000
,
1000
0001
0100
1000
,
0100
0000
0010
0001
0000
0010
0001
0000
,
1000
0100
0020
0000
0031
0000
MMMM
0000
,
1000
0100
0020
0000
0031
0000
MMMM
0000
,
1000
0010
0100
0000
0001
0010
0100
0000
,
2000
3002
0103
MMMM
,
0100
0100
0200
0000
0310
0000
MMMM
0000
,
0001
0001
0002
0000
0103
0000
MMMM
0000
,
0010
0010
0020
0000
1030
0000
MMMM
0000
,
0100
0100
0200
0000
0310
0000
MMMM
0000
,
0001
1000
0100
0010
,
0001
2000
3100
MMMM
,
0001
0100
0010
1000
,
1001
0110
1001
MMMM
,
0100
0000
0010
0001
0100
0000
MMMM
0000
,
0010
1000
0001
0000
0001
0000
MMMM
0000
,
0100
1000
0100
0010
,
0001
1000
0100
0000
MMMM
0000
1001
0000
,
0100
0000
0010
1000
0100
0000
MMMM
0000
,
0010
0001
1000
0000
0100
0000
MMMM
0000
,
0010
0001
0100
0000
0010
1000
0010
1000
,
0001
0001
MMMM
1001
,
0100
MMMM
0010
MMMM
,
1000
0000
0100
0000
0010
0001
1000
0000
,
0100
MMMM
0010
MMMM
,
0001
0000
0001
0000
1000
0100
1000
0100
,
0010
0000
0010
0001
0100
0000
MMMM
0000
,
0010
1000
0100
0000
0100
0000
MMMM
0000
,
0010
0000
0001
1000
0100
0000
0010
0001
,
0100
0100
MMMM
1001
,
0100
0000
0010
0001
1000
0000
MMMM
0000
,
0100
0010
0001
0000
0001
0000
MMMM
0000
,
1000
0000
0100
0010
0001
0000
0100
0010
,
1000
1000
MMMM
1001
,
0100
MMMM
0010
MMMM
,
0001
0000
1000
0100
1000
0000
0001
0000
,
0100
MMMM
0010
MMMM
,
1000
0000
0001
0000
0100
0010
1000
0000
,
0100
0000
0100
0000
0010
0001
0100
0000
,
0010
1001
MMMM
1001
,
0100
0000
0010
0000
1000
0100
0010
0000
,
0001
0000
1000
0000
0100
0010
0100
MMMM
;

//---------------dance-double - ----------------
#NOTES:
     dance-double:
     :
     Challenge:
     10:
     0.338244,0.369019,0.044009,0.026406,0.000000,269.000000,264.000000,5.000000,3.000000,296.000000,0.000000,0.338244,0.369019,0.044009,0.026406,0.000000,269.000000,264.000000,5.000000,3.000000,296.000000,0.000000:
00000000
00000000
00000000
00000000
,
00000000
00000000
00000000
00000000
,
00000000
00000000
00000000
00000000
,
00000000
00000000
00000000
00000000
,
00000000
00000000
00000000
00000000
,
10000000
01000000
10000000
00000000
01000000
00000000
MMMMMMMM
00000000
,
00001000
00010000
00001000
00000000
00001000
00000000
MMMMMMMM
00000000
,
00000001
00000010
00000001
00000000
00000010
00000000
MMMMMMMM
00000000
,
00001000
00010000
00001000
00000000
00010000
00000000
MMMMMMMM
00000000
,
01200000
00000000
00300000
MMMMMMMM
,
00001000
00010000
00000100
00000000
00001000
00000000
MMMMMMMM
00000000
,
00000010
00000000
00000100
00000000
00000010
00000000
00010000
00001000
,
00000100
00000001
00001000
MMMMMMMM
,
00010000
00000000
00010000
00001000
01000000
00000000
10000000
00000000
,
00010000
00001000
00100000
00000000
00010000
00000000
MMMMMMMM
00000000
,
01000000
00000000
00100000
00000000
01000000
00000000
00001000
00010000
,
00100000
10000000
00010000
MMMMMMMM
,
00001000
00000000
00001000
00010000
00000010
00000000
00000001
00000000
,
00001000
00000000
00000100
00010000
00001000
00000000
MMMMMMMM
00000000
,
00000001
00001000
00000010
00000100
,
00001000
00000000
00010000
00001000
00000010
00000000
MMMMMMMM
00000000
,
00001000
00000100
00010000
00001000
,
00100000
00000000
10000000
00100000
00010000
00000000
MMMMMMMM
00000000
,
00001000
00000000
00010000
00001000
00100000
00000000
MMMMMMMM
00000000
,
00010000
01000000
00100000
10000000
,
00010000
00100000
01000000
00000000
00010000
00000000
MMMMMMMM
00000000
,
00000100
00000000
00000001
00000010
00000100
00000000
MMMMMMMM
00000000
,
00000001
00000100
00001000
00000100
,
00010000
00000000
00001000
00000100
00000001
00000000
MMMMMMMM
00000000
,
00001000
00010000
00000010
00000100
,
00000001
00001000
00000100
00000000
00010000
00000000
MMMMMMMM
00000000
,
00000010
00000100
00001000
00000000
00010000
00000000
MMMMMMMM
00000000
,
10000000
00010000
01000000
00100000
,
MMMMMMMM
00010000
MMMMMMMM
00010000
,
00100000
00000000
00001000
00010000
00000000
00000000
MMMMMMMM
00000000
,
00000010
00000000
00001000
00010000
00000000
00000000
MMMMMMMM
00000000
,
00100000
00000000
10000000
01000000
00000000
00000000
MMMMMMMM
00000000
,
00001000
00000000
00010000
00000100
00000000
00000000
MMMMMMMM
00000000
,
00000010
00000010
00000010
00000010
,
00000001
00000000
00001000
00000200
00000300
00000000
MMMMMMMM
00000000
,
00010000
00001000
00100000
01000000
,
10010000
10010000
01100000
MMMMMMMM
,
00010000
00000000
01000000
00100000
01000000
00000000
00010000
00000000
,
00100000
00001000
00010000
00000000
00000100
00000000
MMMMMMMM
00000000
,
00000010
00000001
00000100
00000000
00000010
00000000
00001000
00000000
,
00000100
00000001
00000100
00000000
00001000
00000000
MMMMMMMM
00000000
,
00010000
00000000
00001000
00000010
00001000
00000000
00010000
00000000
,
00100000
00010000
00100000
00000000
10000000
00000000
MMMMMMMM
00000000
,
00010000
01000000
00010000
00000000
00100000
00000000
00001000
00000000
,
00000010
00000001
00001000
00000000
MMMMMMMM
00000000
00000110
00000000
,
00010000
00000000
00001000
00000000
00100000
00000000
00010000
10000000
,
00000000
00010000
00000000
00010000
00000000
00010000
01000000
00000000
,
00001000
00000000
00010000
00000000
00000010
00000000
00000100
00000001
,
00000000
00000001
00000000
00000001
00000000
00000001
00001000
00000000
,
00000100
00000000
00010000
00001000
00100000
00000000
00001000
00000000
,
00010000
00001000
01000000
00000000
10000000
00000000
MMMMMMMM
00000000
,
01000000
00010000
00100000
00000000
00001000
00000000
00010000
00000000
,
00000010
00000001
00000010
00000000
00001000
00000000
MMMMMMMM
00000000
,
00000010
00000000
00001000
00010000
00001000
00000000
01000000
00000000
,
00010000
10000000
01000000
00000000
00100000
00000000
MMMMMMMM
00000000
,
01000000
00001000
00010000
00000000
00000010
00000000
00000001
00000000
,
00001000
00000100
00002000
00000000
00003001
00000000
MMMMMMMM
00000000
,
00000100
00000010
00001000
MMMMMMMM
,
00000010
00000000
00001000
00000000
00010000
00100000
00010000
00000000
,
00001000
00000010
00000001
MMMMMMMM
,
00000010
00000000
00010000
00000000
00001000
01000000
00010000
00000000
,
00100000
00000000
00100000
00000000
01000000
10000000
00010000
00000000
,
01000000
00000000
00001000
00010000
00000000
00001000
00010000
00000000
,
00000010
00000000
00000001
00000000
00001000
00000100
00000010
00000000
,
00001000
00000000
00010000
00000000
00100000
00000000
10000000
MMMMMMMM
;
