#TITLE:SING & SMILE;
#SUBTITLE:;
#ARTIST:Re\:nG;
#TITLETRANSLIT:;
#SUBTITLETRANSLIT:;
#ARTISTTRANSLIT:;
#GENRE:Anime/Game;
#CREDIT:;
#BANNER:;
#BACKGROUND:;
#LYRICSPATH:;
#CDTITLE:;
#MUSIC:SING AND SMILE.ogg;
#OFFSET:0.730000;
#SAMPLESTART:63.631004;
#SAMPLELENGTH:15.000000;
#SELECTABLE:YES;
#BPMS:0.000000=190.000000
;
#STOPS:
;
#BGCHANGES:;
#KEYSOUNDS:;
#ATTACKS:;

//---------------dance-single - ----------------
#NOTES:
     dance-single:
     :
     Beginner:
     3:
     0.128119,0.431602,0.095408,0.000000,0.000000,94.000000,84.000000,10.000000,0.000000,0.000000,0.000000,0.128119,0.431602,0.095408,0.000000,0.000000,94.000000,84.000000,10.000000,0.000000,0.000000,0.000000:
0000
0000
0000
0000
,
0000
0000
0000
0000
,
0000
0000
0000
0000
,
0000
0000
0000
0000
,
0000
0000
0000
0000
,
1000
0000
0000
0000
,
0100
0000
0000
0000
,
0010
0000
0000
0000
,
0001
0000
0000
0000
,
1000
0000
0000
0000
,
0010
0000
0000
0000
,
0100
0000
0000
0000
,
0001
0000
0000
0000
,
0100
0000
0000
0000
,
0010
0000
0000
0000
,
1000
0000
0001
0000
,
1000
0000
0000
0000
,
0010
0000
0000
0000
,
0100
0000
0000
0000
,
1001
0000
0000
0000
,
0000
0000
0000
0000
,
0000
0000
0000
0000
,
0000
0000
0000
0000
,
1000
0000
0000
0000
,
0100
0000
0000
0000
,
0010
0000
0000
0000
,
0001
0000
0000
0000
,
0100
0000
0000
0000
,
1000
0000
0000
0000
,
0010
0000
0000
0000
,
0100
0000
0000
0000
,
0001
0000
0000
0000
,
0010
0000
0000
0000
,
0100
0000
0000
0000
,
1000
0000
0000
0000
,
1001
0000
0000
0000
,
1000
0000
0100
0000
,
0010
0000
0000
0000
,
0100
0000
0010
0000
,
0001
0000
0000
0000
,
1001
0000
0000
0000
,
0110
0000
0000
0000
,
0000
0000
0000
0000
,
1000
0000
0000
0000
,
0001
0000
0000
0000
,
1000
0000
0000
0000
,
0001
0000
0000
0000
,
1000
0000
0000
0000
,
0010
0000
0000
0000
,
0100
0000
0000
0000
,
0001
0000
0001
0000
,
0110
0000
0000
0000
,
1000
0000
0000
0000
,
0010
0000
0000
0000
,
0100
0000
0000
0000
,
0001
0000
0000
0000
,
0100
0000
0000
0000
,
0010
0000
0000
0000
,
1000
0000
0000
0000
,
0100
0000
0000
0000
,
0010
0000
0000
0000
,
0001
0000
0000
0000
,
1000
0000
0001
0000
,
1000
0000
0000
0000
,
0010
0000
0000
0000
,
1001
0000
0000
0000
,
0000
0000
0000
0000
,
0000
0000
0000
0000
,
0000
0000
0000
0000
,
0100
0000
0000
0000
,
1000
0000
0000
0000
,
0010
0000
0000
0000
,
0001
0000
0010
0000
,
0001
0000
0000
0000
,
0100
0000
0000
0000
,
0010
0000
0000
0000
,
1000
0000
0100
0000
,
0001
0000
0000
0000
,
1001
0000
0000
0000
,
0110
0010
0010
0010
,
0010
0010
0010
0010
,
0110
0000
0000
0000
,
0000
1001
0000
0000
;

//---------------dance-single - ----------------
#NOTES:
     dance-single:
     :
     Easy:
     7:
     0.354373,0.392365,0.209898,0.076326,0.000000,260.000000,238.000000,22.000000,8.000000,0.000000,0.000000,0.354373,0.392365,0.209898,0.076326,0.000000,260.000000,238.000000,22.000000,8.000000,0.000000,0.000000:
0000
0000
0000
0000
,
0000
0000
0000
0000
,
0000
0000
0000
0000
,
0000
0000
0000
0000
,
0000
0000
0000
0000
,
1001
0000
0010
0000
,
1000
0000
0010
0000
,
0100
0000
0010
0000
,
0001
0010
0100
1000
,
1001
0000
0010
0000
,
1000
0000
0100
0000
,
0001
0100
0010
1000
,
0100
0100
0010
0010
,
1001
0000
0100
0000
,
0001
0000
1000
0010
,
0100
0000
0101
0000
,
1100
0000
1010
0000
,
0012
0000
0000
0000
,
0103
0000
0010
0000
,
1001
0010
1000
0010
,
1000
0010
1000
0010
,
0100
0010
0100
0010
,
0100
0010
0100
0010
,
0100
0001
0100
0001
,
0100
0001
0100
0001
,
0100
1000
0100
1000
,
0100
0100
0010
0010
,
1001
0000
0100
0000
,
1000
0000
0010
0100
,
0001
0000
1000
0000
,
0010
0000
0100
0010
,
1000
0000
0001
0000
,
0100
0000
0001
0100
,
1000
0000
0010
0000
,
0001
0000
1000
0010
,
0001
0000
0100
0000
,
1100
0000
0001
0000
,
0011
0000
1000
0000
,
0010
0100
0001
1000
,
0101
0000
0001
0100
,
1000
0000
0000
1100
0000
0000
0000
0201
,
0000
0000
0000
0300
,
0100
0010
0100
0010
,
0002
0000
1000
0000
,
0100
0000
1000
0000
,
2003
0000
0001
0000
,
0100
0000
0001
0000
,
3010
0100
0010
0100
,
0001
1000
0001
1000
,
0020
0000
0000
0000
,
0130
0100
0001
1000
,
0110
0001
0100
0010
,
0100
1000
0100
0010
,
0100
0001
0010
0100
,
1000
0010
0100
0001
,
1000
0010
0100
1000
,
0001
0100
0010
0001
,
0100
0010
1000
0001
,
1001
0000
0110
0000
,
0001
0100
0010
1000
,
0100
0010
0100
0001
,
0010
1000
0100
0010
,
0001
0010
0100
1000
,
0020
0000
0000
0000
,
0130
0000
1001
0000
,
0100
1000
0100
1000
,
0100
0001
0100
0001
,
0100
1000
0100
1000
,
0100
0001
0100
0000
,
0001
0010
0001
0010
,
1000
0010
1000
0010
,
0001
0010
0001
0010
,
1000
0010
1000
0000
,
0100
0010
0100
0010
,
0100
1000
0100
1000
,
0100
0010
0100
0010
,
0001
0010
0001
0010
,
0100
0010
0100
0010
,
1001
0000
0000
0000
,
2000
0100
0100
3100
,
0002
0100
0100
0103
,
0110
0000
1001
0000
,
0000
0110
0000
0000
;

//---------------dance-single - ----------------
#NOTES:
     dance-single:
     :
     Medium:
     11:
     0.483855,0.588548,0.190816,0.124030,0.000000,355.000000,335.000000,20.000000,13.000000,0.000000,0.000000,0.483855,0.588548,0.190816,0.124030,0.000000,355.000000,335.000000,20.000000,13.000000,0.000000,0.000000:
0000
0000
0000
0000
,
0000
0000
0000
0000
,
0000
0000
0000
0000
,
0000
0000
0000
0000
,
0000
0000
0000
0000
,
1001
0010
1000
0010
,
0100
0001
0010
1000
,
0010
0100
0001
0010
,
1000
0000
0100
0000
0001
1000
0001
0000
,
0010
1000
0100
0010
,
0001
1000
0010
0010
,
1000
0001
0100
0010
,
1000
0100
0100
0001
,
0010
0000
1000
0000
0010
1000
0001
0000
,
0010
1000
0100
0010
,
1000
0000
0001
0000
0100
0001
1000
0000
,
0001
1000
0010
0000
1000
0010
0001
0000
,
0200
0000
0010
0310
,
2002
0000
0000
3003
,
0010
0000
1000
0000
0100
1000
0010
0000
,
0001
0000
0010
0000
1000
0001
0100
0000
,
0010
0000
1000
0000
0001
0100
0010
0000
,
1000
0000
0001
0000
0100
0001
1000
0000
,
0010
0000
1000
0000
0100
0001
0010
0000
,
1000
0000
0001
0000
0100
0001
0010
0000
,
1000
0000
0100
0000
0001
0100
1000
0000
,
0001
1000
0001
1000
0001
1000
0010
0000
,
0010
0001
0010
1000
,
0010
0001
0010
0010
,
1000
0100
0001
0100
,
1000
0100
0001
0001
,
0010
0000
1000
0000
0001
1000
0010
1000
,
0001
0010
1000
0100
,
0001
0000
0010
0000
1000
0001
0100
0001
,
1000
0010
1000
0001
,
1100
0001
0100
0010
,
1010
0001
0011
0001
,
0101
0100
1100
1000
,
0010
0100
0001
1000
,
2100
0000
0100
3100
,
0010
0000
0100
0001
0000
0001
0100
2000
,
0000
0000
0000
0000
,
3010
0000
0010
0000
0100
0001
0100
0010
,
2000
0000
0000
0000
0000
0000
3010
0100
,
0002
0000
0100
0000
,
2003
0000
0010
0000
,
0001
0000
0010
0000
,
3010
0100
0001
0010
0100
1000
0010
0000
,
1000
0010
0100
0001
0100
0010
1000
0000
,
0200
0010
0010
0310
,
1001
0000
0110
0000
,
0001
0100
1000
0100
,
0001
0000
0010
0000
1000
0010
0001
0000
,
0010
1000
0001
0010
,
0100
0000
0001
0000
1000
0001
0100
0000
,
0010
1000
0001
0010
,
1000
0000
0001
0000
0100
0001
1000
0000
,
0010
0000
1000
0000
0001
0000
0100
1000
,
0000
0100
0000
0001
0000
0100
0000
0000
,
0010
1000
0001
0010
,
1000
0000
0100
0000
0001
1000
0001
0000
,
0010
0000
1100
0000
,
0101
0000
1001
0000
,
0210
0010
0010
0310
,
0002
0000
0000
0000
0200
0000
0000
0303
,
0010
0100
0010
0001
0000
0010
0100
1000
,
0000
0010
1000
0100
0000
0001
0000
1001
,
0000
0000
0001
0010
0000
1000
0010
0100
,
0000
0001
0010
0100
0000
1000
0000
1100
,
0000
0000
1000
0010
0000
0100
0001
0010
,
0000
1000
0010
0100
0000
0000
0001
0000
,
0100
1000
0010
0100
,
0101
1100
0100
0101
,
0010
0000
0100
0010
0000
1000
0010
0100
,
0000
0001
0010
0100
0000
1000
0000
0100
,
0000
0000
0001
0010
0000
0100
0010
1000
,
0000
0010
0100
0001
0000
0010
0000
1000
,
0000
0000
0001
1000
0000
0100
0010
0100
,
0002
0000
0000
0000
0000
0000
0000
0003
,
0100
0000
0010
0000
0100
0010
0100
0010
,
0001
0000
1000
0000
0001
1000
0001
0010
,
0000
0010
0001
0010
0100
1000
0010
1000
,
0000
1100
0000
0000
;

//---------------dance-single - ----------------
#NOTES:
     dance-single:
     :
     Hard:
     14:
     0.678760,0.706258,0.343469,0.104949,0.009541,498.000000,462.000000,36.000000,11.000000,0.000000,0.000000,0.678760,0.706258,0.343469,0.104949,0.009541,498.000000,462.000000,36.000000,11.000000,0.000000,0.000000:
// measure 0
0000
0000
0000
0000
,  // measure 1
0000
0000
0000
0000
,  // measure 2
0000
0000
0000
0000
,  // measure 3
0000
0000
0000
0000
,  // measure 4
0000
0000
0000
0000
,  // measure 5
1001
0000
0010
0000
1000
0010
0100
0001
,  // measure 6
0010
0000
0100
0000
0001
1000
0010
0100
,  // measure 7
0001
0000
0100
0000
0001
0010
0100
1000
,  // measure 8
0010
0100
0001
0100
0000
0010
1000
0100
,  // measure 9
0000
0001
0100
0010
0000
0001
1000
0010
,  // measure 10
0000
0010
1000
0001
0000
0001
0010
0100
,  // measure 11
1000
0010
1000
0100
0001
0100
0010
0100
,  // measure 12
0000
1100
0000
0101
0000
1001
0000
0000
,  // measure 13
0010
1000
0001
1000
0010
1000
0001
0000
,  // measure 14
0001
1000
0001
0100
0001
1000
0001
0000
,  // measure 15
0001
0010
1000
0100
0010
0001
0010
0100
,  // measure 16
1000
0010
0100
0001
0010
0000
1100
0000
,  // measure 17
0101
0000
0001
0000
0001
0000
0100
0010
,  // measure 18
2000
0000
0010
0000
,  // measure 19
3010
0001
0010
0100
1000
0010
1000
0100
,  // measure 20
0010
0001
0010
0100
1000
0010
1000
0100
,  // measure 21
0010
0001
0010
0100
0010
1000
0100
0010
,  // measure 22
0001
0010
0100
1000
0010
1000
0001
0000
,  // measure 23
0001
1000
0010
0100
0001
0010
0100
0010
,  // measure 24
1000
0100
0010
0001
0010
0100
0010
0001
,  // measure 25
0010
1000
0100
0010
0001
0100
0010
0100
,  // measure 26
0001
0000
0010
0000
0100
0000
1000
0000
0010
0000
1000
0000
0001
1000
0001
0000
,  // measure 27
0010
0000
1000
0000
0100
1000
0010
0100
,  // measure 28
0001
0000
1000
0000
0010
1000
0001
0100
,  // measure 29
1000
0000
0010
0000
1000
0001
0100
0010
,  // measure 30
1000
0000
0010
0000
0100
0000
0001
0100
,  // measure 31
1100
0000
1000
0000
0010
1000
0100
0010
,  // measure 32
0100
0001
0010
0000
1000
0000
0010
0000
,  // measure 33
0011
0000
0001
0000
0001
0010
0100
0010
,  // measure 34
1000
0000
0001
0010
0000
1000
0100
0000
,  // measure 35
1100
0000
0100
0000
0001
0010
0100
1000
,  // measure 36
1100
0000
0100
0001
0101
0000
0001
0010
,  // measure 37
0011
0000
0010
1000
1010
0000
0001
1000
,  // measure 38
1001
0000
0010
0100
0001
0010
0100
1000
,  // measure 39
0020
0000
0100
0000
0130
0001
0010
0100
,  // measure 40
1000
0000
1000
0100
0000
0100
0001
0200
,  // measure 41
0000
0001
0001
0001
,  // measure 42
0301
0010
0100
1000
0010
1000
0100
0010
,  // measure 43
0200
0000
0000
0000
0310
0001
0010
2000
,  // measure 44
0000
0000
0000
3010
0200
0000
0000
0301
,  // measure 45
0020
0000
0000
1030
0001
0010
0100
0002
,  // measure 46
0000
0000
0000
0103
0000
0010
1000
0000
,  // measure 47
0001
0010
1000
0100
0000
0010
0100
0001
,  // measure 48
0000
0001
0010
0100
1000
0000
1000
2100
,  // measure 49
0000
0100
0100
3100
,  // measure 50
0010
0000
0100
0000
0001
0000
0010
0000
0100
0000
1000
0000
0001
1000
0001
0000
,  // measure 51
1001
0000
0100
0000
0010
1000
0001
0010
,  // measure 52
1000
0000
1001
0000
0010
1000
0100
0010
,  // measure 53
0100
0000
0110
0000
0001
0010
0100
1000
,  // measure 54
0010
0000
0011
0010
0000
0100
0010
1000
,  // measure 55
0000
0001
1000
0010
0000
1000
0100
0001
,  // measure 56
0000
0001
0100
1000
0000
0010
1000
0100
,  // measure 57
0001
0010
0100
1000
0010
1000
0100
0001
,  // measure 58
0000
1100
0000
0101
0000
1001
0000
0000
,  // measure 59
0001
0010
1000
0100
0010
0100
0001
0000
,  // measure 60
0001
0100
0010
1000
0100
0010
1000
0000
,  // measure 61
0001
0010
1000
0100
0010
0100
0001
0010
,  // measure 62
0100
1000
0010
1000
0100
0010
1000
0000
,  // measure 63
2000
0100
0100
3100
,  // measure 64
1001
0000
0110
0000
,  // measure 65
0001
0010
0100
1000
0000
1000
0100
0001
,  // measure 66
0000
0001
0100
1000
0000
1001
0000
1001
,  // measure 67
0000
1000
0010
0001
0000
0001
0010
1000
,  // measure 68
0000
1000
0010
0001
0000
1001
0000
1001
,  // measure 69
0000
0010
1000
0100
0000
0100
1000
0010
,  // measure 70
0000
0010
0100
1000
0000
0010
0100
0001
,  // measure 71
0010
0000
0100
1000
0000
0010
0000
1001
,  // measure 72
0000
0110
0000
1001
0000
0110
0000
0000
,  // measure 73
0001
0010
1000
0010
0000
0010
1000
0010
,  // measure 74
0000
0010
0001
0010
0000
0010
0000
1001
,  // measure 75
0000
0100
0001
0100
0000
0100
0001
0100
,  // measure 76
0000
0100
1000
0100
0000
1001
0000
1001
,  // measure 77
0000
0010
1000
0100
0000
0010
1000
0100
,  // measure 78
0020
0000
0100
0030
,  // measure 79
0010
0001
0010
0100
1000
0010
1000
0100
,  // measure 80
0010
0100
0001
0010
0100
1000
0010
1000
,  // measure 81
0000
0001
1000
0010
1000
0100
0001
0010
,  // measure 82
0000
0110
0000
0000
;
