#TITLE:SAMBA de 恋心;
#SUBTITLE:;
#ARTIST:dj TAKA feat. VENUS;
#TITLETRANSLIT:SAMBA de koigokoro;
#SUBTITLETRANSLIT:;
#ARTISTTRANSLIT:;
#GENRE:REFLEC BEAT;
#CREDIT:;
#BANNER:;
#BACKGROUND:;
#LYRICSPATH:;
#CDTITLE:;
#MUSIC:SAMBA de koigokoro.ogg;
#OFFSET:-0.634003;
#SAMPLESTART:96.719841;
#SAMPLELENGTH:15.000000;
#SELECTABLE:YES;
#DISPLAYBPM:147.000000;
#BPMS:0.000000=146.960007
;
#STOPS:
;
#BGCHANGES:;
#KEYSOUNDS:;
#ATTACKS:;

//---------------dance-single - ----------------
#NOTES:
     dance-single:
     :
     Hard:
     11:
     0.511090,0.474374,0.237980,0.222115,0.245913,393.000000,30.000000,28.000000,0.000000,0.000000,0.000000,0.511090,0.474374,0.237980,0.222115,0.245913,393.000000,30.000000,28.000000,0.000000,0.000000,0.000000:
// measure 0
0000
0000
0000
0000
,  // measure 1
0000
0000
0000
0000
,  // measure 2
0000
0000
0000
0000
,  // measure 3
0000
0000
0000
0000
,  // measure 4
0000
0000
0000
0000
,  // measure 5
2000
0000
0000
3100
0000
0000
0001
0000
,  // measure 6
0020
0000
0000
0130
0000
0000
1000
0000
,  // measure 7
0001
0002
0000
0000
1003
2000
0000
0000
,  // measure 8
3010
0100
0010
0100
0010
0100
0020
0000
0000
0000
0000
0000
,  // measure 9
1030
0000
0010
0000
1000
0001
0100
0000
,  // measure 10
0010
0000
0001
0000
0010
0100
1000
0000
,  // measure 11
0010
0000
0100
0000
0001
1000
0010
0000
,  // measure 12
1000
0010
0100
0001
0200
0000
0310
0000
,  // measure 13
0001
0000
1000
0000
0010
1000
0001
0000
,  // measure 14
0100
0000
0010
0000
0001
1000
0010
0000
,  // measure 15
2000
0000
3010
0000
0001
0100
0010
1000
,  // measure 16
0002
0100
0100
0103
,  // measure 17
0010
0000
0000
1000
0000
0000
0010
0000
0100
0000
0000
0000
1001
0000
0000
0000
,  // measure 18
0010
0000
0000
0100
0000
0000
0010
0000
0001
0000
0000
0000
0011
0000
0000
0000
,  // measure 19
1000
0000
0000
0010
0000
0000
1000
0000
0001
0000
0000
0000
1001
0000
0000
0000
,  // measure 20
0001
0000
0000
0100
0000
0000
0001
0000
1000
0000
0000
0000
1001
0000
0000
0000
,  // measure 21
1000
0100
0001
0000
0001
0100
1000
0000
,  // measure 22
1000
0010
0001
0000
0010
1000
0001
0000
,  // measure 23
0010
1000
0001
0100
0010
1000
0001
0000
,  // measure 24
1100
0101
1100
0101
,  // measure 25
0001
0100
0000
0001
0000
0000
1000
0000
0010
0100
0000
0010
0000
0000
1000
0000
,  // measure 26
0001
1000
0000
0010
0000
0000
1000
0000
0001
0000
0010
0000
1000
0000
0000
0000
,  // measure 27
1000
0010
0000
1000
0000
0000
0001
0000
0100
0001
0000
0100
0000
0000
0010
0000
,  // measure 28
1000
0001
0000
1000
0000
0000
0010
0000
0100
0000
0001
0000
0010
0000
1000
0000
,  // measure 29
0200
0000
0310
0001
1000
0000
0010
0100
,  // measure 30
0002
0000
0103
0000
0010
1000
0001
0100
,  // measure 31
0020
1000
0001
1000
,  // measure 32
0130
0000
0001
0100
0010
1000
0001
0000
,  // measure 33
1100
0000
0000
1100
0000
0000
0000
0000
0101
0000
0000
0101
0000
0000
0000
0000
,  // measure 34
1001
0000
0000
1001
0000
0000
0010
0000
0100
0000
0000
0000
1001
0000
0000
0000
,  // measure 35
0011
0000
0000
0011
0000
0000
0000
0000
1010
0000
0000
1010
0000
0000
0000
0000
,  // measure 36
1001
0000
0000
1001
0000
0000
0010
0000
0100
0000
0000
0000
1100
0000
0000
0000
,  // measure 37
0100
0001
0000
0100
0000
0000
0000
0000
1000
0100
0000
1000
0000
0000
0010
0000
,  // measure 38
0100
0000
0001
1000
0010
0000
1001
0000
,  // measure 39
0010
1000
0000
0010
0000
0000
0001
0000
0100
0001
0000
0100
0000
0000
0010
0000
,  // measure 40
1000
0100
0001
0010
0100
0000
1100
0000
,  // measure 41
0001
0100
0010
0000
1000
0010
0100
0000
,  // measure 42
0001
0100
1000
0100
0001
0100
1000
0000
,  // measure 43
0001
0100
0010
0000
1000
0010
0100
0000
,  // measure 44
1000
0010
0001
0010
1000
0010
0001
0000
,  // measure 45
0100
0010
1000
0000
0001
0100
0010
0000
,  // measure 46
1000
0100
0001
1000
0010
0001
1000
0000
,  // measure 47
0010
1000
0001
1000
0010
1000
0001
1000
,  // measure 48
0100
0001
0100
1000
0100
0001
0100
0000
,  // measure 49
2100
0100
0000
0100
0200
0000
3300
0000
,  // measure 50
0001
1000
0001
1000
0001
1000
0002
0000
0000
0000
0000
0000
,  // measure 51
0203
0000
0000
0000
,  // measure 52
0320
0000
0000
0032
0000
0000
0000
0000
0000
0000
0000
0000
0000
0000
0000
0000
,  // measure 53
1003
2000
0000
0000
0000
0000
0000
0000
,  // measure 54
3002
0000
0000
0000
0000
0000
1003
0100
1000
0100
0000
0000
,  // measure 55
0001
0000
1000
0000
0010
0100
0001
0000
,  // measure 56
1000
0000
0010
0000
1000
0010
0100
0000
,  // measure 57
0001
0100
1000
0000
1000
0100
0001
0000
,  // measure 58
1000
0010
0100
0001
1000
0000
1001
0000
,  // measure 59
0100
0000
0000
1000
0000
0000
0010
0000
0100
0000
0000
0000
1001
0000
0000
0000
,  // measure 60
0010
0000
0000
0100
0000
0000
0001
0000
0010
0000
0000
0000
0011
0000
0000
0000
,  // measure 61
1000
0000
0000
0010
0000
0000
0100
0000
0001
0000
0000
0000
1100
0000
0000
0000
,  // measure 62
0010
0000
0000
1000
0000
0000
0001
0000
0100
0000
0000
0000
0101
0000
0000
0000
,  // measure 63
0001
0100
1000
0100
0001
0100
1000
0000
,  // measure 64
1000
0010
0001
0010
1000
0010
0001
0000
,  // measure 65
1000
0010
0100
0001
0100
0010
1000
0100
,  // measure 66
0020
0230
0302
2003
,  // measure 67
3010
0100
0000
0010
0000
0000
0001
0000
1000
0010
0000
1000
0000
0000
0001
0000
,  // measure 68
0100
0001
0000
0100
0000
0000
0010
0000
1000
0000
0100
0000
0001
0000
0010
0000
,  // measure 69
1000
0001
0000
1000
0000
0000
0010
0000
0100
0001
0000
0010
0000
0000
0100
0000
,  // measure 70
1000
0010
0000
0100
0000
0000
0001
0000
0010
0000
1000
0000
0100
0000
0010
0000
,  // measure 71
0002
0000
0103
0200
0000
0000
0310
0020
,  // measure 72
0000
0000
0000
0000
0000
0000
0000
0000
1030
0000
0000
0001
0000
0000
0100
0000
,  // measure 73
0020
0000
0000
0001
0032
0000
0000
0000
,  // measure 74
1003
0000
0100
0000
1000
0000
0100
0000
1000
0000
0100
0000
1000
0000
0000
0001
0000
0000
0010
0000
0000
0000
0000
0000
;

//---------------dance-single - ----------------
#NOTES:
     dance-single:
     :
     Medium:
     9:
     0.381901,0.385428,0.150721,0.103125,0.178485,305.000000,19.000000,13.000000,0.000000,0.000000,0.000000,0.381901,0.385428,0.150721,0.103125,0.178485,305.000000,19.000000,13.000000,0.000000,0.000000,0.000000:
0000
0000
0000
0000
,
0000
0000
0000
0000
,
0000
0000
0000
0000
,
0000
0000
0000
0000
,
0000
0000
0000
0000
,
2000
0000
0000
3100
,
0020
0000
0000
0031
,
1000
0010
0000
0000
0010
0001
0000
0000
,
0010
0100
0010
0100
0001
0000
0000
0000
,
1000
0000
0010
0000
1000
0001
0100
0000
,
0010
0000
1000
0000
0001
0100
1000
0000
,
0010
0000
0100
0000
0001
1000
0010
0000
,
1000
0000
0001
0000
1000
0010
0100
0001
,
0010
0000
0100
0000
0001
1000
0010
0000
,
0100
0000
0001
0000
1000
0100
0001
0000
,
0010
0000
0100
0000
1000
0010
0001
0000
,
0000
0100
0000
0000
0010
0000
0000
0000
1001
0000
0000
0000
0000
0000
0000
0000
,
1000
0000
0000
0100
0000
0000
0000
0000
0001
0000
0000
0100
0000
0000
0000
0000
,
1000
0000
0000
0100
0000
0000
0000
0000
0001
0000
1000
0000
0010
0000
0000
0000
,
0001
0000
0000
0010
0000
0000
0000
0000
1000
0000
0000
0010
0000
0000
0000
0000
,
0001
0000
0000
0010
0000
0000
0000
0000
1000
0000
0010
0000
0001
0000
0000
0000
,
1000
0010
0100
0000
0001
0000
1001
0000
,
0001
0100
0010
0000
1000
0000
1001
0000
,
0010
1000
0001
0000
0001
0100
1000
0000
,
1000
0010
0100
0001
1000
0000
1001
0000
,
0001
0000
0000
1000
0000
0000
0000
0000
1000
0000
0000
0001
0000
0000
0000
0000
,
0001
0000
0000
0100
0000
0000
0000
0000
1001
0000
1000
0000
0001
0000
0000
0000
,
1000
0000
0000
0010
0000
0000
0000
0000
0001
0000
0000
0010
0000
0000
0000
0000
,
1000
0000
0000
0010
0000
0000
0000
0000
1001
0000
0001
0000
1000
0000
0000
0000
,
0010
1000
0001
0100
0010
0000
1001
0000
,
1000
0010
0100
0001
0010
0000
1000
0000
,
0010
0000
0100
0001
1000
0000
0010
0000
,
0002
0000
0000
0000
,
0103
0000
0000
0010
0000
0000
0000
0000
0100
0000
0000
0010
0000
0000
0000
0000
,
0001
0000
0000
0010
0000
0000
0000
0000
1001
0000
0000
0000
0000
0000
0000
0000
,
1000
0000
0000
0100
0000
0000
0000
0000
1000
0000
0000
0100
0000
0000
0000
0000
,
0010
0000
0000
0001
0000
0000
0000
0000
1001
0000
0000
0000
0000
0000
0000
0000
,
0001
0000
0000
0010
0000
0000
0000
0000
0001
0000
0000
0010
0000
0000
0000
0000
,
1000
0000
0000
0010
0000
0000
0000
0000
1001
0000
0000
0000
0000
0000
0000
0000
,
1000
0000
0000
0100
0000
0000
0000
0000
1000
0000
0000
0100
0000
0000
0000
0000
,
0001
0100
0010
1000
,
1001
0000
1001
0000
0010
1000
0001
0000
,
1001
0000
1001
0000
1000
0001
0100
0000
,
0010
1000
0001
0000
1000
0000
0010
0000
,
1000
0010
0001
0000
0100
0000
0001
0000
,
0100
0010
1000
0000
0010
0000
1001
0000
,
0010
0100
0001
0000
0100
0000
1001
0000
,
0010
1000
0001
0000
0001
0000
1000
0000
,
0010
1000
0001
0000
0001
0000
0010
0000
,
1000
0100
0000
0000
0100
0001
0000
0000
,
0001
1000
0010
0100
0002
0000
0000
0000
,
2003
0000
0000
0010
0000
0000
0000
0000
,
3002
0000
0000
0010
0000
0000
0000
0000
,
0203
0000
1000
0000
,
0320
0000
0000
0000
0000
0000
0000
0000
0001
0000
0000
0000
0000
0000
0000
0030
,
1000
0000
0001
0000
1000
0010
0100
0000
,
0001
0000
0100
0000
0001
0100
0010
0000
,
1000
0100
0001
0000
0001
0100
1000
0000
,
0010
0100
0001
0000
2000
0000
0000
0000
,
3001
0000
0000
1000
0000
0000
0000
0000
0000
1000
0000
0001
0000
0000
0000
0000
,
0100
0000
0000
0010
0000
0000
0000
0000
0000
0010
0000
0100
0000
0000
0001
0000
,
1000
0000
0000
0010
0000
0000
0000
0000
0000
1000
0000
0010
0000
0000
0000
0000
,
0001
0000
0000
0100
0000
0000
0000
0000
0000
0001
0000
0100
0000
0000
0000
0000
,
0010
1000
0001
0000
0100
0000
1100
0000
,
1000
0010
0100
0000
0010
0000
0011
0000
,
0001
0100
0010
0000
1000
0010
0100
0000
,
0002
1000
1003
0000
,
1000
0000
0000
0100
0000
0000
0000
0000
1000
0000
0000
0100
0000
0000
0001
0000
,
0010
0000
0000
0001
0000
0000
0000
0000
0010
0000
0000
0001
0000
0000
0100
0000
,
0010
0000
0000
1000
0000
0000
0000
0000
0010
0000
0000
1000
0000
0000
0001
0000
,
0100
0000
0000
0010
0000
0000
0000
0000
0100
0000
0000
0010
0000
0000
1000
0000
,
0002
0000
0000
0103
0000
0010
0000
2000
,
0000
0000
0000
0000
0000
0000
0000
0000
3001
0000
0000
0010
0000
0000
0100
0000
,
2000
0000
0000
0000
0000
0000
0000
0000
0001
0000
0000
0000
0000
0000
0000
3000
,
0001
0100
0001
1000
0010
0000
1001
0000
;

//---------------dance-single - ----------------
#NOTES:
     dance-single:
     :
     Easy:
     6:
     0.325239,0.326132,0.087259,0.380768,0.015865,228.000000,11.000000,48.000000,0.000000,0.000000,0.000000,0.325239,0.326132,0.087259,0.380768,0.015865,228.000000,11.000000,48.000000,0.000000,0.000000,0.000000:
0000
0000
0000
0000
,
0000
0000
0000
0000
,
0000
0000
0000
0000
,
0000
0000
0000
0000
,
0000
0000
0000
0000
,
2000
0000
3010
0000
,
0002
0000
0103
0000
,
1000
0000
0002
0000
,
1003
0010
0100
0000
,
0001
1000
0010
0100
,
1000
0010
0200
0301
,
0010
1000
0001
0100
,
0001
1000
0020
0130
,
0001
1000
0010
1000
,
0001
0100
1000
0010
,
0002
0000
2003
0000
,
3010
0100
0220
0330
,
1000
0010
0100
0001
,
1000
0010
0002
0103
,
1000
0010
1000
0001
,
0100
0001
0020
0130
,
1000
0000
0000
0000
0020
0000
0000
0000
1000
0000
0000
0000
0001
0030
0000
0000
,
0100
0000
0000
0000
0002
0000
0000
0000
0100
0000
0000
0000
0010
0003
0000
0000
,
1000
0010
0100
0001
,
1100
0101
1001
0000
,
2000
3010
0001
1000
,
0002
0013
1000
0001
,
0200
0000
0000
0300
0010
0000
0000
0000
1000
0000
0000
0000
0001
0000
0000
0000
,
0020
0130
1000
0001
,
1000
0100
0010
0001
,
1000
0010
0100
0001
,
0200
0010
1000
0010
,
0302
0000
2000
3003
,
0210
0000
0310
0000
,
0100
0000
0100
1000
,
1002
0000
1003
0000
,
0001
0000
1000
0010
,
0012
0000
0013
0000
,
2000
0000
3010
0001
,
2100
0000
3100
0000
,
0002
0000
0103
0010
,
1000
0001
1000
0001
,
0010
0100
0010
0100
,
1000
0010
0001
0000
,
1000
0100
0001
0000
,
1000
0010
0100
0001
,
1000
0010
0100
0001
,
0020
0000
0130
0001
,
2000
0000
0000
0000
,
3002
0000
2003
0000
,
3010
0100
1010
0000
,
0100
0001
0100
1000
,
0100
0001
0100
1000
,
1000
0010
0001
0010
,
2000
0000
3001
0010
,
0001
1000
0010
0001
,
0100
0010
1000
0001
,
0020
0000
0130
0000
,
1000
0001
1001
0000
,
0001
0000
0000
0002
0000
0000
0000
0000
0000
0000
0000
0000
0000
0000
0000
0000
,
1003
0000
0000
2000
0000
0000
0000
0000
0000
0000
0000
0000
0000
0000
0000
0000
,
3010
0000
0000
0020
0000
0000
0000
0000
0000
0000
0000
0000
0000
0000
0000
0000
,
0130
0000
0000
0200
0000
0000
0000
0000
0000
0000
0000
0000
0000
0000
0000
0000
,
0310
1000
0001
1000
,
0010
1000
0010
0100
,
0002
0100
0010
0100
,
2003
0010
0100
0010
,
3001
0100
0020
1030
,
0001
0100
2000
3010
,
0100
0001
0020
1030
,
0001
1000
0002
0013
,
2000
0000
3020
0000
,
0032
0000
0203
0000
,
2300
0000
3002
0000
,
1003
0010
0100
1001
;

//---------------dance-single - ----------------
#NOTES:
     dance-single:
     :
     Beginner:
     2:
     0.128056,0.148242,0.007933,0.095192,0.000000,100.000000,1.000000,12.000000,0.000000,0.000000,0.000000,0.128056,0.148242,0.007933,0.095192,0.000000,100.000000,1.000000,12.000000,0.000000,0.000000,0.000000:
0000
0000
0000
0000
,
0000
0000
0000
0000
,
0000
0000
0000
0000
,
0000
0000
0000
0000
,
0000
0000
0000
0000
,
1000
0000
0000
0000
,
0100
0000
0000
0000
,
0010
0000
0000
0000
,
0002
0000
0003
0000
,
1000
0000
0100
0000
,
1000
0000
0010
0000
,
1000
0000
0100
0000
,
1000
0000
0010
0000
,
0001
0000
0010
0000
,
0001
0000
0100
0000
,
0001
0000
0010
0000
,
0001
0000
0100
0000
,
1000
0000
0100
0000
,
0010
0000
0001
0000
,
1000
0000
0010
0000
,
0100
0000
0001
0000
,
1000
0000
0000
0000
,
0001
0000
0000
0000
,
0100
0000
0000
0000
,
0010
0000
0000
0000
,
0001
0000
0010
0000
,
0100
0000
1000
0000
,
0001
0000
0100
0000
,
0010
0000
1000
0000
,
0001
0000
0000
0000
,
0010
0000
0000
0000
,
0100
0000
0000
0000
,
1000
0000
0000
0000
,
0100
0000
0000
0000
,
1000
0000
0000
0000
,
0010
0000
0000
0000
,
0001
0000
0000
0000
,
0100
0000
0000
0000
,
1000
0000
0000
0000
,
0010
0000
0000
0000
,
0001
0000
0000
0000
,
1000
0000
0100
0000
,
1000
0000
0010
0000
,
0001
0000
0100
0000
,
0001
0000
0010
0000
,
1000
0000
0100
0000
,
0010
0000
0001
0000
,
0010
0000
0100
0000
,
1000
0000
0000
0000
,
0001
0000
1000
0000
,
2002
0000
0000
0000
,
3003
0000
0000
0000
,
0000
0000
0000
0000
,
0000
0000
0000
0000
,
0000
0000
0000
0000
,
1000
0000
0010
0000
,
0100
0000
0001
0000
,
1000
0000
0001
0000
,
0100
0000
0010
0000
,
0002
0000
0003
0000
,
2000
0000
3000
0000
,
0002
0000
0003
0000
,
2000
0000
3000
0000
,
0100
0000
1000
0000
,
0100
0000
0001
0000
,
0010
0000
0020
0000
,
0030
0000
0000
0000
,
1000
0000
0100
0000
,
1000
0000
0010
0000
,
0100
0000
0001
0000
,
0010
0000
0001
0000
,
0200
0000
0000
0000
,
0320
0000
0000
0000
,
2030
0000
0000
0000
,
0002
0000
0000
3003
;
