#TITLE:量子の海のリントヴルム;
#SUBTITLE:;
#ARTIST:黒猫ダンジョン;
#TITLETRANSLIT:Ryoushi no umi no Lindwurm;
#SUBTITLETRANSLIT:;
#ARTISTTRANSLIT:Kuroneko Dungeon;
#GENRE:jubeat;
#CREDIT:;
#BANNER:;
#BACKGROUND:;
#LYRICSPATH:;
#CDTITLE:;
#MUSIC:Ryoushi no umi no Lindwurm.ogg;
#OFFSET:-0.002000;
#SAMPLESTART:71.951912;
#SAMPLELENGTH:15.000000;
#SELECTABLE:YES;
#BPMS:0.000000=280.000000
;
#STOPS:
;
#BGCHANGES:0.000=Ryoushi no umi no Lindwurm.avi=1.000=0=0=0=StretchNoLoop====,
99999=-nosongbg-=1.000=0=0=0 // don't automatically add -songbackground-
;
#KEYSOUNDS:;
#ATTACKS:;

//---------------dance-single - ----------------
#NOTES:
     dance-single:
     :
     Easy:
     7:
     0.418414,0.572623,0.375265,0.375265,0.000000,320.000000,279.000000,41.000000,41.000000,0.000000,0.000000,0.418414,0.572623,0.375265,0.375265,0.000000,320.000000,279.000000,41.000000,41.000000,0.000000,0.000000:
// measure 0
0000
0000
0000
0000
,  // measure 1
0000
0000
0000
0000
,  // measure 2
0000
0000
0000
0000
,  // measure 3
0000
0000
0000
0000
,  // measure 4
0000
0000
0000
0000
,  // measure 5
0000
0000
0000
0000
,  // measure 6
0000
0000
1000
0000
0000
0010
0000
0100
,  // measure 7
0000
0001
0000
0000
1000
0000
0010
0000
,  // measure 8
0000
0100
0000
0001
0000
0100
0000
0000
,  // measure 9
0010
2000
0000
3002
,  // measure 10
0000
0000
0000
1000
,  // measure 11
0000
0000
1003
0000
0010
0000
0000
0100
,  // measure 12
0000
0001
0000
1000
0000
0000
0010
0000
,  // measure 13
0100
0000
0000
0001
0000
1000
0000
0010
,  // measure 14
0000
0100
0001
1000
,  // measure 15
0020
0000
0000
0000
,  // measure 16
0100
0000
0130
0001
,  // measure 17
0000
1000
0000
0010
0000
0100
0000
0000
,  // measure 18
1000
0000
0000
0000
1000
0000
0000
0001
,  // measure 19
0000
0100
0000
0010
0000
0000
0001
0000
,  // measure 20
0000
0020
0000
2030
,  // measure 21
0000
3200
0000
0320
,  // measure 22
0000
0032
0000
0203
,  // measure 23
0000
0310
1000
0001
,  // measure 24
0000
0110
0000
1100
,  // measure 25
0000
0101
0000
1001
,  // measure 26
0000
0010
0000
0100
,  // measure 27
0000
0010
0000
1000
,  // measure 28
0001
0000
0100
0000
0000
0010
0000
0000
,  // measure 29
1000
0000
0000
0010
0000
0000
0100
0000
,  // measure 30
0000
0001
0000
0000
0100
0000
0000
0001
,  // measure 31
0000
0000
0010
0000
0000
0100
0000
0000
,  // measure 32
0010
0000
0000
0100
0000
0000
0001
0000
,  // measure 33
0000
1000
0000
0000
0001
0000
0000
1000
,  // measure 34
0000
0001
0100
1000
,  // measure 35
0000
1001
0000
1001
,  // measure 36
0000
1000
0100
0001
,  // measure 37
0000
1001
0000
1001
,  // measure 38
0000
0010
1000
0010
,  // measure 39
0000
0010
0001
0010
,  // measure 40
0000
0100
0000
0001
,  // measure 41
0000
1000
0000
0110
,  // measure 42
0000
0001
0100
0001
,  // measure 43
0000
1000
0100
1000
,  // measure 44
0000
0010
0000
0100
,  // measure 45
0000
0001
0000
1001
,  // measure 46
0000
0000
1000
0000
0000
0010
0000
0000
,  // measure 47
0100
0000
0000
0001
0000
0000
0100
0000
,  // measure 48
0000
0101
0000
1100
,  // measure 49
0000
0101
0000
1100
,  // measure 50
0000
0000
0001
0000
0000
0100
0000
0000
,  // measure 51
0010
0000
0000
1000
0000
0000
0010
0000
,  // measure 52
0000
1010
0000
0011
,  // measure 53
0000
1010
0000
0011
,  // measure 54
0000
0001
0100
0010
,  // measure 55
1000
0010
0000
1010
,  // measure 56
0000
1000
0010
0100
,  // measure 57
0001
0100
0000
0101
,  // measure 58
0000
0100
0000
1000
,  // measure 59
0000
0100
0000
0001
,  // measure 60
0000
0010
0000
1000
,  // measure 61
0000
0010
1000
0001
,  // measure 62
0100
0110
0000
0101
,  // measure 63
0000
0010
0100
0001
,  // measure 64
1000
0110
0000
1100
,  // measure 65
0000
0001
0000
0100
,  // measure 66
0000
1000
0000
0010
,  // measure 67
0000
0001
0000
0110
,  // measure 68
0000
2002
0000
3003
,  // measure 69
0002
0000
0000
2003
,  // measure 70
0000
0000
3020
0000
,  // measure 71
0000
0230
0000
0000
,  // measure 72
0302
0000
0000
0000
,  // measure 73
0000
0000
0000
0000
,  // measure 74
1003
0010
0100
0000
,  // measure 75
0001
0000
1001
0000
,  // measure 76
0001
0100
0010
0000
,  // measure 77
0010
0100
0001
0000
,  // measure 78
1000
0000
1010
0000
,  // measure 79
0001
0100
0010
0000
,  // measure 80
1000
0010
0100
0000
,  // measure 81
0001
0000
1001
0000
,  // measure 82
0010
0100
1000
0000
,  // measure 83
0010
0100
0001
0000
,  // measure 84
0010
0100
1000
0100
,  // measure 85
0010
0000
0110
0000
,  // measure 86
0001
0010
0100
0010
,  // measure 87
0001
0000
1001
0000
,  // measure 88
0001
0000
0000
0100
0000
1000
0000
0000
,  // measure 89
0010
0000
0000
0100
0000
0010
0000
0000
,  // measure 90
0001
1000
0010
0100
,  // measure 91
0110
0000
1001
0000
,  // measure 92
0010
1000
0001
0100
,  // measure 93
0010
0000
1001
0000
,  // measure 94
0010
1000
0001
0100
,  // measure 95
0010
0000
0110
0000
,  // measure 96
1000
0000
0000
0010
0000
0100
0000
0000
,  // measure 97
0001
0000
0000
0010
0000
0100
0000
0000
,  // measure 98
0010
1000
0001
0000
,  // measure 99
1001
0000
0110
0000
,  // measure 100
1000
0000
0000
0100
0000
0000
0010
0000
,  // measure 101
0000
0001
0000
0000
0101
0000
0000
0000
,  // measure 102
0001
0000
0000
0100
0000
0000
0010
0000
,  // measure 103
0000
2200
0000
0000
0000
0000
3300
0000
,  // measure 104
1000
0000
0000
0010
0000
0000
0100
0000
,  // measure 105
0000
0001
0000
0000
1001
0000
0000
0000
,  // measure 106
0100
0000
0000
1000
0000
0000
0010
0000
,  // measure 107
0000
0022
0000
0000
0000
0000
0000
0000
,  // measure 108
0033
0000
0000
2000
,  // measure 109
0000
3200
0000
0320
,  // measure 110
0000
0032
0000
1003
,  // measure 111
0000
0000
0000
0002
,  // measure 112
0000
0203
0000
0320
,  // measure 113
0000
2030
0000
3001
,  // measure 114
0000
0000
0000
0020
,  // measure 115
0000
2030
0000
3020
,  // measure 116
0000
0230
0000
0301
,  // measure 117
0000
0000
0000
0020
,  // measure 118
0000
0230
0000
2300
,  // measure 119
0000
3020
0000
0230
,  // measure 120
0000
0000
0300
0002
,  // measure 121
0000
0000
0000
0203
0000
0000
0000
0000
,  // measure 122
0320
0000
0000
0000
0000
2030
0000
0000
,  // measure 123
0000
0000
0000
0000
,  // measure 124
0000
0000
0000
0000
,  // measure 125
0000
3000
0000
0000
0000
0000
0000
0000
;

//---------------dance-single - ----------------
#NOTES:
     dance-single:
     :
     Beginner:
     5:
     0.214437,0.392827,0.137292,0.201362,0.000000,164.000000,149.000000,15.000000,22.000000,0.000000,0.000000,0.214437,0.392827,0.137292,0.201362,0.000000,164.000000,149.000000,15.000000,22.000000,0.000000,0.000000:
0000
0000
0000
0000
,
0000
0000
0000
0000
,
0000
0000
0000
0000
,
0000
0000
0000
0000
,
0000
0000
0000
0000
,
0000
0000
0000
0000
,
0000
1000
0000
0000
0000
0010
0000
0000
,
0000
0000
0000
0100
,
0000
0001
0000
0000
0000
0000
0000
0000
,
0000
0000
0000
0000
0000
2002
0000
0000
,
0000
0000
0000
3003
,
0000
0000
0001
0000
,
0000
0000
0000
0100
0000
0000
0000
0000
,
1000
0000
0000
0010
,
0000
0000
0000
0000
,
2002
0000
0000
0000
,
3003
0000
0000
0100
,
0000
0000
1000
0000
,
0000
0010
0000
0000
,
0000
0000
0001
0000
,
0000
0200
0000
0000
,
0000
0000
0000
0000
,
0000
0320
0000
0000
,
0000
0000
0000
0030
,
0000
1000
0000
0001
,
0000
1000
0000
0001
,
0000
0100
0000
0010
,
0000
0100
0000
0000
,
0000
1000
0000
0000
,
0100
0000
0000
0010
,
0000
0000
0001
0000
,
0000
1000
0000
0000
,
0010
0000
0000
0100
,
0000
0000
0001
0000
,
0000
2002
0000
0000
,
0000
3003
0000
0000
,
0000
0220
0000
0000
,
0000
0330
0000
0000
,
0000
1000
0000
0100
,
0000
1000
0000
0000
,
0000
0100
0000
0010
,
0000
0100
0000
0000
,
0000
0010
0000
0001
,
0000
0010
0000
0000
,
0000
0001
0000
1000
,
0000
0001
0000
0000
,
0000
1000
0000
0100
,
0000
1000
0000
0000
,
0000
0010
0000
0100
,
0000
0010
0000
0000
,
0000
0001
0000
0010
,
0000
0001
0000
0000
,
0000
1000
0000
0001
,
0000
1000
0000
0000
,
0000
0100
0000
1000
,
0000
0100
0000
1000
,
0000
0100
0000
0010
,
0000
0100
0000
0010
,
0000
2002
0000
0000
,
0000
0000
0000
0000
,
0000
3003
0000
0000
,
0000
0001
0000
0100
,
0000
0010
0000
0000
,
0000
0100
0000
0010
,
0000
1000
0000
0001
,
0000
0220
0000
0000
,
0000
0000
0000
0000
,
0000
0030
0300
0000
0000
0000
0000
0000
,
0000
1000
0000
0000
,
0010
0000
0000
0100
,
0000
0000
0001
0000
,
0000
1000
0000
0000
,
0220
0000
0000
0000
,
0330
0000
0000
0000
,
0000
0000
0000
0001
,
0000
1000
0000
0000
,
0010
0000
0100
0000
,
0000
1000
0000
0100
,
0000
0000
0010
0000
,
0100
0000
0000
0001
,
0000
0010
0000
0000
,
1000
0000
0100
0000
,
0000
0010
0000
0100
,
0000
0000
0001
0000
,
1000
0000
0010
0000
,
1000
0000
0010
0000
,
0001
0000
0010
0000
,
0001
0000
0010
0000
,
1000
0000
1001
0000
,
0001
0000
1001
0000
,
0100
0000
0010
0000
,
2002
0000
3003
0000
,
0100
0000
0010
0000
,
1000
0000
0001
0000
,
0100
0000
0000
0000
0001
0000
0000
0010
,
0000
0000
1000
0000
,
0010
0000
0110
0000
,
0100
0000
0110
0000
,
1000
0000
0001
0000
,
0100
0000
0010
0000
,
2002
0000
0000
0000
,
0000
0000
0000
3003
0000
0000
0000
0000
,
0010
0000
0000
0100
,
0000
0000
0000
0000
,
2002
0000
0000
0000
,
0000
0000
0000
3003
0000
0000
0000
0000
,
0100
0000
0000
0010
,
0000
0000
0000
0000
,
0110
0000
0000
0000
,
1000
0000
0000
0010
,
0000
0000
0000
0100
,
0000
0000
0000
0001
,
0000
0000
0000
0100
,
0000
0000
1000
0000
,
0000
0000
0000
0010
,
0000
0000
0000
1000
,
0000
0000
0000
0010
,
0000
0000
0000
0001
,
0000
0000
0100
0000
,
0000
0000
1000
0000
,
0000
0000
0000
0001
,
0000
0000
0000
0100
0000
0000
0000
0000
,
0010
0000
0000
0000
0000
1000
0000
0000
;

//---------------dance-single - ----------------
#NOTES:
     dance-single:
     :
     Medium:
     12:
     0.579243,0.687148,0.155598,0.128139,0.000000,443.000000,426.000000,17.000000,14.000000,0.000000,0.000000,0.579243,0.687148,0.155598,0.128139,0.000000,443.000000,426.000000,17.000000,14.000000,0.000000,0.000000:
0000
0000
0000
0000
,
0000
0000
0000
0000
,
0000
0000
0000
0000
,
0000
0000
0000
0000
,
0000
0000
0000
0000
,
0000
0000
0000
0000
,
0000
0000
1000
0000
0000
0100
0000
0001
,
0000
0100
0000
1000
0010
0000
0100
0000
,
0000
0100
0000
0010
0000
1000
0000
0001
,
0100
0010
0100
0002
,
0000
0000
0000
1003
,
0000
0000
1000
0000
0010
0000
0000
0100
,
0000
0001
0000
1000
0000
0010
0100
0000
,
0001
0000
0000
1000
0000
0010
0000
0100
,
0000
0001
0100
0000
0010
0000
1000
0000
,
0020
0000
0100
0000
,
0100
0000
0130
0001
,
0000
1000
0000
0010
0000
0100
0001
0000
,
0100
0000
0000
0000
0010
0000
0000
0100
,
0000
0010
0000
1000
0001
0000
0100
0000
,
0010
1000
0001
0100
,
0010
0100
1000
0010
,
0100
0001
0100
0010
,
1000
0100
0010
1001
,
0000
0001
0100
1000
,
0010
1000
0100
0010
,
0100
0001
0100
0010
,
1000
0001
0100
0110
,
0000
0000
0001
0000
0000
0100
0000
0000
,
0010
0000
0000
1000
0000
0000
0010
0000
,
0000
1000
0000
0000
0001
0000
0000
0100
,
0000
0000
0010
0000
1000
0010
0000
0000
,
0100
0000
0001
0100
0000
0000
0010
0000
,
1000
0001
0000
0000
0010
0000
0100
0010
,
0000
0000
0001
0010
0000
0100
0000
1000
,
0000
0010
0100
0110
,
0000
0000
1000
0100
0000
0010
0000
0001
,
0000
0001
1000
1001
,
0000
0010
1000
0100
,
0010
0100
0001
0010
,
0100
1000
0010
0100
,
0001
1000
0010
0110
,
0000
0001
0100
0010
,
1000
0100
0010
0100
,
0001
0010
0100
1000
,
0010
0100
0010
0110
,
0000
0000
0001
0000
0000
0100
0000
0000
,
0010
0000
0000
1000
0000
0000
0010
0000
,
1000
0000
0001
0000
0000
0100
0000
0000
,
0010
1000
0001
1001
,
0000
0000
1000
0000
0000
0010
0000
0000
,
0100
0000
0000
0001
0000
0000
0100
0000
,
0001
0000
1000
0000
0000
0010
0000
0000
,
0100
0001
1000
1001
,
0000
0001
0100
1000
,
0010
0000
0100
0010
0100
0000
0001
0000
,
0010
0100
1000
0010
,
0100
0000
0001
1000
0001
0000
0010
0000
,
0100
0000
1000
0000
0000
0010
0000
0000
,
0100
0000
0000
0001
0000
0000
0100
0000
,
0010
1000
0001
0100
,
0000
1000
0010
0001
,
0100
0000
0010
0100
0010
0000
1000
0000
,
0100
0010
0001
0100
,
0010
0000
1000
0001
1000
0000
0100
0000
,
0010
0000
0001
0000
0000
0100
0000
0000
,
0010
0000
0000
1000
0000
0000
0010
0000
,
0100
0001
1000
0010
,
0100
2002
0003
0000
,
3010
0000
0000
1000
0000
0000
0001
0000
,
0000
0100
0000
0000
0010
0000
0000
1000
,
0000
0000
0001
0000
0000
0110
0000
0000
,
2002
0000
0000
0000
,
0000
0000
0000
3003
,
0001
1000
0010
0100
,
0001
1000
0010
0100
,
0001
0010
0100
1000
,
0010
0100
0001
0100
,
0010
0000
1000
0000
0001
1000
0001
0000
,
0010
1000
0100
0010
,
0100
0001
0010
1000
,
0100
0010
0100
0000
0010
0000
0001
0000
,
0010
0100
1000
0010
,
0100
0000
0001
0000
1000
0001
1000
0000
,
0100
0001
0100
0010
,
1000
0000
0010
0000
0100
0010
0100
0000
,
1000
0001
0100
0010
,
1000
0000
0001
0000
1000
0001
1000
0000
,
0100
0010
0000
1000
0000
1001
0000
0000
,
1000
0001
0000
0100
0000
0110
0000
0000
,
1000
0001
0100
0010
,
1000
0000
0001
0000
0100
0010
0100
0000
,
0010
1000
0010
0100
,
0001
0000
0100
0000
0010
0100
0010
0000
,
0001
1000
0010
0100
,
0001
0000
1000
0000
0001
1000
0001
0000
,
0010
0100
0000
0001
0000
1001
0000
0000
,
0001
1000
0000
0010
0000
0110
0000
0000
,
0001
1000
0010
0100
,
0001
0000
1000
0000
0010
0100
0010
0000
,
0001
0000
0100
0010
0000
0010
1000
0000
,
1000
0001
0000
0000
0001
0000
1000
0000
,
0010
0000
0000
0100
0000
0000
0001
0000
,
0000
2002
0000
0000
3003
0000
0000
0000
,
1000
0000
0010
0100
0000
0100
0001
0000
,
0001
1000
0000
0000
1000
0000
0001
0000
,
0100
0000
0000
0010
0000
0000
1000
0000
,
0000
2002
0000
0000
0000
0000
0000
0000
,
3003
0000
0000
0001
,
1000
0010
0100
0001
,
0100
0010
1000
0001
,
0100
0010
0000
0010
0100
0000
0001
0000
,
1000
0010
0100
0001
,
0010
1000
0100
0010
,
0001
1000
0000
1000
0001
0000
0010
0000
,
0100
1000
0010
0100
,
0001
0010
1000
0010
,
0100
0010
0000
0010
0100
0000
0001
0000
,
1000
0010
0100
0001
,
0010
0100
1000
0010
,
1000
0001
0000
0001
1000
0000
0020
0000
,
0000
0000
0000
0230
0000
0000
0000
0000
,
0302
0000
0000
0000
0000
2000
0000
0000
,
0000
0000
0000
0000
,
0000
0000
0000
0000
,
0000
3003
0000
0000
0000
0000
0000
0000
;

//---------------dance-single - ----------------
#NOTES:
     dance-single:
     :
     Hard:
     14:
     0.772759,0.973459,0.292890,0.164751,0.000000,591.000000,559.000000,32.000000,18.000000,0.000000,0.000000,0.772759,0.973459,0.292890,0.164751,0.000000,591.000000,559.000000,32.000000,18.000000,0.000000,0.000000:
0000
0000
0000
0000
,
0000
0000
0000
0000
,
0000
0000
0000
0000
,
0000
0000
0000
0000
,
0000
0000
0000
0000
,
0000
0000
0000
0000
,
0000
0000
1000
0000
0010
0100
0000
0001
,
0000
0100
0000
0010
1000
0000
0100
0000
,
0010
0100
0000
0001
0000
1000
0000
0010
,
0100
0001
1000
0010
0100
0010
2000
0000
,
0000
0000
0000
0000
,
0000
0000
0000
0000
3001
0000
0100
0010
,
0000
1000
0000
0010
0000
0100
0001
0000
,
0010
0000
0100
0010
0000
1000
0000
0001
,
0000
0100
0010
1000
0001
0100
0010
0100
,
0002
0000
0000
0000
,
0000
0000
0000
0103
,
0010
1000
0000
0010
0000
0100
0001
0000
,
2002
0000
3003
0000
0010
0000
0100
0001
,
0000
0100
0000
0010
1000
0000
2002
0000
,
3003
0000
0100
0000
0001
1000
0010
0000
,
0100
0010
1000
0000
0001
0000
0100
0000
,
0010
0000
1000
0000
0001
0100
0010
0000
,
1000
0010
0100
0000
0001
0000
1000
0000
,
0010
1100
0100
0101
,
0001
1001
1000
1010
,
0010
0000
0100
0010
1000
0000
0001
0100
,
0010
0000
0100
0001
1000
0010
0100
0000
,
0001
0000
1000
0000
0010
1000
0000
1000
,
0100
0000
0100
0010
0000
0010
0001
0000
,
0001
0010
0000
0010
1000
0000
1000
0001
,
0000
0001
0100
0000
0100
0010
0000
0010
,
1000
0000
1000
0001
0000
0001
1000
0000
,
1000
0010
0000
0010
0100
0000
0100
0001
,
0000
0001
1000
0010
0000
0100
0000
0001
,
0000
0000
1000
0010
0100
0001
0100
0010
,
0000
0000
0001
0100
0000
0010
0000
1000
,
0000
0000
0001
0100
0010
1000
0010
0100
,
0000
0010
1000
0100
,
0010
0100
0001
0010
,
0100
1000
0010
0100
,
0001
0000
1000
0001
1000
0000
0010
0100
,
0010
0100
0001
0000
1000
0000
0010
0000
,
0100
0001
0010
1000
,
0100
0010
1000
0001
,
0100
0000
0001
1000
0001
0000
0100
0010
,
0100
0010
1000
0000
0001
0000
0100
0000
,
0010
1000
0001
0100
,
0010
1000
0010
0100
,
0001
0000
1000
0010
1000
0010
1000
0000
,
0000
0001
1000
0010
,
0100
0001
1000
0010
,
0100
0001
0100
0010
,
1000
0000
0001
0100
0001
0100
0001
0000
,
0000
0000
0010
0000
0100
0000
1000
0100
,
1000
0000
0001
0010
0001
0010
0000
0000
,
0010
0000
1000
0000
0100
0000
0001
0010
,
0001
0000
0100
0010
0100
0010
0000
0000
,
1001
0000
0100
0010
0000
0010
0001
0000
,
0001
1000
0000
1000
0001
0000
0001
0100
,
0000
0110
0000
0010
0001
0000
1000
0000
,
0110
0000
0100
0000
0010
0000
0001
0010
,
0001
0000
1000
0100
1000
0100
0000
0000
,
0100
0000
0001
0000
0010
0000
1000
0100
,
1000
0000
0010
0100
0010
0100
0000
0000
,
1001
0000
0010
0100
0000
0100
1000
0000
,
1000
0001
0000
0001
1000
0000
1000
0010
,
0000
0110
0000
0100
1000
0000
0001
0000
,
0100
1001
0000
0000
,
1100
0000
0000
0101
0000
0000
0011
0000
,
0000
1010
0000
0000
0101
0000
0000
1100
,
0000
0000
0110
0000
0000
1001
0000
0000
,
0220
0000
0000
0330
,
0000
0000
0000
0100
0010
0100
0010
0000
,
0001
0100
0010
1000
,
0100
0010
0100
0001
,
0010
0001
0100
0010
1000
0000
0001
0000
,
0010
1000
0001
0010
,
0100
0000
1000
0000
0010
0100
0001
1000
,
0010
0100
0001
0010
,
0100
1000
0010
0100
,
0001
1000
0010
0100
0001
0000
0010
0000
,
0100
1000
0010
0100
,
0001
0000
0010
0100
0010
1000
0001
0000
,
0010
0100
0010
1000
,
0001
0100
0001
0100
0010
0000
1000
0000
,
0001
0100
0010
0001
,
1000
0010
1000
0010
0100
0000
0100
0000
,
0001
0010
0100
1000
0000
1000
0001
0000
,
1000
0010
0100
0001
0000
0001
1000
0000
,
0001
1000
0001
1000
0010
0100
0010
0100
,
1000
0100
0010
0001
1000
0000
1001
0000
,
0100
0010
0100
0001
,
1000
0010
1000
0010
0100
0000
0001
0000
,
1000
0010
0100
1000
,
0001
0100
0001
0100
0010
0000
0010
0000
,
1000
0100
0010
0001
0000
0001
1000
0000
,
0001
0100
0010
1000
0000
1000
0001
0000
,
1000
0001
1000
0001
0100
0010
0100
0010
,
0001
0010
0100
1000
0001
0000
1001
0000
,
1100
0000
0100
1000
0000
1000
0010
0000
,
0010
0100
0000
0100
0001
0010
1000
0000
,
0010
0000
0100
0001
0000
0001
1000
0000
,
1000
2002
0000
0000
0000
0000
3003
0000
,
0011
0000
0010
0001
0000
0001
0100
0000
,
0100
0010
0000
0010
1000
0100
0001
0000
,
0100
0000
0010
1000
0000
1000
0001
0000
,
0001
2002
0000
0000
0000
0000
3003
0000
,
0110
0000
0000
0000
0000
0000
0010
1000
,
0010
0100
0001
0100
0010
1000
0010
0100
,
0001
0100
0010
1000
0010
0100
0001
1000
,
0020
0000
0000
0000
0030
0000
1000
0100
,
1000
0001
0010
0001
1000
0100
1000
0001
,
0010
0001
1000
0100
1000
0001
0010
0100
,
2000
0000
0000
0000
3000
0000
0001
0010
,
0001
1000
0100
1000
0001
0010
0001
1000
,
0100
1000
0001
0010
0001
1000
0100
0010
,
0002
0000
0000
0000
0003
0000
0100
0001
,
0100
0010
1000
0010
0100
0001
0100
0010
,
1000
0010
0100
0001
0100
0010
1000
0001
,
0200
0000
0300
0110
,
0000
0000
0000
1100
0000
0000
0000
0000
,
0101
0000
0000
0000
0000
2002
0000
0000
,
0000
0000
0000
0000
,
0000
0000
0000
0000
,
0000
3003
0000
0000
0000
0000
0000
0000
;
