#TITLE:落書き;
#SUBTITLE:;
#ARTIST:Naoki Maeda feat. ATSUMI;
#TITLETRANSLIT:Rakugaki;
#SUBTITLETRANSLIT:;
#ARTISTTRANSLIT:;
#GENRE:DDR;
#CREDIT:;
#BANNER:;
#BACKGROUND:;
#LYRICSPATH:;
#CDTITLE:;
#MUSIC:Rakugaki.ogg;
#OFFSET:2.809000;
#SAMPLESTART:68.310097;
#SAMPLELENGTH:15.000000;
#LASTBEATHINT:2.160114;
#SELECTABLE:YES;
#BPMS:0.000000=73.000000
;
#STOPS:
;
#BGCHANGES:;
#KEYSOUNDS:;
#ATTACKS:;

//---------------dance-single - ----------------
#NOTES:
     dance-single:
     :
     Beginner:
     1:
     0.068703,0.099249,0.037719,0.018860,0.004715,51.000000,47.000000,4.000000,2.000000,0.000000,0.000000,0.068703,0.099249,0.037719,0.018860,0.004715,51.000000,47.000000,4.000000,2.000000,0.000000,0.000000:
// measure 0
0000
0000
0000
0000
,  // measure 1
0000
0000
0000
0000
,  // measure 2
0000
0000
0000
0000
,  // measure 3
1000
0000
0100
0000
,  // measure 4
0010
0000
0001
0000
,  // measure 5
1000
0000
0000
0000
,  // measure 6
0001
0000
0000
0000
,  // measure 7
1000
0000
0000
0000
,  // measure 8
0001
0000
0000
0000
,  // measure 9
0010
0000
0100
0000
,  // measure 10
0010
0000
0100
0000
,  // measure 11
0001
0000
0000
0000
,  // measure 12
1000
0000
0000
0000
,  // measure 13
0010
0000
1000
0000
,  // measure 14
0001
0000
0100
0000
,  // measure 15
1000
0000
0010
0000
,  // measure 16
0100
0000
0001
0000
,  // measure 17
2000
0000
3000
0000
,  // measure 18
0002
0000
0003
0000
,  // measure 19
0100
0000
0100
0000
,  // measure 20
0010
0000
0010
0000
,  // measure 21
0000
0000
0000
0000
,  // measure 22
1000
0000
0001
0000
,  // measure 23
1000
0000
0000
0000
,  // measure 24
0001
0000
1000
0000
,  // measure 25
0001
0000
0000
0000
,  // measure 26
1000
0000
0100
0000
,  // measure 27
1000
0000
0000
0000
,  // measure 28
0001
0000
0010
0000
,  // measure 29
0001
0000
0000
0000
,  // measure 30
1001
0000
0000
0000
,  // measure 31
0100
0000
0000
0000
,  // measure 32
0110
0000
0000
0000
,  // measure 33
0001
0000
1000
0000
,  // measure 34
1001
0000
0000
0000
,  // measure 35
0000
0110
0000
0000
0000
0000
0000
0000
0000
0000
0000
0000
;

//---------------dance-single - ----------------
#NOTES:
     dance-single:
     :
     Easy:
     2:
     0.157614,0.165416,0.066009,0.226317,0.004715,117.000000,110.000000,7.000000,24.000000,0.000000,0.000000,0.157614,0.165416,0.066009,0.226317,0.004715,117.000000,110.000000,7.000000,24.000000,0.000000,0.000000:
// measure 0
0000
0000
0000
0000
,  // measure 1
0000
0000
0000
0000
,  // measure 2
0000
0000
0000
0000
,  // measure 3
1000
0100
1000
0100
,  // measure 4
0001
0010
0001
0010
,  // measure 5
1000
0100
0020
0030
,  // measure 6
0001
0010
0200
0300
,  // measure 7
1000
0100
0002
0003
,  // measure 8
0001
0010
2000
3000
,  // measure 9
0100
1000
0010
1000
,  // measure 10
0001
0100
0001
0010
,  // measure 11
0110
0100
0010
1000
,  // measure 12
0002
0000
2000
3003
,  // measure 13
1000
0100
0010
0001
,  // measure 14
1000
0010
0100
0001
,  // measure 15
0001
0010
0100
1000
,  // measure 16
0001
0100
0010
1000
,  // measure 17
0200
1000
0002
0303
,  // measure 18
0020
1000
0002
0033
,  // measure 19
0100
1000
0010
0001
,  // measure 20
0100
1000
0010
0001
,  // measure 21
2002
0000
0000
3003
,  // measure 22
0100
1000
0100
0001
,  // measure 23
0200
0010
0010
0310
,  // measure 24
0001
0010
1000
0010
,  // measure 25
0001
0010
0100
1000
,  // measure 26
2001
0100
0020
3030
,  // measure 27
1002
0010
0200
0303
,  // measure 28
1000
0100
0010
0001
,  // measure 29
1000
0010
0100
0001
,  // measure 30
2000
0010
0200
3300
,  // measure 31
0002
0100
0020
0033
,  // measure 32
0110
1000
0001
0100
,  // measure 33
2010
0000
3020
0000
,  // measure 34
0230
0000
0000
0301
,  // measure 35
0000
1001
0000
0000
0000
0000
0000
0000
0000
0000
0000
0000
;

//---------------dance-single - ----------------
#NOTES:
     dance-single:
     :
     Medium:
     6:
     0.215540,0.231582,0.056579,0.226317,0.014145,160.000000,154.000000,6.000000,24.000000,0.000000,0.000000,0.215540,0.231582,0.056579,0.226317,0.014145,160.000000,154.000000,6.000000,24.000000,0.000000,0.000000:
// measure 0
0000
0000
0000
0000
,  // measure 1
0000
0000
0000
0000
,  // measure 2
0000
0000
0000
0000
,  // measure 3
0001
0100
0010
1000
,  // measure 4
0002
0000
0200
0303
,  // measure 5
1000
0000
0010
0000
0100
0001
1000
0000
,  // measure 6
0010
0000
0100
0000
0001
1000
0010
0000
,  // measure 7
1000
0000
0100
0000
0001
0010
0001
0000
,  // measure 8
0001
0000
0010
0000
1000
0100
1000
0000
,  // measure 9
0010
0100
1000
0000
0110
0000
0001
0000
,  // measure 10
0100
0010
0001
0000
0110
0000
1000
0000
,  // measure 11
0100
0001
1000
0000
0010
1000
0001
0000
,  // measure 12
1000
0100
0010
0000
0100
0010
0001
0000
,  // measure 13
2000
0000
3100
0010
0002
0000
0103
0000
,  // measure 14
0002
0000
0013
0100
2000
0000
3010
0000
,  // measure 15
1000
0100
0010
0000
0100
0010
0001
0000
,  // measure 16
1000
0001
0100
0000
0010
1000
0001
0000
,  // measure 17
0200
1000
0001
1300
,  // measure 18
0020
0001
1000
0031
,  // measure 19
1000
0010
0100
0000
0001
0000
0010
0000
,  // measure 20
0001
0010
0100
0000
1000
0000
0100
0000
,  // measure 21
0020
0000
0200
0330
,  // measure 22
1000
0000
0000
0100
0000
0000
0010
0000
0001
0000
0010
0000
0100
0000
1000
0000
,  // measure 23
0002
0100
0013
1000
,  // measure 24
0001
0000
0000
0010
0000
0000
0100
0000
1000
0000
0100
0000
0010
0000
0001
0000
,  // measure 25
2000
0010
0100
3001
,  // measure 26
0001
0000
0010
0100
1000
0000
1001
0000
,  // measure 27
1000
0000
0100
0010
0001
0000
1001
0000
,  // measure 28
0020
1000
0001
0130
,  // measure 29
0002
0000
0103
0000
2000
0000
3010
0100
,  // measure 30
0002
0000
2003
0000
3020
0000
0130
0001
,  // measure 31
0020
0000
0031
1000
0020
0000
0130
1000
,  // measure 32
1001
0000
0100
0010
1000
0000
0001
0100
,  // measure 33
0020
0000
0230
0000
,  // measure 34
0302
0000
2003
3010
,  // measure 35
0000
0110
0000
0000
0000
0000
0000
0000
0000
0000
0000
0000
;

//---------------dance-single - ----------------
#NOTES:
     dance-single:
     :
     Hard:
     8:
     0.290979,0.341833,0.075439,0.367765,0.103729,216.000000,208.000000,8.000000,39.000000,0.000000,0.000000,0.290979,0.341833,0.075439,0.367765,0.103729,216.000000,208.000000,8.000000,39.000000,0.000000,0.000000:
// measure 0
0000
0000
0000
0000
,  // measure 1
0000
0000
0000
0000
,  // measure 2
0000
0000
0000
0000
,  // measure 3
1001
0000
0010
0100
1000
0010
0100
0001
,  // measure 4
0020
0000
0130
0000
0200
0000
0310
1000
,  // measure 5
1001
0000
1000
0100
0010
0001
1000
0010
,  // measure 6
0002
0000
0000
0013
0100
1000
0001
0100
,  // measure 7
0020
0000
0000
0130
0001
1000
0100
0010
,  // measure 8
2000
0000
0000
3001
0010
1000
0100
0001
,  // measure 9
0020
0000
0031
0100
2000
0000
3010
0100
,  // measure 10
0002
0000
1003
0100
0020
0000
0031
0100
,  // measure 11
1000
0100
0001
0100
0000
0010
1000
0001
,  // measure 12
0120
0000
0000
0000
0002
0030
0000
0000
2003
0000
0000
0000
3100
0000
0000
0000
,  // measure 13
0010
0100
1000
1001
0000
0100
0010
0001
,  // measure 14
1000
0000
0010
0000
0100
0000
0001
2000
0000
0000
0000
0000
3010
0000
0100
0000
,  // measure 15
0002
0000
0013
0100
2000
0000
3100
0010
,  // measure 16
1000
0000
0001
0020
0000
0000
0000
0000
0100
0000
0130
0000
1001
0000
0000
0000
,  // measure 17
0100
0000
1000
0000
0010
0000
0100
0001
0000
1000
0020
0000
0000
0000
1030
0000
,  // measure 18
0001
0000
0010
0000
1000
0000
0001
0100
0000
0010
2000
0000
0000
0000
3010
0000
,  // measure 19
0100
0001
1000
0100
0000
1001
0010
0100
,  // measure 20
1000
0010
1000
0001
0020
0000
1000
0000
,  // measure 21
0002
0000
0000
0033
,  // measure 22
0001
0000
0010
0100
0000
0100
1000
0100
1000
0000
0010
0000
0100
0000
0001
0000
,  // measure 23
1001
0010
0100
1000
0010
0100
0001
0010
,  // measure 24
1000
0000
0100
0010
0000
0010
0001
0010
0001
0000
0010
0000
0100
0000
0001
0000
,  // measure 25
1000
0010
0100
0001
0100
0010
1000
0001
,  // measure 26
0200
0000
0000
0000
0310
0000
1000
0000
0002
0000
0000
0000
1003
0010
0100
0001
,  // measure 27
2000
0000
0000
0000
3010
0000
0100
0000
0020
0000
0000
0000
1030
0010
0100
0001
,  // measure 28
0020
0000
0000
0000
0130
0000
1000
0010
0100
0000
0001
0000
1000
0000
0001
0100
,  // measure 29
0020
0000
0000
0000
1030
0000
0001
0100
2000
0000
0000
0000
3010
0000
0100
0001
,  // measure 30
2000
0000
3020
0000
0032
0000
0103
0010
,  // measure 31
2000
3020
0230
0302
,  // measure 32
1003
0000
0100
0010
1000
0001
0010
0100
,  // measure 33
2000
0000
3002
0000
,  // measure 34
0203
0000
0000
0000
0000
0000
0010
0000
0000
0310
0000
1000
,  // measure 35
0000
2002
0000
0000
0000
0000
0000
0000
0000
0000
0000
0000
,  // measure 36
0000
3003
0000
0000
;
