#TITLE:ロマンスの神様;
#SUBTITLE:;
#ARTIST:JUDY CRYSTAL;
#TITLETRANSLIT:;
#SUBTITLETRANSLIT:;
#ARTISTTRANSLIT:;
#GENRE:Dancemania;
#CREDIT:;
#BANNER:ROMANCE NO KAMISAMA.png;
#BACKGROUND:ROMANCE NO KAMISAMA-bg.png;
#LYRICSPATH:;
#CDTITLE:;
#MUSIC:ROMANCE NO KAMISAMA.ogg;
#OFFSET:-0.003000;
#SAMPLESTART:53.481998;
#SAMPLELENGTH:15.000000;
#SELECTABLE:YES;
#DISPLAYBPM:157.000000;
#BPMS:0.000000=157.492004
,4.000000=156.988007
;
#STOPS:
;
#BGCHANGES:;
#KEYSOUNDS:;
#ATTACKS:;

//---------------dance-single - ----------------
#NOTES:
     dance-single:
     :
     Easy:
     5:
     0.254375,0.346537,0.091314,0.219154,0.000000,195.000000,185.000000,10.000000,24.000000,0.000000,0.000000,0.254375,0.346537,0.091314,0.219154,0.000000,195.000000,185.000000,10.000000,24.000000,0.000000,0.000000:
0000
0000
0000
0000
,
0000
0000
0000
0000
,
1000
0000
1000
0000
,
0001
0000
0001
0000
,
1000
0000
0010
0000
,
1000
0000
0001
0000
,
0010
0000
0010
0000
,
0001
0000
0001
0000
,
0010
0000
0001
0000
,
1000
0001
1000
0000
,
0010
0010
0010
0000
,
1000
1000
1000
0000
,
0010
1000
0001
0100
,
0001
1000
0002
0003
,
0010
0010
0010
0000
,
0001
0001
0001
0000
,
1000
0010
1000
0010
,
0200
0000
0000
0300
,
0001
0010
0001
0000
,
1000
0010
1000
0000
,
0001
0001
1000
1000
,
0100
0001
0200
0300
,
1000
0010
0100
0000
,
0001
0010
0100
0000
,
1000
1000
0001
0001
,
2002
0000
0000
3003
,
0020
0000
1030
0000
,
0001
0001
1001
0000
,
0010
0010
0001
1000
,
0010
1000
0100
0001
,
0200
0000
1300
0000
,
0001
0001
1001
0000
,
0220
0330
2002
3003
,
0002
0000
1003
0000
,
0001
1000
0001
1000
,
0001
0001
1001
0000
,
0010
0100
0010
0100
,
0001
0001
0010
0001
,
1000
0010
1000
0001
,
0010
0010
0110
0000
,
1000
0010
1000
0010
,
0100
0100
0001
0100
,
0001
0001
1001
1001
,
1000
0100
0010
0000
,
0001
0010
0100
0000
,
1000
0100
0001
0000
,
2000
3000
0002
0003
,
0100
1000
0010
0000
,
0010
0001
0100
0000
,
0100
1000
0001
0000
,
0010
1000
0001
0000
,
0200
0000
0000
0000
,
0020
0000
0330
0000
,
2000
0000
3100
0000
,
0002
0000
0103
0000
,
2000
0000
3010
0000
,
0002
0000
0013
0000
,
1000
0100
0010
0000
,
0001
0010
0100
0000
,
1000
0001
0100
0010
,
0200
0000
0020
0330
,
0010
0000
0010
0000
,
0100
0000
0100
0000
,
0002
0000
0013
0000
,
0002
0000
1003
0000
,
0010
0000
0010
0000
,
1000
0000
1000
0000
,
0001
0010
0100
0000
,
1000
0010
0100
0000
,
1001
0000
0000
0000
;

//---------------dance-single - ----------------
#NOTES:
     dance-single:
     :
     Medium:
     8:
     0.401782,0.504054,0.283074,0.264811,0.000000,308.000000,277.000000,31.000000,29.000000,0.000000,0.000000,0.401782,0.504054,0.283074,0.264811,0.000000,308.000000,277.000000,31.000000,29.000000,0.000000,0.000000:
0000
0000
0000
0000
,
0000
0000
0000
0000
,
0010
1000
0010
1001
,
0010
0001
0010
1001
,
0010
0010
1000
1000
,
0001
0010
0100
1000
,
0001
0100
0001
1001
,
1000
0100
1000
1001
,
0010
0010
1000
1000
,
0001
0010
0002
0003
,
0010
0001
0010
0200
0000
0000
0300
0000
,
0010
0100
0010
0002
0000
0000
0003
0000
,
1000
1000
0001
0100
,
0010
1000
0010
0200
0000
0000
0300
0000
,
0001
0010
0001
2000
0000
0000
3000
0000
,
0010
1000
0010
0200
0000
0000
0300
0000
,
0001
0001
1000
0100
,
0010
0000
0001
2000
0000
0000
3000
0000
,
0010
1000
0010
0200
0000
0000
0300
0000
,
0001
0010
0001
2000
0000
0000
3000
0000
,
0010
0010
1000
0001
,
0100
1000
0100
0002
0000
0000
0003
0000
,
1000
0010
0100
0002
0000
0000
0003
0000
,
0010
0100
1000
0002
0000
0000
0003
0000
,
1000
0000
1000
0000
0001
0010
0100
0000
,
1000
0000
0010
1000
,
1010
1010
0100
0001
,
0010
0010
0001
1000
,
0010
0000
0010
1000
,
0001
0010
0100
0110
,
2000
3000
1000
0001
,
0020
0030
0010
0001
,
1000
1001
0001
1001
,
0100
0001
0100
0001
0100
0010
0100
0010
,
1000
1000
0001
0001
0001
0000
0100
0000
,
0110
0110
1001
0100
,
0001
0000
0001
0000
0100
1000
0100
0000
,
0010
0000
0010
0000
1000
0100
0001
0000
,
0100
1000
0100
0010
0100
1000
0001
0000
,
0110
0110
1001
0100
,
0010
0000
0010
0000
0100
0001
0010
0000
,
0100
1000
0100
0001
0100
1000
0010
0000
,
1000
1001
0001
0010
,
1000
0000
1000
0000
0010
0100
0010
0000
,
0001
0100
2002
3003
,
0010
0000
0001
0000
0100
0010
0100
0000
,
0011
0110
1100
1001
,
1000
0000
0100
0000
0010
0100
0010
0000
,
0001
0010
2002
3003
,
0100
1000
0010
0001
,
0100
1000
0100
0000
0010
0001
0010
0000
,
0200
0010
0010
0010
,
0020
0000
0000
0330
,
0001
0100
0202
0303
,
1000
0010
2020
3030
,
0001
1000
0010
0100
,
0001
0100
0010
0000
1000
0010
0100
0000
,
0001
0100
2002
3003
,
1000
0010
2002
3003
,
0100
1000
0010
0001
,
0200
0010
0010
0310
,
0001
0100
0001
0101
,
0010
0100
0010
0110
,
0010
0010
1000
1000
,
0001
0010
0100
1000
,
0001
0100
0010
1010
,
0100
0010
1000
1010
,
0001
0001
0010
0010
,
0100
1000
0001
0100
,
1001
0000
0000
0000
;

//---------------dance-single - ----------------
#NOTES:
     dance-single:
     :
     Hard:
     13:
     0.593542,0.661571,0.155234,0.301337,0.210023,455.000000,438.000000,17.000000,33.000000,0.000000,0.000000,0.593542,0.661571,0.155234,0.301337,0.210023,455.000000,438.000000,17.000000,33.000000,0.000000,0.000000:
0000
0000
0000
0000
,
0000
0000
0000
0000
,
0010
0001
0010
0001
1000
0000
0001
0000
0200
0000
0000
0000
0310
0000
0000
0000
,
1000
0010
1000
0010
0100
0000
0001
0000
0020
0000
0000
0000
0031
0000
0000
0000
,
0100
0001
0100
0010
0100
0000
0000
0000
0001
1000
0001
0100
0001
0000
0000
0000
,
1000
0100
0000
0000
1000
0100
0000
0000
0010
0001
0000
0000
0010
0001
0000
0000
,
0100
0001
1000
0001
0100
0000
0010
0000
2000
0000
0000
0000
3100
0000
0000
0000
,
0001
0100
0010
0100
1000
0000
0001
0000
0200
0000
0000
0000
0310
0000
0000
0000
,
0100
0001
0100
1000
0100
0000
0000
0000
0010
1000
0010
0100
0010
0000
0000
0000
,
1000
0000
1000
0000
1000
0010
0000
1000
,
0010
0100
0001
2000
0000
3100
0000
0010
,
0001
1000
0010
0200
0000
0310
1000
0001
,
0010
0100
0010
0001
1000
1000
0001
1000
,
0010
1000
0010
0200
0000
0301
0100
1000
,
0100
0010
1000
0200
0000
0301
0100
1000
,
0010
1000
0001
0020
0000
0130
1000
0100
,
0001
0100
1000
1000
0001
0001
0100
0010
,
0200
0000
0000
0000
0000
0310
0000
1000
,
0010
0100
0001
2000
0000
3100
0000
0010
,
0001
1000
0010
0200
0000
0310
1000
0001
,
0100
1000
0100
0001
0100
0100
0001
1000
,
0100
0001
0100
2000
0000
3010
0000
1000
,
0001
0100
1000
0200
0000
0301
0000
0100
,
0001
1000
0100
0020
0000
0130
0000
1000
,
0100
0001
0100
1000
0001
0001
0100
0010
,
0200
0000
0001
0301
,
1001
1001
0010
1000
,
0001
0010
0001
0000
1000
0000
1001
0000
,
0010
0000
0010
0000
0100
1000
0100
0000
,
0001
0001
2000
3001
,
1000
1000
0010
0010
,
1000
0010
0100
0000
0001
0010
0100
0000
,
0021
0130
1200
0301
,
0100
0100
0100
0100
,
0000
0010
1000
0010
0100
0000
1001
0000
,
0020
0000
0031
0000
0100
0010
1000
0000
,
0010
0100
0001
1000
0100
0010
0001
0000
,
0100
0010
1000
0001
0100
1000
0100
0010
,
1000
0100
0001
0100
0010
0000
0110
0000
,
2000
0000
3100
0000
0010
0001
1000
0000
,
0100
0010
0001
1000
0010
0100
0001
0000
,
0010
0100
1000
0001
0100
0010
1000
0100
,
0001
0100
0010
0001
0100
0010
1000
0100
,
1000
0100
0010
0100
0001
0100
0010
1000
,
0001
0001
1000
1000
2002
0000
3003
0000
,
1000
0100
0010
0001
0100
0010
1000
0001
,
0020
0230
0302
2003
,
3010
0100
1000
0010
0100
0001
0010
0100
,
1000
1000
0001
0001
2002
0000
3003
0000
,
0100
1000
0010
0001
0100
0010
1000
0001
,
0010
0010
0110
0000
0100
0100
0110
0000
,
0001
0100
0010
1000
0001
0100
0010
1000
,
2002
0000
0000
3003
,
1000
0000
0100
0000
0010
0001
0010
0000
,
0001
0000
0010
0000
0100
1000
0100
0000
,
0010
1000
0001
0000
0100
0001
1000
0000
,
0010
0000
0000
0100
0000
0000
0010
0000
0000
0000
1000
0000
0001
0000
0000
0000
,
1000
0100
1000
0100
0010
0000
0010
0000
,
0001
0010
0001
0010
0100
0000
0100
0000
,
0001
1000
0001
1000
0001
0000
0000
0000
0100
0010
0100
0010
0100
0000
0000
0000
,
0001
0000
0010
0000
0100
0000
1000
0000
0010
0000
0100
0000
0010
0100
0010
0000
,
0010
0001
0010
0001
1000
0000
0010
0000
0100
0000
0000
0000
1001
0000
0000
0000
,
1000
0010
1000
0010
0100
0000
0001
0000
0010
0000
0000
0000
1001
0000
0000
0000
,
0100
1000
0100
0010
1000
0000
0000
0000
0100
0001
0100
1000
0010
0000
0000
0000
,
1000
0100
0000
0000
1000
0100
0000
0000
0010
0001
0000
0000
0010
0001
0000
0000
,
0100
0001
1000
0001
0100
0000
0010
0000
1000
0000
0000
0000
0110
0000
0000
0000
,
0100
1000
0100
0010
1000
0000
0001
0000
0100
0000
0000
0000
0110
0000
0000
0000
,
0001
0100
1000
0100
0001
0000
0000
0000
0010
0100
0001
0100
2000
0000
0000
0000
,
0002
0000
0000
3003
,
1001
0000
0000
0000
;

//---------------dance-double - ----------------
#NOTES:
     dance-double:
     :
     Easy:
     5:
     0.256984,0.315034,0.073051,0.292205,0.000000,197.000000,189.000000,8.000000,32.000000,0.000000,0.000000,0.256984,0.315034,0.073051,0.292205,0.000000,197.000000,189.000000,8.000000,32.000000,0.000000,0.000000:
00000000
00000000
00000000
00000000
,
00000000
00000000
00000000
00000000
,
00100000
00000000
00001000
00010000
,
00000010
00000000
00010000
00001000
,
01000000
00000000
00100000
00000000
,
10000000
01000000
00001000
00000100
,
00010000
00000000
00001000
01000000
,
00001000
00000000
00010000
00000100
,
00000010
00000001
00001000
00000100
,
00010000
00001000
00010000
00000000
,
00000010
00000200
00000000
00000300
,
00000001
00002000
00000000
00003000
,
00100000
01000000
00020000
00030000
,
10000000
10000000
10000000
00000000
,
01000000
00002000
00000000
00003000
,
00000100
00002000
00000000
00003000
,
00000010
00000100
00000001
00000000
,
00002002
00000000
00000000
00003003
,
00000010
00020000
00000000
00030000
,
00001000
02000000
00000000
03000000
,
10000000
01000000
00010000
01000000
,
00001000
00020000
00000000
00030000
,
00000100
00000020
00000000
00000030
,
00000001
00002000
00000000
00003000
,
00000100
00000100
00010000
00010000
,
00022000
00000000
00033000
00000000
,
02000000
00000000
03100000
00000000
,
10000000
00000000
00010000
10010000
,
00200000
00000000
00310000
00000000
,
01000000
00001000
00010000
00000100
,
00000001
00000000
00000001
00000000
,
00000100
00001000
00100000
00000000
,
02200000
03300000
20020000
30030000
,
00100000
00100000
00100000
00100000
,
00001000
00001000
00001000
00011000
,
00000010
00001000
00000002
00000003
,
00000100
00001000
00000100
00000001
,
00000010
00000100
00010000
00001000
,
01000000
01000000
00010000
00000000
,
01000000
10000000
02000000
03000000
,
00001000
00010000
00000100
00000010
,
00000001
00000100
00001000
00100000
,
00010000
00010000
01000000
10000000
,
01000000
00100000
00010000
00000000
,
00001000
00010000
00000100
00000000
,
00000001
00000010
00000100
00000000
,
00020000
00030000
00002000
00003000
,
00010000
00100000
02000000
03000000
,
01000000
00010000
00002000
00003000
,
00000001
00000100
00000010
00001000
,
00010000
00010000
00100000
00100000
,
02200000
00000000
00000000
00000000
,
03300000
00000000
00000000
00000000
,
10000000
00000000
01000000
00000000
,
01000000
00000000
00010000
00000000
,
00010000
00000000
00001000
00000000
,
00001000
00000000
00000010
00000000
,
00000010
00000000
00000001
00000000
,
00000001
00000000
00000100
00000000
,
00001000
00000000
00010000
00000000
,
10000000
10000000
10000000
00000000
,
02000000
03000000
00001000
00010000
,
00000020
00000030
00010000
00001000
,
01000000
01000000
00100000
00100000
,
10000000
01000000
00010000
01000000
,
00002000
00003000
00000100
00010000
,
00000200
00000300
00000010
00000100
,
00010000
00001000
01000000
00001000
,
00100000
00010000
01000000
10000000
,
01100000
00000000
00000000
00000000
;

//---------------dance-double - ----------------
#NOTES:
     dance-double:
     :
     Medium:
     9:
     0.438308,0.504054,0.246548,0.136971,0.000000,336.000000,309.000000,27.000000,15.000000,0.000000,0.000000,0.438308,0.504054,0.246548,0.136971,0.000000,336.000000,309.000000,27.000000,15.000000,0.000000,0.000000:
00000000
00000000
00000000
00000000
,
00000000
00000000
00000000
00000000
,
00100000
00010000
10000000
10010000
,
01000000
10000000
01000000
00011000
,
00000100
00000010
00000001
00001000
,
00000010
00010000
00001000
01000000
,
10000000
01000000
00010000
01100000
,
00001000
00010000
00000010
00001010
,
00000001
00000101
00000010
00011000
,
01000000
00100000
20000000
00000000
,
31000000
00010000
00001000
00000100
,
00000001
00000100
00001000
00010000
,
01000000
01000000
10000000
01000000
,
00010000
01000000
20000000
00000000
,
30010000
01000000
00001000
01000000
,
00010000
00100000
00001000
00010000
,
00000100
00000100
00000010
00000010
,
00000001
00000100
00001000
00000000
00000100
00000001
00001000
00000000
,
00000010
00010000
00001000
01000000
,
00010000
10000000
01000000
00001000
,
00010000
00010000
00000010
00000100
,
00001000
00000001
00000200
00000000
,
00000310
00010000
00001000
01000000
,
00100000
10000000
00010000
01000000
,
00001000
00001000
00010000
00010000
,
00011000
00001000
00010000
00000000
00000100
00000000
00000100
00000000
,
00000010
00000100
00010000
00010000
,
00001000
00010000
00001000
00000000
00010000
00000000
00011000
00000000
,
00000010
00001000
00000100
00000100
,
00010000
00001000
01000000
00000000
00100000
10000000
01000000
00000000
,
00020000
01030000
10000000
10000000
,
00010000
01000000
20000000
00000000
31000000
00000000
01010000
00000000
,
00001000
00011000
00000010
00001010
,
00000001
00000100
00001000
00000000
00010000
00001000
00000010
00000000
,
00000100
00001000
00000100
00010000
00000100
00000000
00011000
00000000
,
00100000
00010000
10000000
00000000
00100000
00000000
00100000
00000000
,
01000000
00001000
00010000
00000000
00000100
00000010
00000001
00000000
,
00000010
00000100
00001000
00000010
00001000
00000100
00010000
00001000
,
00010000
00001000
00100000
00010000
01000000
00000000
10010000
00000000
,
00100000
10000000
01000000
00000000
00100000
00000000
00100000
00000000
,
00001000
00000010
00000100
00000000
00001000
00000001
00000100
00000000
,
00000001
00000100
00001000
00010000
00001000
01000000
00010000
10000000
,
00010000
01010000
00001000
00011000
,
00010000
01000000
00100000
00000000
10000000
00100000
01000000
00000000
,
00020000
00032000
00020000
00033000
,
00001000
00000010
00000100
00000000
00000001
00000100
00000010
00000000
,
00000200
00002300
00003020
00020030
,
00030000
00000000
00001000
00100000
00010000
00000000
00100000
10000000
,
01000000
11000000
10100000
10010000
,
00110000
00010000
00000100
00000010
,
00000001
00000010
00000001
00000000
00000100
00000010
00000100
00000000
,
00002000
00010000
00010000
00013000
,
00020000
00100000
00000000
00130000
,
01000000
00000000
10000000
00000000
00100000
00010000
00100000
00000000
,
01000000
00000000
00010000
00000000
00001000
00010000
00001000
00000000
,
00000100
00000000
00000010
00000000
00000001
00000010
00000001
00000000
,
00000100
00000010
00001000
00000000
00000100
00001000
00010000
00000000
,
00100000
00000000
01000000
00000000
10000000
01000000
10000000
00000000
,
00100000
00000000
00010000
00000000
00001000
00000100
00001000
00000000
,
00000100
00000010
00001000
00000000
00000010
00001000
00000100
00000000
,
00002001
00000100
00000100
00003100
,
00000010
00001000
00000001
00001001
,
00000010
00010000
00001000
00011000
,
01000000
00100000
10000000
00010000
,
00100000
00001000
00010000
00000100
,
00000001
00000100
00001000
00001001
,
00010000
00001000
00100000
00110000
,
10000000
10010000
00100000
00011000
,
00000010
00000100
00001000
00000000
00000100
00000010
00010000
00000000
,
00011000
00000000
00000000
00000000
;

//---------------dance-double - ----------------
#NOTES:
     dance-double:
     :
     Hard:
     12:
     0.596151,0.567061,0.264811,0.109577,0.077617,457.000000,428.000000,29.000000,12.000000,0.000000,0.000000,0.596151,0.567061,0.264811,0.109577,0.077617,457.000000,428.000000,29.000000,12.000000,0.000000,0.000000:
00000000
00000000
00000000
00000000
,
00000000
00000000
00000000
00000000
,
10000000
00010000
01000000
00000000
00100000
01000000
00001000
00000000
,
00010000
00000100
00000010
00000000
00000100
00010000
00001000
00000000
,
00100000
00000000
00000000
00100000
00010000
00000000
00000000
00000000
10000000
00000000
00000000
10000000
00100000
00000000
00000000
00000000
,
10000000
00000000
00000000
10000000
01000000
00000000
00000000
01000000
00001000
00000000
00000000
00001000
00000100
00000000
00000000
00000100
,
00001000
00000010
00000100
00000000
00001000
00000100
00000001
00000000
,
00001000
00000100
00010000
00000000
00100000
01000000
00010000
00000000
,
01000000
00000000
00000000
01000000
10000000
00000000
00000000
00000000
01000000
00000000
00000000
01000000
00010000
00000000
00000000
00000000
,
00100000
01000000
00010000
01000000
20000000
00000000
00000000
00000000
,
30100000
10000000
00100000
10000000
01000000
10000000
01000000
10000000
,
01000000
00010000
01000000
00010000
00001000
00010000
00001000
00010000
,
00001000
00000010
00001000
00000010
00001000
00010000
00000010
00000100
,
00000001
00001000
00000001
00001000
00000010
00001000
00000010
00001000
,
00000100
00000001
00000100
00000001
00000100
00010000
00000100
00010000
,
00100000
00010000
00100000
00010000
00001000
00010000
00001000
00010000
,
00100000
00010000
00001000
01000000
00100000
10000000
10000000
01000000
,
00020000
00000000
00000000
00030000
,
00000010
00000001
00000010
00000001
00000100
00000001
00000100
00000001
,
00000100
00001000
00000100
00001000
01000000
00010000
01000000
00010000
,
00100000
00010000
00100000
00010000
01000000
00100000
10000000
00010000
,
00100000
00001000
00010000
00000100
00000010
00000001
00000010
00000001
,
00001000
00000100
00001000
00000100
00000001
00000100
00000001
00000100
,
00010000
00001000
00010000
00001000
01000000
00001000
01000000
00001000
,
00100000
00010000
10000000
00100000
01000000
00010000
00010000
10000000
,
10020000
00000000
00030000
00000000
,
00012000
00003000
00001002
00000003
,
00000010
00000001
00000100
00001000
00010000
00100000
01100000
00000000
,
10020000
00030000
00012000
00003000
,
00000010
00001000
00000100
00010000
00100000
01000000
00010000
00000000
,
01100000
01100000
10010000
01000000
,
00001000
00010000
00000100
00000010
00000001
00001000
00000010
00010000
,
00001000
00001000
00000000
00000000
01000000
01000000
00000000
00000000
,
00100000
01000000
00010000
01000000
00001000
00010000
00001000
00000010
,
00000100
00000010
00000100
00001000
00000010
00000000
00001001
00000000
,
00000010
00001000
00000001
00000100
00000010
00001000
00000100
00000000
,
00010000
00100000
00010000
00100000
01000000
00010000
10000000
00000000
,
00010000
00100000
00001000
00010000
00000100
00001000
00000010
00001000
,
00001001
00001001
00011000
10010000
,
00100000
00010000
00001000
00010000
00100000
00001000
00010000
00000000
,
00001000
00000010
00001000
00000010
00000100
00001000
00000001
00000000
,
00001001
00000100
00011000
01000000
,
00100000
10000000
00010000
00100000
01000000
00010000
00001000
00000000
,
00001000
00000100
00000010
00000001
00001000
00000010
00000100
00000001
,
00000010
00000100
00001000
00010000
00001000
00000000
00011000
00000000
,
00010000
00100000
01000000
10000000
00010000
01000000
00100000
10000000
,
02000000
03200000
20300000
30020000
,
00031000
00010000
00001000
00100000
00010000
01000000
10000000
01000000
,
00100000
00010000
00001000
00010000
00000100
00000010
00000001
00000010
,
00000100
00001000
00010000
00001000
00010000
00100000
01000000
10000000
,
10000000
01000000
11000000
00000000
00010000
00100000
00110000
00000000
,
00010000
00000000
00001000
00000000
00000100
00000000
00000010
00000000
00000001
00000000
00000100
00000000
00001000
00000000
00000100
00000010
,
00000200
00000000
00000000
00000300
,
00001000
00000100
00000010
00000001
00000010
00000000
00000110
00000000
,
00000001
00000010
00000100
00001000
00010000
00000000
00011000
00000000
,
00010000
00100000
01000000
10000000
00100000
01000000
00010000
00100000
,
00001000
00001000
00011000
00000000
00010000
00010000
00011000
00000000
,
00100000
01000000
10000000
01000000
00100000
00000000
00110000
00000000
,
00010000
00001000
00000100
00000010
00000001
00000000
00000011
00000000
,
00000001
00000100
00000110
00000000
00001000
00000010
00000110
00000000
,
00000001
00000010
00000100
00001000
00000001
00000001
00001001
00000000
,
00000010
00001000
00000010
00000000
00000100
00010000
00001000
00000000
,
01000000
00010000
10000000
00000000
01000000
00001000
00010000
00000000
,
00000010
00000000
00000000
00000010
00000100
00000000
00000000
00000000
00001000
00000000
00000000
00001000
00000100
00000000
00000000
00000000
,
00001000
00000000
00000000
00001000
00000100
00000000
00000000
00000100
00010000
00000000
00000000
00010000
00001000
00000000
00000000
00001000
,
01000000
00100000
10000000
00000000
00010000
00100000
00001000
00000000
,
00010000
00000100
00001000
00000000
00000010
00000100
00001000
00000000
,
00000100
00000000
00000000
00000100
00000001
00000000
00000000
00000000
00000100
00000000
00000000
00000100
00001000
00000000
00000000
00000000
,
00010000
00001000
00100000
00001000
,
00011000
00000000
00000000
00000000
;

//---------------dance-single - ----------------
#NOTES:
     dance-single:
     :
     Beginner:
     2:
     0.108273,0.157517,0.027394,0.000000,0.000000,83.000000,80.000000,3.000000,0.000000,0.000000,0.000000,0.108273,0.157517,0.027394,0.000000,0.000000,83.000000,80.000000,3.000000,0.000000,0.000000,0.000000:
0000
0000
0000
0000
,
0000
0000
0000
0000
,
1000
0000
0000
0000
,
0001
0000
0000
0000
,
1000
0000
0000
0000
,
0001
0000
0000
0000
,
0100
0000
0000
0000
,
0010
0000
0000
0000
,
0100
0000
0000
0000
,
0010
0000
0000
0000
,
1000
0000
0000
0000
,
0001
0000
0000
0000
,
1000
0000
1000
0000
,
1000
0000
0000
0000
,
0001
0000
0000
0000
,
1000
0000
0000
0000
,
0001
0000
0001
0000
,
0001
0000
0000
0000
,
1000
0000
0000
0000
,
0100
0000
0000
0000
,
1000
0000
1000
0000
,
1000
0000
0000
0000
,
0001
0000
0000
0000
,
0010
0000
0000
0000
,
0001
0000
0001
0000
,
0001
0000
0000
0000
,
1000
0000
0000
0000
,
0100
0000
0000
0000
,
0010
0000
0000
0000
,
0001
0000
0000
0000
,
1000
0000
0000
0000
,
0001
0000
0000
0000
,
0100
0000
0000
0000
,
0010
0000
0000
0000
,
1001
0000
0000
0000
,
1000
0000
1000
0000
,
0100
0000
0000
0000
,
0001
0000
0001
0000
,
0100
0000
0000
0000
,
1000
0000
1000
0000
,
0010
0000
0000
0000
,
0001
0000
0001
0000
,
0010
0000
0000
0000
,
1000
0000
0000
0000
,
0100
0000
0000
0000
,
0001
0000
0000
0000
,
0010
0000
0000
0000
,
0001
0000
0000
0000
,
0100
0000
0000
0000
,
0010
0000
0000
0000
,
1000
0000
0000
0000
,
0001
0000
0000
0000
,
1001
0000
0000
0000
,
1000
0000
0000
0000
,
0100
0000
0000
0000
,
0010
0000
0000
0000
,
0001
0000
0000
0000
,
0001
0000
0000
0000
,
0010
0000
0000
0000
,
0100
0000
0000
0000
,
1000
0000
0000
0000
,
0001
0000
0001
0000
,
0001
0000
0000
0000
,
1000
0000
1000
0000
,
1000
0000
0000
0000
,
0010
0000
0010
0000
,
0010
0000
0000
0000
,
0100
0000
0100
0000
,
0100
0000
0000
0000
,
0110
0000
0000
0000
;

//---------------dance-single - ----------------
#NOTES:
     dance-single:
     :
     Challenge:
     6:
     0.254375,0.346537,0.091314,0.146103,0.000000,195.000000,185.000000,10.000000,16.000000,220.000000,0.000000,0.254375,0.346537,0.091314,0.146103,0.000000,195.000000,185.000000,10.000000,16.000000,220.000000,0.000000:
// measure 0
0000
0000
0000
0000
,  // measure 1
0000
0000
0000
0000
,  // measure 2
1000
0000
1000
MMMM
,  // measure 3
0001
0000
0001
MMMM
,  // measure 4
1000
0000
0010
MMMM
,  // measure 5
1000
MMMM
0001
MMMM
,  // measure 6
0010
0000
0010
MMMM
,  // measure 7
0001
0000
0001
MMMM
,  // measure 8
0010
MMMM
0001
MMMM
,  // measure 9
1000
0001
1000
MMMM
,  // measure 10
0010
0010
0010
MMMM
,  // measure 11
1000
1000
1000
MMMM
,  // measure 12
0010
1000
0001
0100
,  // measure 13
0001
1000
0001
MMMM
,  // measure 14
0010
0010
0010
MMMM
,  // measure 15
0001
0001
0001
MMMM
,  // measure 16
1000
0010
1000
0010
,  // measure 17
0200
0000
0300
MMMM
,  // measure 18
0001
0010
0001
MMMM
,  // measure 19
1000
0010
1000
MMMM
,  // measure 20
0001
0001
1000
1000
,  // measure 21
0100
0001
0100
MMMM
,  // measure 22
1000
0010
0100
MMMM
,  // measure 23
0001
0010
0100
MMMM
,  // measure 24
1000
1000
0001
0001
,  // measure 25
2002
0000
3003
MMMM
,  // measure 26
0020
0000
1030
MMMM
,  // measure 27
0001
0001
1001
MMMM
,  // measure 28
0010
0010
0001
1000
,  // measure 29
0010
1000
0100
0001
,  // measure 30
0200
0000
1300
MMMM
,  // measure 31
0001
0001
1001
MMMM
,  // measure 32
0110
MMMM
1001
MMMM
,  // measure 33
0002
0000
1003
MMMM
,  // measure 34
0001
1000
0001
1000
,  // measure 35
0001
0001
1001
MMMM
,  // measure 36
0010
0100
0010
0100
,  // measure 37
0001
0001
0010
0001
,  // measure 38
1000
0010
1000
0001
,  // measure 39
0010
0010
0110
MMMM
,  // measure 40
1000
0010
1000
0010
,  // measure 41
0100
0100
0001
0100
,  // measure 42
0001
0001
1001
1001
,  // measure 43
1000
0100
0010
MMMM
,  // measure 44
0001
0010
0100
MMMM
,  // measure 45
1000
0100
0001
MMMM
,  // measure 46
1000
MMMM
0001
MMMM
,  // measure 47
0100
1000
0010
MMMM
,  // measure 48
0010
0001
0100
MMMM
,  // measure 49
0100
1000
0001
MMMM
,  // measure 50
0010
1000
0001
MMMM
,  // measure 51
0200
0000
0000
0000
,  // measure 52
0020
0000
0330
MMMM
,  // measure 53
2000
0000
3100
MMMM
,  // measure 54
0002
0000
0103
MMMM
,  // measure 55
2000
0000
3010
MMMM
,  // measure 56
0002
0000
0013
MMMM
,  // measure 57
1000
0100
0010
MMMM
,  // measure 58
0001
0010
0100
MMMM
,  // measure 59
1000
0001
0100
0010
,  // measure 60
0200
0000
0020
0330
,  // measure 61
0010
0000
0010
MMMM
,  // measure 62
0100
0000
0100
MMMM
,  // measure 63
0002
0000
0013
MMMM
,  // measure 64
0002
0000
1003
MMMM
,  // measure 65
0010
0000
0010
MMMM
,  // measure 66
1000
0000
1000
MMMM
,  // measure 67
0001
0010
0100
MMMM
,  // measure 68
1000
0010
0100
MMMM
,  // measure 69
1001
0000
0000
0000
;

//---------------dance-double - ----------------
#NOTES:
     dance-double:
     :
     Challenge:
     6:
     0.254375,0.315034,0.063920,0.136971,0.000000,195.000000,188.000000,7.000000,15.000000,408.000000,0.000000,0.254375,0.315034,0.063920,0.136971,0.000000,195.000000,188.000000,7.000000,15.000000,408.000000,0.000000:
00000000
00000000
00000000
00000000
,
00000000
00000000
00000000
00000000
,
00100000
MMMMMMMM
00001000
00010000
,
00000010
MMMMMMMM
00010000
00001000
,
01000000
MMMMMMMM
00100000
MMMMMMMM
,
10000000
01000000
00001000
00000100
,
00010000
MMMMMMMM
00001000
01000000
,
00001000
MMMMMMMM
00010000
00000100
,
00000010
00000001
00001000
00000100
,
00010000
00001000
00010000
MMMMMMMM
,
00000010
00000200
00000300
MMMMMMMM
,
00000001
00002000
00003000
MMMMMMMM
,
00100000
01000000
00010000
MMMMMMMM
,
10000000
10000000
10000000
MMMMMMMM
,
01000000
00002000
00003000
MMMMMMMM
,
00000100
00002000
00003000
MMMMMMMM
,
00000010
00000100
00000001
00000000
,
00002002
00003003
MMMMMMMM
MMMMMMMM
,
00000010
00020000
00030000
MMMMMMMM
,
00001000
02000000
03000000
MMMMMMMM
,
10000000
01000000
00010000
01000000
,
00001000
00020000
00030000
MMMMMMMM
,
00000100
00000020
00000030
MMMMMMMM
,
00000001
00002000
00003000
MMMMMMMM
,
00000100
00000100
00010000
00010000
,
00022000
00033000
MMMMMMMM
MMMMMMMM
,
01000000
MMMMMMMM
00100000
MMMMMMMM
,
10000000
MMMMMMMM
00010000
10010000
,
00100000
MMMMMMMM
00010000
MMMMMMMM
,
01000000
00001000
00010000
00000100
,
00000001
MMMMMMMM
00000001
MMMMMMMM
,
00000100
00001000
00100000
MMMMMMMM
,
01100000
MMMMMMMM
10010000
MMMMMMMM
,
00100000
00100000
00100000
00100000
,
00001000
00001000
00001000
00011000
,
00000010
00001000
00000001
MMMMMMMM
,
00000100
00001000
00000100
00000001
,
00000010
00000100
00010000
00001000
,
01000000
01000000
00010000
00000000
,
01000000
10000000
01000000
MMMMMMMM
,
00001000
00010000
00000100
00000010
,
00000001
00000100
00001000
00100000
,
00010000
00010000
01000000
10000000
,
01000000
00100000
00010000
MMMMMMMM
,
00001000
00010000
00000100
MMMMMMMM
,
00000001
00000010
00000100
MMMMMMMM
,
00010000
MMMMMMMM
00001000
MMMMMMMM
,
00010000
00100000
01000000
MMMMMMMM
,
01000000
00010000
00001000
MMMMMMMM
,
00000001
00000100
00000010
00001000
,
00010000
00010000
00100000
00100000
,
02200000
00000000
00000000
03300000
,
MMMMMMMM
MMMMMMMM
MMMMMMMM
MMMMMMMM
,
10000000
00000000
01000000
00000000
,
01000000
00000000
00010000
00000000
,
00010000
00000000
00001000
00000000
,
00001000
00000000
00000010
00000000
,
00000010
00000000
00000001
00000000
,
00000001
00000000
00000100
00000000
,
00001000
00000000
00010000
00000000
,
10000000
10000000
10000000
MMMMMMMM
,
01000000
MMMMMMMM
00001000
00010000
,
00000010
MMMMMMMM
00010000
00001000
,
01000000
01000000
00100000
00100000
,
10000000
01000000
00010000
01000000
,
00001000
MMMMMMMM
00000100
00010000
,
00000100
MMMMMMMM
00000010
00000100
,
00010000
00001000
01000000
00001000
,
00100000
00010000
01000000
10000000
,
MMMMMMMM
00000000
00000000
00000000
;
