#TITLE:Prince x Prince (TV edition);
#SUBTITLE:;
#ARTIST:From 4 to 7;
#TITLETRANSLIT:A;
#SUBTITLETRANSLIT:;
#ARTISTTRANSLIT:;
#GENRE:Anime/Game;
#CREDIT:;
#BANNER:;
#BACKGROUND:;
#LYRICSPATH:;
#CDTITLE:;
#MUSIC:Prince x Prince (TV edition).ogg;
#OFFSET:0.437000;
#SAMPLESTART:55.289074;
#SAMPLELENGTH:15.000000;
#SELECTABLE:YES;
#BPMS:0.000000=174.990005
;
#STOPS:
;
#BGCHANGES:1.667=Prince x Prince (TV edition).avi=1.000=0=0=0=StretchNoLoop====,
99999=-nosongbg-=1.000=0=0=0 // don't automatically add -songbackground-
;
#KEYSOUNDS:;
#ATTACKS:;

//---------------dance-single - ----------------
#NOTES:
     dance-single:
     :
     Hard:
     11:
     0.597041,0.543712,0.189967,0.145269,0.000000,344.000000,17.000000,13.000000,0.000000,0.000000,0.000000,0.597041,0.543712,0.189967,0.145269,0.000000,344.000000,17.000000,13.000000,0.000000,0.000000,0.000000:
// measure 0
0000
0000
0000
0000
,  // measure 1
0000
0000
0000
0000
,  // measure 2
0000
0000
0000
0000
,  // measure 3
0000
0000
0000
0000
,  // measure 4
0000
0000
0000
0000
,  // measure 5
2000
0000
0000
3100
0000
0000
0010
0000
,  // measure 6
0002
0000
0000
0013
0000
0000
0001
0000
,  // measure 7
1100
0100
0101
0001
,  // measure 8
0020
0000
0000
0000
0030
0100
0010
0000
,  // measure 9
0001
0010
0100
0000
1000
0000
1100
0000
,  // measure 10
1000
0010
0100
0000
0001
0010
0100
0000
,  // measure 11
0001
1000
0010
0000
0001
0000
0011
0000
,  // measure 12
0001
0100
0010
0000
1000
0100
0010
0000
,  // measure 13
0001
1000
0010
0100
0000
0001
0001
0000
,  // measure 14
0010
1000
0001
0100
0000
1000
0100
0000
,  // measure 15
0010
1000
0010
1000
0010
1000
0010
1000
,  // measure 16
0001
0000
0001
0000
0100
1000
0001
0010
,  // measure 17
2000
0000
0000
0000
,  // measure 18
3010
0000
0000
0001
0000
0100
0010
1000
,  // measure 19
0002
0000
0000
0000
,  // measure 20
0103
0000
0000
0010
0000
1000
0100
0010
,  // measure 21
0000
0001
0100
0000
0001
0100
1000
0010
,  // measure 22
0000
0010
1000
0000
0010
1000
0100
0001
,  // measure 23
0000
0001
0100
1000
0010
1000
0100
0010
,  // measure 24
0000
0001
0100
0010
1000
0100
0010
0100
,  // measure 25
0002
0000
0000
0000
,  // measure 26
0103
0010
0100
0010
0100
1000
0100
0010
,  // measure 27
0200
0000
0000
0000
,  // measure 28
0310
0100
0010
0100
0010
0001
0010
0100
,  // measure 29
0000
0010
0100
1000
0100
0010
0000
0010
,  // measure 30
0100
0001
0010
1000
0010
1000
0100
0010
,  // measure 31
0000
0010
0100
0001
0010
0100
0000
0010
,  // measure 32
0100
0001
0010
0100
1000
0010
0100
0000
,  // measure 33
2000
0000
0000
0100
0000
3100
0000
0100
,  // measure 34
0010
0000
0100
0000
0001
0010
1000
0100
,  // measure 35
0002
0000
0000
0100
0000
0103
0000
0100
,  // measure 36
0010
0000
0010
1000
0001
1000
0010
0000
,  // measure 37
0010
1000
0100
0010
0001
0010
0100
0000
,  // measure 38
0001
0010
0100
1000
0010
1000
0100
0000
,  // measure 39
1000
0100
0010
0100
0001
0010
0100
1000
,  // measure 40
0010
1000
0010
1000
0000
0001
1001
0000
,  // measure 41
0001
1000
0100
0001
0100
0001
0010
0000
,  // measure 42
0010
1000
0100
0010
0100
0010
1000
0000
,  // measure 43
0010
1000
0100
0001
0010
0100
1000
0000
,  // measure 44
1000
0100
1000
0010
0100
0001
0010
0000
,  // measure 45
0011
0000
0001
0100
0010
1000
0100
0000
,  // measure 46
1100
0000
1000
0010
0100
0001
0020
0000
,  // measure 47
0031
1200
0310
0101
,  // measure 48
1000
0100
0010
0100
0001
0010
0100
0000
,  // measure 49
0001
0100
1000
0000
0001
1000
0100
0000
,  // measure 50
0001
0010
1000
0100
0010
0100
0011
0000
,  // measure 51
0010
1000
0100
0000
0001
0010
1000
0000
,  // measure 52
0010
1000
0001
0010
0100
1000
1100
0000
,  // measure 53
1000
0010
1000
0010
0000
0001
0101
0000
,  // measure 54
0001
0100
0001
0100
0000
1000
1020
0000
,  // measure 55
0031
0021
0130
1010
,  // measure 56
0010
1000
0100
0010
0000
0001
0100
0000
,  // measure 57
0101
0000
0010
1000
0100
0010
0100
0000
,  // measure 58
0001
0100
0010
1000
0000
1000
0100
0000
,  // measure 59
1000
0100
0010
0100
0001
0010
0100
0000
,  // measure 60
0010
1000
0100
0010
0000
0001
0010
0000
,  // measure 61
0010
0100
0001
0100
0010
0100
0010
0000
,  // measure 62
1000
0100
0010
0100
1000
0010
1000
0000
,  // measure 63
0010
1000
0100
0001
0010
0100
1000
0010
,  // measure 64
1000
0000
1100
0000
1000
0100
0010
0001
;

//---------------dance-single - ----------------
#NOTES:
     dance-single:
     :
     Medium:
     8:
     0.440597,0.434970,0.156444,0.167618,0.000000,247.000000,14.000000,15.000000,0.000000,0.000000,0.000000,0.440597,0.434970,0.156444,0.167618,0.000000,247.000000,14.000000,15.000000,0.000000,0.000000,0.000000:
0000
0000
0000
0000
,
0000
0000
0000
0000
,
0000
0000
0000
0000
,
0000
0000
0000
0000
,
0000
0000
0000
0000
,
0002
0000
0000
0103
0000
0000
0000
0000
,
2000
0000
0000
3100
0000
0000
0000
0000
,
0110
0000
0110
0000
,
0001
0000
0100
0010
0000
0010
1000
0100
,
0010
0000
0001
0000
0010
0100
0001
0000
,
0010
1000
0010
0100
,
1000
0000
0010
0000
1000
0100
0010
0000
,
0001
0010
1000
0100
,
0001
0100
0001
0100
0000
0000
0001
0000
,
1000
0100
1000
0100
0000
0000
1000
0000
,
0010
0100
0010
0000
0001
0000
1000
0000
,
0010
1000
0100
0010
,
2000
0000
0000
0100
0000
0000
0100
0000
,
0000
0100
0000
0000
3100
0000
0001
0000
,
0020
0000
0000
0001
0000
0000
0001
0000
,
0000
0001
0000
0000
0031
0000
0001
0000
,
0010
1000
0100
0000
0010
0100
0001
0000
,
0001
0010
0100
1000
0010
0000
0001
0000
,
0010
1000
0010
0000
0001
0010
0100
0000
,
1000
0100
0010
0001
0010
0100
1000
0000
,
2000
0000
0000
0000
,
0100
0000
0000
0100
0000
0000
3100
0000
,
0002
0000
0000
0000
,
0000
0100
0000
0000
0100
0000
0003
0100
,
0000
0010
1000
0000
0010
1000
0001
0010
,
0000
0010
1000
0000
0001
0000
1000
0000
,
0010
0000
1000
0010
0000
0010
1000
0001
,
0000
0001
0010
0100
0001
0000
0100
0000
,
2100
0000
0100
0000
,
0100
0000
3100
0001
,
0020
0000
0001
0000
,
0001
0000
0031
0010
,
0001
1000
0001
0000
1000
0100
1000
0000
,
0010
0000
0001
0000
0010
0001
0010
0000
,
0001
0010
0100
1000
0010
0000
0001
0000
,
2200
0000
0000
3300
,
0001
0010
1000
0000
0010
0000
0001
0000
,
1000
0010
0001
0000
0010
0000
1000
0000
,
0001
1000
0100
0000
0010
0000
1000
0000
,
0001
0010
1000
0000
0001
0000
0100
0000
,
1000
0001
0100
0000
0010
0000
0000
0000
,
0001
1000
0010
0000
0100
0000
0000
0000
,
1000
1100
0100
0101
,
0020
0000
0031
0010
,
1000
0001
0010
0000
1000
0000
0001
0000
,
0100
0000
0010
0000
0001
1000
0100
0000
,
0010
1000
0001
0010
,
0100
0000
1000
0000
0100
1000
0100
0000
,
0020
0000
0000
0130
0000
0000
0001
0000
,
2000
0000
0000
3001
0000
0000
0010
0000
,
0100
0101
0100
1100
,
2000
0000
0000
3010
,
0001
0010
1000
0000
0010
0000
1001
0000
,
1000
0100
0001
0000
0010
0000
0101
0000
,
0010
1000
0100
0000
0001
0000
0011
0000
,
1000
0010
0100
0000
0100
0000
1100
0000
,
2100
0000
0100
0000
,
3001
0010
0100
0001
,
0010
0100
1000
0000
0010
0100
0001
0000
,
0010
0000
0110
0000
1000
0100
0010
0001
;

//---------------dance-single - ----------------
#NOTES:
     dance-single:
     :
     Easy:
     5:
     0.264997,0.253243,0.011175,0.134095,0.000000,153.000000,1.000000,12.000000,0.000000,0.000000,0.000000,0.264997,0.253243,0.011175,0.134095,0.000000,153.000000,1.000000,12.000000,0.000000,0.000000,0.000000:
0000
0000
0000
0000
,
0000
0000
0000
0000
,
0000
0000
0000
0000
,
0000
0000
0000
0000
,
0000
0000
0000
0000
,
0002
0000
0103
0000
,
2000
0000
3100
0000
,
0110
0000
0000
0000
,
0001
0000
1000
0000
,
0010
0000
0000
1000
,
0010
0000
0000
0001
,
0010
0000
0000
1000
,
0100
0000
0000
0001
,
0100
0000
0100
0000
,
0100
0000
0100
0000
,
0020
0000
0000
0000
,
1030
0001
1000
0001
,
0200
0000
0000
0000
,
0000
0000
0000
0310
,
0002
0000
0000
0000
,
0000
0000
1003
0000
,
1000
0100
0010
0000
,
0001
0010
1000
0000
,
1000
0100
0001
0000
,
0001
0100
1000
0010
,
2000
0000
0000
0000
,
3100
0010
0100
0000
,
0002
0000
0000
0000
,
0013
0100
0010
0000
,
1000
0010
0001
0000
,
0010
0000
0100
0000
,
0001
0010
1000
0000
,
0100
0000
0010
0000
,
1000
0100
0010
0000
,
1000
0100
0010
0000
,
0001
0010
0100
0000
,
0001
0010
0100
0000
,
1000
0001
0100
0000
,
0001
1000
0100
0000
,
0010
1000
0010
1000
,
0002
0000
0000
0000
,
0103
0000
0100
0000
,
0010
1000
0001
0000
,
0100
0000
0100
0000
,
0010
0001
1000
0000
,
2000
0100
3100
0000
,
0002
0100
0103
0000
,
0020
0000
0130
0000
,
1000
0001
0010
0000
,
0001
0001
1000
0010
,
0100
0000
0100
0000
,
1000
1000
0010
0100
,
0001
0000
0001
0000
,
0001
0100
0010
0000
,
1000
0010
0100
0000
,
0001
0100
1000
0100
,
0001
0010
0010
0000
,
1000
0010
0001
0000
,
1000
0100
0001
0000
,
0001
0010
1000
0000
,
0001
0100
1000
0000
,
0010
1000
0010
1000
,
0001
0001
0100
0100
,
0020
0000
0000
0000
,
0031
1000
0010
0100
;

//---------------dance-single - ----------------
#NOTES:
     dance-single:
     :
     Beginner:
     2:
     0.110149,0.107276,0.000000,0.000000,0.000000,69.000000,0.000000,0.000000,0.000000,0.000000,0.000000,0.110149,0.107276,0.000000,0.000000,0.000000,69.000000,0.000000,0.000000,0.000000,0.000000,0.000000:
0000
0000
0000
0000
,
0000
0000
0000
0000
,
0000
0000
0000
0000
,
0000
0000
0000
0000
,
0000
0000
0000
0000
,
1000
0000
0000
0000
,
0001
0000
0000
0000
,
0100
0000
0000
0000
,
0010
0000
0000
0000
,
1000
0000
0100
0000
,
1000
0000
0000
0000
,
0001
0000
0000
0000
,
0001
0000
0000
0000
,
0001
0000
0100
0000
,
0001
0000
0000
0000
,
1000
0000
0000
0000
,
1000
0000
0000
0000
,
0010
0000
0000
0000
,
0000
0000
0000
0000
,
0100
0000
0000
0000
,
0000
0000
0000
0000
,
1000
0000
0001
0000
,
1000
0000
0000
0000
,
0001
0000
1000
0000
,
0001
0000
0000
0000
,
0010
0000
0000
0000
,
0000
0000
0000
0000
,
0100
0000
0000
0000
,
0000
0000
0000
0000
,
1000
0000
0001
0000
,
1000
0000
0000
0000
,
0001
0000
1000
0000
,
0001
0000
0000
0000
,
1000
0000
0000
0000
,
0100
0000
0000
0000
,
0010
0000
0000
0000
,
0001
0000
0000
0000
,
0001
0000
0000
0000
,
0100
0000
0000
0000
,
0010
0000
0000
0000
,
1000
0000
0000
0000
,
1000
0000
0010
0000
,
1000
0000
0000
0000
,
0001
0000
0100
0000
,
0001
0000
0000
0000
,
1000
0000
0000
0000
,
0100
0000
0000
0000
,
0010
0000
0000
0000
,
0001
0000
0000
0000
,
1000
0000
0100
0000
,
1000
0000
0000
0000
,
0001
0000
0010
0000
,
0001
0000
0000
0000
,
1000
0000
0000
0000
,
0100
0000
0000
0000
,
0010
0000
0000
0000
,
0001
0000
0000
0000
,
1000
0000
0100
0000
,
0010
0000
0000
0000
,
0001
0000
0010
0000
,
0100
0000
0000
0000
,
1000
0000
0010
0000
,
0001
0000
0000
0000
,
1000
0000
0000
0000
,
0001
0000
0000
0000
;
