#TITLE:ポメグラネイト;
#SUBTITLE:;
#ARTIST:ここなつ;
#TITLETRANSLIT:Pomegranate;
#SUBTITLETRANSLIT:;
#ARTISTTRANSLIT:CocoNatsu;
#GENRE:SOUND VOLTEX;
#CREDIT:;
#BANNER:;
#BACKGROUND:;
#LYRICSPATH:;
#CDTITLE:;
#MUSIC:Pomegranate.ogg;
#OFFSET:1.240000;
#SAMPLESTART:60.991108;
#SAMPLELENGTH:15.000000;
#LASTBEATHINT:0.436721;
#SELECTABLE:YES;
#BPMS:0.000000=130.000000
;
#STOPS:
;
#BGCHANGES:;
#KEYSOUNDS:;
#ATTACKS:;

//---------------dance-single - ----------------
#NOTES:
     dance-single:
     :
     Beginner:
     2:
     0.093257,0.078880,0.027200,0.000000,0.000000,69.000000,3.000000,0.000000,0.000000,0.000000,0.000000,0.093257,0.078880,0.027200,0.000000,0.000000,69.000000,3.000000,0.000000,0.000000,0.000000,0.000000:
// measure 0
0000
0000
0000
0000
,  // measure 1
0000
0000
0000
0000
,  // measure 2
1000
0000
0000
0000
,  // measure 3
0001
0000
0000
0000
,  // measure 4
1000
0000
0000
0000
,  // measure 5
0001
0000
0000
0000
,  // measure 6
0100
0000
0000
0000
,  // measure 7
0010
0000
0000
0000
,  // measure 8
0100
0000
0000
0000
,  // measure 9
0010
0000
0000
0000
,  // measure 10
1000
0000
0000
0000
,  // measure 11
0100
0000
0000
0000
,  // measure 12
1000
0000
0000
0000
,  // measure 13
0010
0000
0000
0000
,  // measure 14
0001
0000
0000
0000
,  // measure 15
0100
0000
0000
0000
,  // measure 16
0001
0000
0000
0000
,  // measure 17
0010
0000
0000
0000
,  // measure 18
1000
0000
0100
0000
,  // measure 19
1000
0000
0000
0000
,  // measure 20
0001
0000
0100
0000
,  // measure 21
0001
0000
0000
0000
,  // measure 22
1000
0000
0010
0000
,  // measure 23
1000
0000
0000
0000
,  // measure 24
0001
0000
0010
0000
,  // measure 25
0001
0000
0000
0000
,  // measure 26
1000
0000
0000
0000
,  // measure 27
0100
0000
0000
0000
,  // measure 28
0010
0000
0000
0000
,  // measure 29
0001
0000
0000
0000
,  // measure 30
1000
0000
0000
0000
,  // measure 31
0010
0000
0000
0000
,  // measure 32
0100
0000
0000
0000
,  // measure 33
0001
0000
0000
0000
,  // measure 34
1000
0000
0100
0000
,  // measure 35
1000
0000
0000
0000
,  // measure 36
0001
0000
0100
0000
,  // measure 37
0001
0000
0000
0000
,  // measure 38
1000
0000
0010
0000
,  // measure 39
1000
0000
0000
0000
,  // measure 40
0001
0000
0010
0000
,  // measure 41
0001
0000
0000
0000
,  // measure 42
0100
0000
0010
0000
,  // measure 43
0100
0000
0000
0000
,  // measure 44
0001
0000
1000
0000
,  // measure 45
0001
0000
0000
0000
,  // measure 46
0010
0000
0100
0000
,  // measure 47
0010
0000
0000
0000
,  // measure 48
1000
0000
0001
0000
,  // measure 49
1000
0000
0000
0000
,  // measure 50
0110
0000
0000
0000
,  // measure 51
0100
0000
0000
0000
,  // measure 52
1000
0000
0000
0000
,  // measure 53
0001
0000
0000
0000
,  // measure 54
0110
0000
0000
0000
,  // measure 55
0010
0000
0000
0000
,  // measure 56
1000
0000
0000
0000
,  // measure 57
0001
0000
0000
0000
,  // measure 58
1001
0000
0000
0000
;

//---------------dance-single - ----------------
#NOTES:
     dance-single:
     :
     Easy:
     5:
     0.279772,0.267467,0.090667,0.199467,0.000000,184.000000,10.000000,22.000000,0.000000,0.000000,0.000000,0.279772,0.267467,0.090667,0.199467,0.000000,184.000000,10.000000,22.000000,0.000000,0.000000,0.000000:
// measure 0
0000
0000
0000
0000
,  // measure 1
0000
0000
0000
0000
,  // measure 2
1000
0000
0100
0000
,  // measure 3
1000
0000
0100
0000
,  // measure 4
0001
0000
0100
0000
,  // measure 5
0001
0000
0100
0000
,  // measure 6
1000
0000
0010
0000
,  // measure 7
1000
0000
0010
0000
,  // measure 8
0001
0000
0010
0000
,  // measure 9
0001
0000
0010
0000
,  // measure 10
1000
0100
1000
0010
,  // measure 11
1000
0100
1000
1001
,  // measure 12
0001
0100
0001
0010
,  // measure 13
0001
0100
0001
1001
,  // measure 14
1000
0100
0001
0100
,  // measure 15
1000
0100
0010
1001
,  // measure 16
0001
0010
1000
0010
,  // measure 17
0001
0010
0100
1001
,  // measure 18
2000
0000
3100
0010
,  // measure 19
0200
0000
0310
0001
,  // measure 20
0020
0000
0031
0010
,  // measure 21
0002
0000
1003
0001
,  // measure 22
0200
0000
0310
1000
,  // measure 23
0002
0000
1003
0100
,  // measure 24
0020
0000
0130
0001
,  // measure 25
2000
0000
3001
0010
,  // measure 26
0100
1000
0100
1000
,  // measure 27
0100
0001
0100
0000
,  // measure 28
0001
0010
0001
0010
,  // measure 29
1000
0010
1000
0000
,  // measure 30
0001
0100
1000
0100
,  // measure 31
0001
0010
1000
0010
,  // measure 32
0100
0001
1000
0010
,  // measure 33
0220
0000
0000
0330
,  // measure 34
0001
0100
1000
0001
,  // measure 35
1000
0100
0001
1000
,  // measure 36
0020
0000
0130
0001
,  // measure 37
2000
0000
3010
0100
,  // measure 38
0001
0100
1000
0000
,  // measure 39
1000
0100
0001
0000
,  // measure 40
1000
0010
0100
0001
,  // measure 41
0101
1100
0101
0000
,  // measure 42
1000
0010
0002
0103
,  // measure 43
1000
0010
0200
0301
,  // measure 44
1000
0010
0002
0103
,  // measure 45
2000
0000
3002
0000
,  // measure 46
0103
0010
1000
0000
,  // measure 47
0010
0100
0002
0000
,  // measure 48
0103
1000
0010
1000
,  // measure 49
2002
0000
0000
3003
,  // measure 50
0100
1000
0100
1000
,  // measure 51
0100
0001
0100
0001
,  // measure 52
0010
1000
0010
1000
,  // measure 53
0010
0001
0010
0001
,  // measure 54
0100
0010
1000
0010
,  // measure 55
0001
0100
0010
0100
,  // measure 56
0001
0100
1000
0100
,  // measure 57
0010
0001
1000
0010
,  // measure 58
2002
0000
0000
0000
,  // measure 59
3003
0000
0000
0000
;

//---------------dance-single - ----------------
#NOTES:
     dance-single:
     :
     Medium:
     7:
     0.374324,0.320960,0.090667,0.208534,0.000000,256.000000,10.000000,23.000000,0.000000,0.000000,0.000000,0.374324,0.320960,0.090667,0.208534,0.000000,256.000000,10.000000,23.000000,0.000000,0.000000,0.000000:
// measure 0
0000
0000
0000
0000
,  // measure 1
0000
0000
0000
0000
,  // measure 2
1000
0100
1000
0100
,  // measure 3
1000
0001
1000
0001
,  // measure 4
0100
0001
0100
0001
,  // measure 5
0010
0001
0010
0001
,  // measure 6
0100
0010
0100
0010
,  // measure 7
1000
0001
1000
0001
,  // measure 8
0100
0010
0100
0010
,  // measure 9
0001
0000
1000
0000
0001
1000
0010
0000
,  // measure 10
1000
0000
0100
0000
1000
0010
0100
0000
,  // measure 11
0001
0000
0100
0000
0001
0100
0010
0000
,  // measure 12
1000
0000
0100
0000
1000
0100
0010
0000
,  // measure 13
0001
0000
0010
0000
0001
0010
0100
0000
,  // measure 14
1000
0000
0001
0000
0100
0010
1000
0000
,  // measure 15
0001
0000
1000
0000
0010
0100
0001
0000
,  // measure 16
0100
1001
0010
1001
,  // measure 17
0100
0010
1000
0000
0001
0100
0010
0000
,  // measure 18
2000
3010
0001
1000
,  // measure 19
0002
0000
0013
0000
0100
0000
1000
0001
,  // measure 20
0010
0000
0100
0000
0001
1000
0010
0000
,  // measure 21
2000
3010
0002
0013
,  // measure 22
0100
0000
0001
0000
1000
0010
0200
0000
,  // measure 23
1300
0000
0001
0000
0010
0100
0002
0000
,  // measure 24
0103
0000
0010
0000
1000
0001
0200
0000
,  // measure 25
0310
1000
1001
1001
,  // measure 26
0020
0000
1030
0001
,  // measure 27
0200
0000
0000
0000
0310
1000
0001
0000
,  // measure 28
0020
0000
1030
0001
,  // measure 29
0200
0000
0000
0000
0310
1000
0001
0000
,  // measure 30
0200
1300
0200
0301
,  // measure 31
0200
1300
0200
0301
,  // measure 32
0010
1000
0001
0000
0010
1000
0001
0000
,  // measure 33
0200
0000
0020
0330
,  // measure 34
0001
0100
0010
0000
1000
0000
1100
0000
,  // measure 35
1000
0010
0100
0000
0001
0000
0011
0000
,  // measure 36
0100
0001
1000
0000
0010
1000
0001
0000
,  // measure 37
0100
0000
0010
0000
1000
0001
1001
0000
,  // measure 38
0010
0000
1000
0000
0001
0100
0010
0000
,  // measure 39
1000
0000
0001
0000
1000
0010
0100
0000
,  // measure 40
0001
0100
1000
0000
1000
0010
0001
0000
,  // measure 41
0200
0010
1000
0310
,  // measure 42
0001
1000
0010
0000
1000
0000
0001
0000
,  // measure 43
0010
1000
0001
0000
1000
0000
0001
0000
,  // measure 44
0100
0010
1000
0000
0010
0100
0001
0000
,  // measure 45
0100
0010
1001
1001
,  // measure 46
0020
1000
0001
1030
,  // measure 47
0200
0001
1000
0001
,  // measure 48
0310
1000
0001
0000
0100
0001
1000
0000
,  // measure 49
0020
0000
0000
0030
,  // measure 50
1000
0000
0100
0000
1000
0100
0001
0000
,  // measure 51
0010
0000
0001
0000
0001
0010
0100
0000
,  // measure 52
1000
0010
0100
1000
,  // measure 53
0010
0100
0001
0010
,  // measure 54
1000
0000
0010
0000
1000
0001
0010
0000
,  // measure 55
1000
0000
0010
0000
0001
0100
0010
0000
,  // measure 56
1000
0001
0100
0000
0001
1000
0010
0000
,  // measure 57
1000
0000
0001
0100
0010
0000
1000
0000
,  // measure 58
2002
0000
0000
0000
,  // measure 59
3003
0000
0000
0000
;

//---------------dance-single - ----------------
#NOTES:
     dance-single:
     :
     Hard:
     10:
     0.501258,0.427947,0.208534,0.226667,0.013600,339.000000,23.000000,25.000000,0.000000,0.000000,0.000000,0.501258,0.427947,0.208534,0.226667,0.013600,339.000000,23.000000,25.000000,0.000000,0.000000,0.000000:
// measure 0
0000
0000
0000
0000
,  // measure 1
0000
0000
0000
0000
,  // measure 2
1000
0100
1000
0100
,  // measure 3
1000
0010
1000
0010
,  // measure 4
0001
1000
0001
1000
,  // measure 5
0001
0100
0001
0100
,  // measure 6
1000
0100
1000
0100
1000
0100
1000
0100
,  // measure 7
0010
0100
0010
0100
0010
0100
0010
0100
,  // measure 8
0010
0001
0010
0001
0010
0001
0010
0001
,  // measure 9
2000
0001
0001
3001
,  // measure 10
0001
0010
0100
0000
1000
0000
1001
0000
,  // measure 11
1000
0010
0100
0000
0001
0100
0010
1000
,  // measure 12
1001
0000
0010
0000
1000
0010
0100
0000
,  // measure 13
0001
0000
0100
0000
1000
0010
0100
0001
,  // measure 14
1001
0000
0010
0000
0100
0001
1000
0000
,  // measure 15
0010
0000
0100
0000
0001
0100
0010
1000
,  // measure 16
1001
0000
1000
0000
0010
1000
0001
0000
,  // measure 17
0100
1000
0010
0100
0001
0100
0110
0000
,  // measure 18
1000
0100
1000
0100
0010
0100
0001
0000
,  // measure 19
0100
0001
0100
0001
0100
1000
0010
0000
,  // measure 20
1000
0010
0001
0010
1000
0100
0001
0100
,  // measure 21
1000
0010
0100
0001
0101
0000
1100
0000
,  // measure 22
0010
1000
0001
0100
0010
1000
1001
0000
,  // measure 23
1000
0010
0100
0001
1000
0010
0101
0000
,  // measure 24
0100
1000
0100
0000
0001
0100
0001
0000
,  // measure 25
1000
0010
0100
0001
0010
0000
0110
0000
,  // measure 26
2000
0001
0010
3001
,  // measure 27
0020
0100
0001
0130
,  // measure 28
0200
0001
1000
0310
,  // measure 29
0002
0100
0010
0100
,  // measure 30
0013
1000
0010
0100
0001
0010
0100
0000
,  // measure 31
1000
0010
0100
0001
0010
1000
0001
0000
,  // measure 32
1000
0001
0100
0001
1000
0010
1000
0001
,  // measure 33
0100
0010
1000
0001
1001
0000
1001
0000
,  // measure 34
0011
0000
0000
0000
0100
0000
0001
0000
1000
0000
0000
0010
0000
0000
0100
0000
,  // measure 35
0001
0000
0000
0000
0010
0000
1000
0000
0001
0000
0000
0100
0000
0000
1000
0000
,  // measure 36
1001
0000
0000
0000
0010
0000
1000
0000
0100
0000
0000
0001
0000
0000
0010
0000
,  // measure 37
1000
0000
0001
1000
0010
0100
1001
0000
,  // measure 38
0010
1000
0100
0010
0001
0100
0101
0000
,  // measure 39
0001
0100
0010
1000
0100
1000
1100
0000
,  // measure 40
0010
1000
0001
0100
0010
1000
0001
0000
,  // measure 41
0100
0001
0100
1000
1001
0000
1001
0000
,  // measure 42
0010
1000
0001
0000
0100
0001
1000
0000
,  // measure 43
0010
1000
0001
0010
1000
0100
1001
0000
,  // measure 44
0001
1000
0010
0000
1000
0010
0001
0000
,  // measure 45
0100
0010
1000
0010
0001
1000
1001
0000
,  // measure 46
0200
0000
0310
0001
2000
0000
3001
0010
,  // measure 47
2000
0000
3010
0001
0200
0000
0301
0010
,  // measure 48
0002
0100
0010
0100
,  // measure 49
0013
0100
0001
0100
1000
0010
1001
0000
,  // measure 50
2000
0000
3010
0001
0100
0010
0002
0000
,  // measure 51
0013
0000
0100
0001
1000
0010
0200
0000
,  // measure 52
0320
0000
1030
0001
0010
1000
0200
0000
,  // measure 53
0302
0000
0013
1000
0001
0100
2000
0000
,  // measure 54
3020
0000
0130
0001
1000
0010
0200
0000
,  // measure 55
0302
0000
0023
0000
1030
0010
0100
0001
,  // measure 56
0020
0000
0230
0000
0301
1000
0010
1000
,  // measure 57
0001
0001
0100
0100
0010
1000
0001
1000
,  // measure 58
2002
0000
0000
0000
,  // measure 59
3003
0000
0000
0000
;
