#TITLE:ポチコの幸せな日常;
#SUBTITLE:;
#ARTIST:NU-KO;
#TITLETRANSLIT:Pochiko no shiawasena nichijou;
#SUBTITLETRANSLIT:;
#ARTISTTRANSLIT:;
#GENRE:pop'n music;
#CREDIT:;
#BANNER:;
#BACKGROUND:;
#LYRICSPATH:;
#CDTITLE:;
#MUSIC:Pochiko no shiawasena nichijou.ogg;
#OFFSET:0.787000;
#SAMPLESTART:42.308037;
#SAMPLELENGTH:15.000000;
#SELECTABLE:YES;
#BPMS:0.000000=192.000000
;
#STOPS:
;
#BGCHANGES:;
#KEYSOUNDS:;
#ATTACKS:;

//---------------dance-single - ----------------
#NOTES:
     dance-single:
     :
     Beginner:
     4:
     0.163339,0.236297,0.093163,0.016939,0.000000,135.000000,124.000000,11.000000,2.000000,0.000000,0.000000,0.163339,0.236297,0.093163,0.016939,0.000000,135.000000,124.000000,11.000000,2.000000,0.000000,0.000000:
0000
0000
0000
0000
,
0000
0000
0000
0000
,
0000
0000
0000
0000
,
0000
0000
0000
0000
,
0000
0000
0000
0000
,
1000
0000
0001
0000
,
1001
0000
0000
0000
,
1000
0000
0000
0000
,
0100
0000
0000
0000
,
0010
0000
0000
0000
,
0001
0000
0000
0000
,
1000
0000
0100
0000
,
1000
0000
0000
0000
,
0001
0000
0100
0000
,
0001
0000
0000
0000
,
0001
0000
0000
0000
,
0010
0000
0000
0000
,
0100
0000
0000
0000
,
1000
0000
0000
0000
,
0001
0000
0010
0000
,
0001
0000
0000
0000
,
1000
0000
0100
0000
,
1000
0000
0000
0000
,
0001
0000
1000
0000
,
1001
0000
0000
0000
,
0100
0000
0000
0000
,
1001
0000
0000
0000
,
0010
0000
0000
0000
,
1100
0000
0000
0000
,
0001
0000
0000
0000
,
0101
0000
0000
0000
,
1000
0000
1000
0000
,
1000
0000
0001
0000
,
0002
0000
0000
0000
,
0003
0000
0000
0000
,
0100
0000
1000
0000
,
0100
0000
0000
0000
,
0010
0000
0001
0000
,
0010
0000
0000
0000
,
1000
0000
0001
0000
,
1000
0000
0000
0000
,
0001
0000
1000
0000
,
0001
0000
0000
0000
,
0110
0000
0000
0000
,
0110
0000
0000
0000
,
1000
0000
0100
0000
,
1000
0000
0000
0000
,
0001
0000
0010
0000
,
0001
0000
0000
0000
,
0100
0000
0010
0000
,
0200
0000
0000
0000
,
0310
0000
0010
0000
,
0010
0000
0000
0000
,
0100
0000
0100
0000
,
0100
0000
0000
0000
,
0001
0000
0001
0000
,
0001
0000
0000
0000
,
1000
0000
1000
0000
,
1000
0000
0000
0000
,
0100
0000
1000
0000
,
0100
0000
0000
0000
,
0010
0000
0001
0000
,
0010
0000
0000
0000
,
0100
0000
1000
0000
,
0010
0000
0000
0000
,
0010
0000
0001
0000
,
0100
0000
0000
0000
,
1001
0000
0000
0000
,
0100
0000
0000
0000
,
1000
0000
0100
0000
,
1000
0000
0000
0000
,
0001
0000
0010
0000
,
0001
0000
0000
0000
,
0100
0000
0010
0000
,
0100
0000
0000
0000
,
0001
0000
1000
0000
,
0001
0000
0100
0000
,
0001
0000
0000
0000
,
1000
0000
0100
0000
,
1000
0000
0000
0000
,
0001
0000
0010
0000
,
0001
0000
0000
0000
,
1000
0000
0010
0000
,
1000
0000
0010
0000
,
0100
0000
0010
0000
,
0110
0000
0000
0000
,
1001
0000
0000
0000
,
1000
0000
0100
0000
,
0001
0000
0000
0000
,
0001
0000
0010
0000
,
1000
0000
0000
0000
,
0100
0000
0001
0000
,
1000
0000
0000
0000
,
1001
0000
0000
0000
;

//---------------dance-single - ----------------
#NOTES:
     dance-single:
     :
     Easy:
     7:
     0.405322,0.553582,0.381123,0.313368,0.000000,335.000000,290.000000,45.000000,37.000000,0.000000,0.000000,0.405322,0.553582,0.381123,0.313368,0.000000,335.000000,290.000000,45.000000,37.000000,0.000000,0.000000:
0000
0000
0000
0000
,
0000
0000
0000
0000
,
0000
0000
0000
0000
,
0000
0000
0000
0000
,
0000
0000
0000
0000
,
1000
0100
0010
0001
,
2002
0000
0000
3003
,
0001
0000
1000
0000
,
0001
0000
1000
0000
,
0100
0000
0010
0000
,
0100
0000
0010
0000
,
1000
0100
1000
0100
,
0001
0100
0001
0100
,
0010
0100
1000
0001
,
2002
0000
3003
0000
,
1000
0010
0100
0001
,
0100
0010
1000
1000
,
1000
0010
0100
0001
,
0001
0100
0010
0000
,
0001
0010
0100
1000
,
0010
0100
0001
0100
,
0001
1000
0001
0100
,
0010
0010
0010
0000
,
1000
0001
1001
1001
,
0010
1000
0100
0010
,
0100
0001
1001
1001
,
0001
0100
0010
1000
,
0001
0100
1001
1001
,
0100
0010
1000
0001
,
0100
0010
1001
1001
,
0100
1000
0001
0000
,
1001
0100
1000
0010
,
0100
0001
0100
0010
,
2000
0001
0001
3001
,
0010
0100
0000
0000
,
1001
1001
0010
1000
,
0100
0001
0202
0303
,
0001
0100
0010
1000
,
0001
0100
2200
3300
,
0010
1000
0100
0001
,
0010
0100
0220
0330
,
0001
1000
0010
0100
,
1001
2002
3003
0000
,
0010
1000
0001
0100
,
0110
0220
0000
0330
,
0001
0100
1000
0100
,
0001
0010
1000
0010
,
1000
0100
0001
0100
,
1000
0010
1001
0000
,
0010
0100
0001
1000
,
0010
0100
2002
3003
,
0020
0000
1030
0000
,
0200
0000
0301
0000
,
0020
0000
0031
0000
,
0200
0000
1300
0000
,
2000
0000
3100
0000
,
0200
0000
0310
0000
,
0020
0000
0031
0000
,
0002
0000
1003
0000
,
1000
0010
0100
0001
,
0100
0010
1001
0000
,
1000
0001
0100
0010
,
1000
0001
1001
0000
,
0001
0100
0010
1000
,
0010
0100
1001
0000
,
0100
1000
0100
0001
,
0100
1000
0100
0001
,
0020
0000
0130
0000
,
2000
0000
3001
0000
,
1000
0100
0101
0000
,
0001
0100
1100
0000
,
1000
0010
0011
0000
,
0001
0010
1010
0000
,
1000
0100
0001
0100
,
0010
1000
0001
1001
,
0010
1000
0001
0100
,
0110
0110
1000
0001
,
0100
0010
2002
3003
,
0010
1000
0001
0100
,
0010
0010
0100
0100
,
1001
1001
0010
1000
,
0100
0001
0220
0330
,
0001
0100
2000
3010
,
0100
0010
0002
0013
,
1000
0001
0100
0010
,
0002
0000
1003
0100
,
2000
0000
3001
0010
,
0001
1000
0010
0100
,
0001
1000
1001
1001
,
0010
1000
0101
0101
,
0100
0001
1010
1010
,
0001
0100
0011
0011
,
2002
0000
0000
0000
,
0000
0000
0000
3003
0000
0000
0000
0000
;

//---------------dance-single - ----------------
#NOTES:
     dance-single:
     :
     Medium:
     11:
     0.588019,0.672206,0.398062,0.110102,0.000000,486.000000,439.000000,47.000000,13.000000,0.000000,0.000000,0.588019,0.672206,0.398062,0.110102,0.000000,486.000000,439.000000,47.000000,13.000000,0.000000,0.000000:
0000
0000
0000
0000
,
0000
0000
0000
0000
,
0000
0000
0000
0000
,
0000
0000
0000
0000
,
0000
0000
0000
0000
,
1000
0000
0010
0000
0100
0001
1000
0000
,
0010
0100
0010
0200
0000
0000
0000
0000
,
0310
0000
1000
0000
,
0020
0000
0130
0000
,
0010
0000
0001
0000
,
0020
0000
0130
0000
,
1000
0000
0010
0000
0100
0001
1000
0000
,
0010
0000
0100
0000
0001
1000
0010
0000
,
1000
0100
0010
0000
0100
0010
0001
0000
,
0100
0001
1000
0010
0100
0001
1000
0000
,
0010
0000
0100
0000
0001
1000
0020
0000
,
0130
0001
1000
0010
,
0100
0000
0010
0000
0100
0010
2000
0000
,
3010
0000
0100
0000
0001
1000
0010
0000
,
1001
0000
1001
0000
0010
1000
0001
0000
,
0110
0000
0110
0000
0001
0100
1000
0000
,
0010
0100
0001
1000
0010
0100
0001
1000
,
0010
0100
0001
1000
,
0010
0100
0110
0110
,
1000
0100
0010
0000
0100
0000
0001
0000
,
1000
0001
0010
0000
0100
0000
1001
0000
,
0001
0010
0100
0000
0010
0000
0100
0000
,
0010
1000
0001
0000
0100
0000
0101
0000
,
0001
0100
0010
0000
1000
0010
0100
0000
,
0001
1000
0010
0100
0001
0000
1000
0000
,
0220
0000
0000
0330
,
0001
0000
0100
0000
0010
1000
0100
0000
,
0010
0100
0001
0000
0001
0100
1000
0000
,
0010
1000
0001
0100
,
0010
1000
0100
0001
0000
0000
0010
0100
,
0000
0000
1000
0000
0001
0100
0010
1000
,
0000
0000
1001
0000
0010
1000
0100
0000
,
0010
0100
0001
0000
0001
0100
1000
0000
,
0010
1000
0010
0000
0001
0000
1001
0000
,
0010
1000
0100
0000
0001
0000
1001
0000
,
0001
0010
0100
0000
1000
0000
1010
0000
,
1000
0100
0010
0000
0100
0010
0001
0000
,
0001
1000
0010
0100
1001
0000
1001
0000
,
0010
0100
1000
0000
0001
0100
0010
0000
,
0001
1000
0010
0100
0110
0000
0101
0000
,
0010
0100
1000
0000
0000
0100
1100
0000
,
1000
0001
0100
0000
0010
0000
0011
0000
,
0001
0100
1000
0000
1000
0100
0001
0000
,
0010
1000
0100
0001
1000
0000
1001
0000
,
0010
0000
0100
0000
0001
1000
0010
0000
,
1000
0001
0100
0020
0000
0000
0000
0000
,
0130
0000
0000
1000
0100
0000
0100
0000
,
0001
0000
0000
0001
0010
0000
0010
0000
,
1000
0000
0000
1000
0100
0000
0001
0000
,
0100
0000
0000
0001
0010
0000
1000
0000
,
0010
0100
0001
1000
,
0010
0100
0001
1000
,
1000
0100
0010
0000
0100
0010
0001
0000
,
0001
0010
0100
1000
0001
0010
0100
1000
,
0001
1001
0010
1001
,
0010
1000
0100
0000
0010
0100
0001
0000
,
1001
0100
1001
0100
,
0010
1000
0100
0000
0010
0100
0001
0000
,
0010
0100
1000
0000
0010
0000
1001
0000
,
0010
0100
0001
0000
1000
0000
1001
0000
,
0001
0100
1000
0000
1000
0100
0001
0000
,
0001
0010
1000
0000
1000
0010
0001
0000
,
0001
0100
0010
1000
0100
0010
0001
0100
,
0010
1000
0002
0000
0000
0000
0000
0000
,
1003
0100
0010
0110
,
0001
0010
0100
0110
,
1000
1100
0001
0101
,
0011
1010
0011
1010
,
0001
1000
0010
0110
,
1000
0001
0100
1001
,
0020
0000
0230
0000
,
0301
1000
0010
0100
0001
1000
1001
0000
,
0010
1000
0100
0010
0100
0001
0010
0000
,
0010
0100
0001
0100
0010
1000
1001
0001
,
0000
1001
0000
0110
0000
1000
0001
0010
,
0000
0000
0110
0000
0001
1000
0010
0000
,
0100
0000
1001
0000
0010
0100
1000
0000
,
0001
1000
0010
0100
0001
0000
1001
0000
,
1000
0010
0100
0001
1000
0000
1001
0000
,
0100
0010
0001
0000
0010
0100
1000
0000
,
0002
0000
0103
1000
,
2000
0000
3010
0001
,
1000
0100
0010
0000
0001
0010
0100
0000
,
0001
0100
0010
1001
0000
0000
1001
0000
,
0010
1000
0100
0000
0010
0100
0001
0100
,
0000
0010
0100
0000
1000
0100
0010
0001
,
0000
0001
0100
0000
0001
0010
0100
1000
,
0000
1000
0100
0000
0100
0010
0000
0010
,
0001
0000
0001
1001
0000
0000
0000
0000
;

//---------------dance-single - ----------------
#NOTES:
     dance-single:
     :
     Hard:
     13:
     0.718690,0.711748,0.499695,0.177858,0.038112,594.000000,535.000000,59.000000,21.000000,0.000000,0.000000,0.718690,0.711748,0.499695,0.177858,0.038112,594.000000,535.000000,59.000000,21.000000,0.000000,0.000000:
// measure 0
0000
0000
0000
0000
,  // measure 1
0000
0000
0000
0000
,  // measure 2
0000
0000
0000
0000
,  // measure 3
0000
0000
0000
0000
,  // measure 4
0000
0000
0000
0000
,  // measure 5
1001
0000
0000
0000
0110
0000
0000
0000
0001
0000
1000
0000
0100
0010
0100
0000
,  // measure 6
1000
0100
0010
0002
0000
0000
0000
0000
,  // measure 7
2003
0000
3002
0000
0103
0001
0010
0000
,  // measure 8
0200
0302
0023
2030
,  // measure 9
3200
0000
0320
0000
0031
0100
1000
0000
,  // measure 10
0010
0000
0100
0000
0001
0010
0100
0000
,  // measure 11
1000
0010
0100
0001
1000
0000
1001
0000
,  // measure 12
0001
0100
0010
1000
0001
0000
1001
0000
,  // measure 13
1000
0100
0001
0010
0100
1000
0001
1000
,  // measure 14
0010
0100
0010
0200
0000
1300
0001
0000
,  // measure 15
1000
0000
1001
0000
0100
0001
0010
0000
,  // measure 16
1000
0001
0010
0100
1000
0010
1001
0000
,  // measure 17
0010
1000
0100
0000
0010
0100
0001
0000
,  // measure 18
0001
0010
0100
1000
0001
0000
1001
0000
,  // measure 19
1000
0100
0001
0000
0001
0100
1000
0000
,  // measure 20
0001
1000
0010
0100
0001
0000
1001
0000
,  // measure 21
0001
0100
0010
1000
0100
0010
0100
0001
,  // measure 22
0010
0100
1000
0010
0100
0001
0010
0100
,  // measure 23
1000
0010
0100
0001
1001
0000
1001
0000
,  // measure 24
0001
1000
0010
0000
0010
1000
0001
0000
,  // measure 25
0001
1000
0010
0000
1000
1000
0001
0001
,  // measure 26
1000
0100
0001
0000
0001
0100
1000
0000
,  // measure 27
0001
0100
1000
0000
1200
0000
0301
0000
,  // measure 28
0010
0100
0001
0000
0001
0100
0010
0000
,  // measure 29
0010
1000
0100
0000
0010
0010
0100
0100
,  // measure 30
0220
0000
0000
0330
,  // measure 31
0100
0000
1001
0000
0010
0100
1000
0000
,  // measure 32
0010
0100
0001
0100
0010
1000
0001
1000
,  // measure 33
1001
1100
0101
1001
,  // measure 34
0001
1000
1010
0000
0001
1000
0010
0011
,  // measure 35
0000
0000
0101
0000
0001
0100
1000
0010
,  // measure 36
1000
0010
0100
0001
1002
0000
0013
0000
,  // measure 37
1000
0010
0100
0001
0010
0100
0010
1200
,  // measure 38
0000
0001
0000
1000
0000
0301
0000
0110
,  // measure 39
0000
1000
0001
0000
1000
0010
0100
0000
,  // measure 40
0001
0010
0100
2001
0000
0000
3010
0000
,  // measure 41
1000
0100
0010
0000
0100
0010
0001
0000
,  // measure 42
0001
0010
0100
1000
1001
0000
0101
0000
,  // measure 43
0001
0010
0100
0000
0010
0100
1000
0000
,  // measure 44
0001
0010
1000
0010
1001
0000
1100
0000
,  // measure 45
1001
0100
1000
0000
1000
0100
0001
0000
,  // measure 46
0001
0100
0010
1000
0001
0000
1001
0000
,  // measure 47
1000
0010
0001
0000
0001
0010
1000
0100
,  // measure 48
0000
0010
0100
0001
1000
0010
0100
0010
,  // measure 49
1001
0000
0000
0000
0110
0000
0000
0000
0001
0000
1000
0000
0010
0100
0010
0000
,  // measure 50
0001
0100
0010
1000
0000
0000
1001
0000
,  // measure 51
0010
1000
0100
0000
0010
0100
0001
0000
,  // measure 52
0001
0100
0010
1000
0100
0000
1001
0000
,  // measure 53
1000
0010
0100
0000
0010
0100
0001
0000
,  // measure 54
0001
0100
0010
1000
0001
0000
1001
0000
,  // measure 55
1000
0100
0001
0000
0001
0100
1000
0000
,  // measure 56
0001
0010
1000
0000
1000
0010
0001
0000
,  // measure 57
1000
0010
0100
0001
1000
0010
0100
0001
,  // measure 58
1000
0010
0100
0001
0100
0010
0100
1000
,  // measure 59
0010
1001
0010
1001
,  // measure 60
1000
0100
0010
0100
0001
1000
1001
0000
,  // measure 61
0010
1000
1100
0000
0100
0001
0101
0000
,  // measure 62
0001
0100
0010
1000
0001
0000
1001
0000
,  // measure 63
0010
1000
0100
0010
0100
0001
0010
0100
,  // measure 64
1000
0010
1000
0100
0001
0000
1001
0000
,  // measure 65
0001
0100
0010
1000
0100
0001
0010
0100
,  // measure 66
1000
0010
0100
0001
0010
0000
1001
0000
,  // measure 67
0001
0010
0100
0010
1000
0100
0010
0100
,  // measure 68
0001
0001
2002
0000
0000
0000
0000
0000
,  // measure 69
3003
0001
1000
0010
,  // measure 70
1000
0000
0000
0001
0000
0000
1000
0000
0010
1000
0000
0000
,  // measure 71
0001
0000
0000
0010
0000
0000
1000
0000
0010
0100
0000
0000
,  // measure 72
0001
0000
1000
0010
0000
0000
0010
0000
0100
0001
0000
0000
,  // measure 73
0001
0000
0000
0100
0000
0000
1000
0000
1000
0100
0000
0000
,  // measure 74
0001
0000
0001
0100
0000
0000
0100
0000
1000
0010
0000
0000
,  // measure 75
0001
1000
0010
0100
0001
0000
1001
0000
,  // measure 76
0001
0100
1000
0100
0001
0100
1000
0100
,  // measure 77
0001
0010
1000
0010
0001
0010
1000
0010
,  // measure 78
0001
1000
0010
0100
0001
1000
0010
1010
,  // measure 79
0000
1001
0000
0101
0000
0011
0000
0110
,  // measure 80
0000
0010
0100
0000
1000
0001
0010
0100
,  // measure 81
1000
0010
0100
0201
0000
0000
1300
0000
,  // measure 82
0001
1000
0010
0100
1000
0001
0100
0010
,  // measure 83
0000
0010
0100
1000
0010
0100
0001
1000
,  // measure 84
0000
0001
0010
0100
1000
0100
0001
0010
,  // measure 85
0200
0000
0000
0000
0310
0000
1000
0001
,  // measure 86
0020
0000
0000
0000
0130
0000
0001
1000
,  // measure 87
0100
0001
0100
1000
0100
0010
0100
0010
,  // measure 88
0001
0100
1000
0010
1000
0001
0100
0110
,  // measure 89
0000
1000
0010
0100
0001
0100
1000
1001
,  // measure 90
0000
0010
1000
0100
0010
0100
0001
0101
,  // measure 91
0000
0010
0100
0001
0010
0100
1000
1100
,  // measure 92
0000
1000
1100
0000
0100
0101
0000
0001
,  // measure 93
0011
0000
0010
1010
0000
0000
0000
0000
;
