#TITLE:Pilgrimage;
#SUBTITLE:;
#ARTIST:SOUND HOLIC Vs. TOMOSUKE feat. Nana Takahashi;
#TITLETRANSLIT:;
#SUBTITLETRANSLIT:;
#ARTISTTRANSLIT:;
#GENRE:DDR;
#CREDIT:;
#BANNER:;
#BACKGROUND:;
#LYRICSPATH:;
#CDTITLE:;
#MUSIC:Pilgrimage.ogg;
#OFFSET:3.500000;
#SAMPLESTART:95.650940;
#SAMPLELENGTH:15.000000;
#LASTBEATHINT:2.322565;
#SELECTABLE:YES;
#BPMS:0.000000=56.700001
,90.000000=56.399998
,94.000000=169.899979
,174.000000=56.700001
;
#STOPS:
;
#BGCHANGES:;
#KEYSOUNDS:;
#ATTACKS:;

//---------------dance-single - ----------------
#NOTES:
     dance-single:
     :
     Beginner:
     3:
     0.096395,0.168691,0.058675,0.058675,0.000000,92.000000,84.000000,8.000000,8.000000,0.000000,0.000000,0.096395,0.168691,0.058675,0.058675,0.000000,92.000000,84.000000,8.000000,8.000000,0.000000,0.000000:
0000
0000
0000
0000
,
0000
0000
0000
0000
,
0000
0000
0000
0000
,
1000
0000
0001
0000
,
1000
0000
0001
0000
,
0100
0000
0010
0000
,
0100
0000
0010
0000
,
1000
0000
1000
0000
,
0001
0000
0001
0000
,
0100
0000
1000
0000
,
0010
0000
0001
0000
,
0100
0000
0010
0000
,
1000
0000
1001
0001
,
0001
0000
1001
1000
,
1000
0000
0110
0010
,
0010
0000
0110
0100
,
0100
0000
1000
0100
,
1000
0000
0001
0010
,
0001
0000
0100
0010
,
0100
0000
0001
0000
,
1000
0000
2002
0000
,
3003
0000
0020
0030
,
0200
0300
2000
3000
,
0002
0003
1000
0000
,
0000
0000
0100
0000
,
1000
0000
0100
0000
,
0000
0000
0010
0000
,
0001
0000
0010
0000
,
0000
0000
1000
0000
,
0100
0000
0001
0000
,
0000
0000
0001
0000
,
0010
0000
1000
0000
,
0000
0000
0100
0000
,
0010
0000
0100
0000
,
0000
0000
0001
0000
,
1000
0000
0001
0000
,
0000
0000
1000
0000
,
0100
0000
1000
0000
,
0000
0000
0001
0000
,
0010
0000
0001
0000
,
0100
0000
0010
0000
,
0000
0000
1000
0000
,
0010
0000
0100
0000
,
0000
0000
1001
0100
,
0100
0000
1001
0010
,
0010
0000
2002
0000
,
3003
0000
0000
0000
;

//---------------dance-single - ----------------
#NOTES:
     dance-single:
     :
     Easy:
     6:
     0.209554,0.236167,0.124685,0.139353,0.040339,200.000000,183.000000,17.000000,19.000000,0.000000,0.000000,0.209554,0.236167,0.124685,0.139353,0.040339,200.000000,183.000000,17.000000,19.000000,0.000000,0.000000:
0000
0000
0000
0000
,
0000
0000
0000
0000
,
0000
0000
0000
0000
,
1001
0100
0010
0100
,
1001
0010
0100
0010
,
1000
0100
1000
0100
,
0022
0000
0033
0000
,
0001
0100
0010
1000
,
0001
0010
0100
1000
,
0100
1000
0010
0100
,
0001
0010
0100
0010
,
1000
0000
0200
0300
0001
0000
0020
0030
,
1000
0000
0000
0000
0000
0001
0010
0000
0000
1100
0000
0000
,
1000
0000
0000
0010
0000
0100
0010
0000
0000
1001
0000
0000
,
0010
0000
0000
1000
0000
0001
1000
0000
0000
0110
0000
0000
,
1000
0000
0000
0001
0000
0010
0001
0000
0000
0110
0000
0000
,
0001
0000
0000
1000
0000
0100
2000
0000
0000
3200
0000
0000
,
0320
0032
1003
0100
,
0010
0000
0000
0001
0000
0100
1000
0000
0000
1001
0000
0000
,
0010
0000
0000
1000
0000
0010
0100
0000
0000
1001
0000
0000
,
0010
1001
0100
0001
,
1001
0000
0000
0010
0000
0100
0020
0000
0000
2030
0000
0000
,
3002
0203
0020
0000
,
0330
0000
0000
0000
0000
0001
1000
0000
0000
0010
0000
0000
,
0100
0001
1000
0010
,
1000
0000
0100
0001
0100
0000
0010
0000
,
1000
0001
0100
0010
,
0001
0000
0100
1000
0100
0000
0010
0000
,
1000
0010
0100
0001
,
1000
0000
0010
0100
0010
0000
1000
0000
,
0001
0100
0010
1000
,
0010
0000
0001
1000
0001
0000
0100
0000
,
0010
1000
0010
1000
,
0001
0000
0100
0001
0100
0000
0010
0000
,
1000
0100
0001
0010
,
0100
0000
1000
0100
1000
0000
0010
0000
,
1000
0010
0100
0001
,
1000
0000
0010
0001
0010
0000
0100
0000
,
0010
1000
0001
0100
,
0010
1000
1001
0100
,
1000
0001
0110
0001
,
1000
0010
0011
0100
,
0001
0100
1100
1000
,
0010
0100
0002
2003
,
3020
0000
0000
0230
0000
0000
0301
0000
0010
0100
0000
0000
,
1000
0000
0100
0010
0000
0000
2002
0000
0000
3003
0000
0000
,
1001
0000
0000
0000
;

//---------------dance-single - ----------------
#NOTES:
     dance-single:
     :
     Medium:
     9:
     0.284993,0.303644,0.212697,0.168691,0.190694,272.000000,243.000000,29.000000,23.000000,0.000000,0.000000,0.284993,0.303644,0.212697,0.168691,0.190694,272.000000,243.000000,29.000000,23.000000,0.000000,0.000000:
// measure 0
0000
0000
0000
0000
,  // measure 1
0000
0000
0000
0000
,  // measure 2
0000
0000
0000
0000
,  // measure 3
1001
0000
0000
1000
0000
0100
1000
0000
0000
0010
0000
0100
,  // measure 4
0010
0000
0000
0001
0000
0010
0001
0000
0000
1000
0000
0001
,  // measure 5
1000
0002
0000
0000
0000
0103
0010
0200
0000
0000
0000
0000
,  // measure 6
0320
0000
0032
0000
,  // measure 7
1003
0000
0100
1000
0000
0010
0100
0000
0000
1001
0000
0000
,  // measure 8
0110
0000
1000
0100
0000
0100
0010
0000
0000
1001
0000
0000
,  // measure 9
0001
0100
0000
0100
1000
0000
1000
0100
0000
0100
0001
0000
,  // measure 10
1000
0010
0000
0010
0001
0000
0001
0010
0000
0010
1000
0000
,  // measure 11
1000
0002
0000
0000
0000
0000
0013
0200
0000
0000
0000
0000
,  // measure 12
2300
0000
0000
0000
0000
0000
3001
0000
0100
0010
0000
0000
,  // measure 13
1001
0000
0010
0100
0000
0000
1100
0000
0100
0010
0000
0001
,  // measure 14
0010
0000
0100
0010
0000
0000
1001
0000
0001
0010
0000
0000
,  // measure 15
1001
0000
0001
0100
0000
0000
1001
0000
0001
0010
0000
0010
,  // measure 16
0100
0000
0100
1000
0000
1000
0002
0000
0000
2003
0000
3010
,  // measure 17
0200
0000
0000
0320
0000
0130
0002
0000
0000
2003
0000
3010
,  // measure 18
0200
0000
0000
0302
0000
0000
1003
0000
1000
0100
0000
0100
,  // measure 19
0010
0000
0010
0001
0000
1000
0001
0000
0000
1001
0000
0001
,  // measure 20
1000
0000
0000
1001
0000
0100
0020
0000
0000
0230
0000
0000
,  // measure 21
0302
0000
0000
2003
0000
0000
3010
0000
1000
0010
0000
0100
,  // measure 22
0010
0000
0001
0010
0000
1000
0002
0000
0000
2000
0000
0000
,  // measure 23
3003
0000
0000
0110
0000
0001
1000
0000
0000
0100
0000
0000
,  // measure 24
0001
0000
1000
0010
0100
0000
0001
0000
,  // measure 25
1000
0000
0001
0100
0010
0000
1000
0000
,  // measure 26
0001
0000
1000
0000
0010
1000
0001
0000
,  // measure 27
0100
0010
1000
0000
0001
0000
1001
0000
,  // measure 28
0100
0000
1100
0000
1000
0010
0100
0000
,  // measure 29
0010
0100
0001
0000
0001
0100
1000
0000
,  // measure 30
0001
0000
1001
0000
1000
0010
0001
0000
,  // measure 31
1000
0000
1001
0000
0100
1000
0010
0000
,  // measure 32
0100
0000
0110
0000
0001
0010
0100
0000
,  // measure 33
0010
0000
0110
0000
0001
0100
1000
0000
,  // measure 34
0010
1000
0001
0000
1000
0100
0010
0000
,  // measure 35
0001
0000
0101
0000
0001
0100
1000
0000
,  // measure 36
0001
0000
1001
0000
1000
0010
0001
0000
,  // measure 37
1000
0000
1001
0000
0001
0100
1000
0000
,  // measure 38
1000
0100
0001
0000
0001
0100
1000
0100
,  // measure 39
0001
0100
1000
0000
0010
1000
0010
0000
,  // measure 40
0011
0000
0011
0000
0001
0100
0001
0000
,  // measure 41
1100
0000
1100
0000
1000
0100
0001
0000
,  // measure 42
0001
0010
1000
0000
1000
0010
0100
0001
,  // measure 43
0010
0000
0000
0100
0000
0000
1000
0000
0000
0000
0000
0000
1001
0000
0000
0000
1000
0000
0100
0000
0000
0000
0100
0000
,  // measure 44
0010
0000
0010
0001
0000
0000
1001
0000
0001
0010
0000
0010
,  // measure 45
0100
0000
0100
1000
0000
0000
2002
0000
0000
3003
0000
0000
,  // measure 46
0110
0000
0000
0000
;

//---------------dance-single - ----------------
#NOTES:
     dance-single:
     :
     Hard:
     12:
     0.367767,0.506073,0.146688,0.198029,0.436396,351.000000,331.000000,20.000000,27.000000,0.000000,0.000000,0.367767,0.506073,0.146688,0.198029,0.436396,351.000000,331.000000,20.000000,27.000000,0.000000,0.000000:
// measure 0
0000
0000
0000
0000
,  // measure 1
0000
0000
0000
0000
,  // measure 2
0000
0000
0000
0000
,  // measure 3
1000
0100
1000
0100
0000
0000
0010
0100
0010
0100
0000
0000
,  // measure 4
0001
0010
0001
0010
0000
0000
1000
0001
1000
0001
0000
0100
,  // measure 5
0010
2000
0000
0000
0000
3010
0100
0002
0000
0000
0000
0000
,  // measure 6
2003
0000
0002
3003
,  // measure 7
0100
1000
0100
0010
0001
0010
0100
1000
0100
0010
0000
0110
,  // measure 8
0001
0010
0001
0100
1000
0100
0001
0010
0001
0100
0000
0110
,  // measure 9
1000
0100
0010
0001
0010
0100
0002
0000
0000
1003
0010
0100
,  // measure 10
0001
0100
1000
0010
0100
0001
0020
0000
0000
0130
0001
1000
,  // measure 11
0100
2200
0000
0000
3300
0010
0100
0220
0000
0000
0000
0330
,  // measure 12
0001
0000
0000
1000
0000
0001
1000
0010
0100
0001
0000
0001
,  // measure 13
0100
0010
1000
0001
0000
1000
0100
0010
0001
0100
0010
1000
,  // measure 14
0002
0000
1003
0020
0000
0130
0001
1000
0010
1001
0000
0100
,  // measure 15
0010
1000
0001
0100
0000
0010
1000
0010
0001
0100
0010
1000
,  // measure 16
0002
0000
1003
0200
0000
0310
2000
0000
3010
0100
0001
0010
,  // measure 17
1000
0000
0001
0100
0010
1000
0002
0000
0000
0000
1003
0000
0010
0000
0000
0000
1000
0000
0001
0000
0100
0000
0010
0000
,  // measure 18
0001
0000
1000
0010
0100
0001
2000
0000
0000
0000
3010
0000
0100
0000
0001
0000
0100
0000
0010
0000
1000
0000
0100
0000
,  // measure 19
0001
0000
0001
0010
0100
0010
0001
0000
0000
0000
0100
0001
0020
0000
0000
0000
0000
0000
1030
0000
0000
0000
0010
1000
,  // measure 20
0002
0000
0000
0103
0010
1000
0200
0000
0000
0320
0000
0000
,  // measure 21
0032
0000
0000
0000
0000
0000
2003
0000
0000
0000
0000
0000
3010
0000
0000
0000
0100
0010
1000
0000
0001
0000
0100
0000
,  // measure 22
0010
0000
0000
0000
0001
0100
0010
0000
1000
0000
0001
0000
2002
0000
0000
0000
0000
0000
0000
0000
0000
0000
0000
0000
,  // measure 23
3003
0000
0000
0000
0000
0000
0001
0000
0000
0000
0001
0100
1000
0000
0000
0000
0000
0000
0010
0000
0000
0000
0000
0000
,  // measure 24
0100
0001
0010
1000
0001
0000
0010
0000
,  // measure 25
0100
0010
1000
0001
0010
0000
0011
0000
,  // measure 26
0100
0001
1000
0010
0100
0000
1100
0000
,  // measure 27
1000
0010
0100
0001
1001
0000
0001
0100
,  // measure 28
0010
0000
1000
0010
0100
0000
0001
0010
,  // measure 29
0100
1000
0010
1000
1001
0000
0010
1000
,  // measure 30
0100
0000
0010
0100
0001
0000
0100
0010
,  // measure 31
1000
0010
0100
0001
1001
0000
0001
0100
,  // measure 32
1000
0000
1000
0100
0001
0000
0010
1000
,  // measure 33
0001
0000
0010
1000
0010
0100
0001
0010
,  // measure 34
0100
1000
0010
0100
0001
0000
0100
0000
,  // measure 35
1100
0000
0101
0000
0001
0100
0010
0000
,  // measure 36
1000
0010
0100
0000
0001
0010
1000
0010
,  // measure 37
0100
0001
0010
0100
1000
0000
1100
0000
,  // measure 38
0100
0000
0101
0000
0001
0010
1000
0000
,  // measure 39
1000
0010
0001
0000
0001
0100
0010
1000
,  // measure 40
0010
0100
0010
0000
1000
0010
0100
0001
,  // measure 41
0010
0100
0010
0000
1000
0001
0100
0000
,  // measure 42
1000
0010
0100
0000
0001
0010
0100
1000
,  // measure 43
0020
0000
0000
0130
0000
0000
1001
1000
0010
0100
0001
0010
,  // measure 44
1001
0010
1000
0100
0010
0001
0110
1000
0010
0100
0001
0010
,  // measure 45
0110
0100
1000
0010
0100
0001
1200
0000
0000
0001
0000
0000
,  // measure 46
1300
0000
0000
0000
;
