#TITLE:ぺこらんだむぶれいん!;
#SUBTITLE:;
#ARTIST:兎田ぺこら produced by 俊龍;
#TITLETRANSLIT:;
#SUBTITLETRANSLIT:;
#ARTISTTRANSLIT:;
#GENRE:hololive/holostars;
#CREDIT:;
#BANNER:;
#BACKGROUND:;
#LYRICSPATH:;
#CDTITLE:;
#MUSIC:Pekorandombrain.ogg;
#OFFSET:-0.290000;
#SAMPLESTART:77.738037;
#SAMPLELENGTH:15.000000;
#SELECTABLE:YES;
#BPMS:0.000000=175.000000
;
#STOPS:
;
#BGCHANGES:4.000=Pekorandombrain.avi=1.000=0=0=0=StretchNoLoop====,
99999=-nosongbg-=1.000=0=0=0 // don't automatically add -songbackground-
;
#KEYSOUNDS:;
#ATTACKS:;

//---------------dance-single - ----------------
#NOTES:
     dance-single:
     :
     Beginner:
     2:
     0.116384,0.141038,0.061321,0.070081,0.000000,93.000000,86.000000,7.000000,8.000000,0.000000,0.000000,0.116384,0.141038,0.061321,0.070081,0.000000,93.000000,86.000000,7.000000,8.000000,0.000000,0.000000:
0000
0000
0000
0000
,
0000
0000
0000
0000
,
0000
0000
0000
0000
,
0000
0000
0000
0000
,
0000
0000
0000
0000
,
0000
0000
0000
0000
,
1000
0000
1000
0000
,
2000
0000
3000
0000
,
0001
0000
0001
0000
,
0002
0000
0003
0000
,
0100
0000
0000
0000
,
0010
0000
0000
0000
,
1000
0000
0000
0000
,
0002
0000
0003
0000
,
1000
0000
1000
0000
,
1000
0000
0000
0000
,
0001
0000
0001
0000
,
0001
0000
0000
0000
,
0100
0000
0000
0000
,
1000
0000
0000
0000
,
0100
0000
0000
0000
,
0001
0000
0000
0000
,
0010
0000
0000
0000
,
1000
0000
0000
0000
,
0010
0000
0000
0000
,
0001
0000
0000
0000
,
1001
0000
0000
0000
,
0000
0000
0000
0000
,
1001
0000
0000
0000
,
0000
0000
0000
0000
,
0010
0000
0000
0000
,
1000
0000
0000
0000
,
0001
0000
0000
0000
,
0100
0000
0000
0000
,
0110
0000
0000
0000
,
0000
0000
0000
0000
,
0110
0000
0000
0000
,
0000
0000
0000
0000
,
1000
0000
0100
0000
,
1000
0000
0000
0000
,
0001
0000
0010
0000
,
0001
0000
0000
0000
,
1000
0000
0001
0000
,
2000
0000
3000
0000
,
0002
0000
0003
0000
,
0200
0000
0300
0000
,
0020
0000
0030
0000
,
1001
0000
0000
0000
,
0000
0000
0000
0000
,
0110
0000
0000
0000
,
0000
0000
0000
0000
,
1000
0000
0100
0000
,
1000
0000
0000
0000
,
0001
0000
0010
0000
,
0001
0000
0000
0000
,
2000
0000
0000
0000
,
3000
0000
0000
0000
,
0001
0000
0100
0000
,
0001
0000
0000
0000
,
1000
0000
0010
0000
,
1000
0000
0000
0000
,
0001
0000
0010
0000
,
0001
0000
0000
0000
,
1000
0000
0100
0000
,
1000
0000
0000
0000
,
1000
0000
0100
0000
,
0100
0000
0000
0000
,
0001
0000
0010
0000
,
0010
0000
0000
0000
,
1000
0000
0010
0000
,
0010
0000
0000
0000
,
0001
0000
0100
0000
,
0100
0000
0000
0000
,
1000
0000
0000
0000
,
0001
0000
0000
0000
,
0100
0000
0000
0000
,
0010
0000
0000
0000
,
1000
0000
0000
0000
,
0001
0000
0000
0000
,
0100
0000
0000
0000
,
0010
0000
0110
0000
;

//---------------dance-single - ----------------
#NOTES:
     dance-single:
     :
     Easy:
     5:
     0.287832,0.353689,0.122641,0.429245,0.000000,230.000000,216.000000,14.000000,49.000000,0.000000,0.000000,0.287832,0.353689,0.122641,0.429245,0.000000,230.000000,216.000000,14.000000,49.000000,0.000000,0.000000:
0000
0000
0000
0000
,
0000
0000
0000
0000
,
0000
0000
0000
0000
,
0000
0000
0000
0000
,
0000
0000
0000
0000
,
0000
0000
0000
0000
,
1001
0000
0100
0000
,
0010
0000
0100
0000
,
1001
0000
0010
0000
,
0100
0000
0010
0000
,
2000
0100
3100
0000
,
0002
0100
0103
0000
,
2000
0000
3002
0000
,
0103
0010
0100
0010
,
0001
0100
1000
0100
,
0001
0001
2002
3003
,
1000
0010
0001
0010
,
1000
1000
2002
3003
,
0100
1000
0010
0001
,
0100
0010
0100
0010
,
0001
0010
1000
0100
,
0001
1000
0001
1000
,
0100
1000
0010
0001
,
1000
0001
1000
0001
,
0200
0000
0010
0000
,
0020
0000
0000
0330
,
0002
0000
1000
1003
,
0100
1000
0010
0001
,
2001
0000
0100
3100
,
0010
1000
0100
0001
,
0010
0100
0010
0100
,
0001
1000
0001
1000
,
0200
0000
0010
0310
,
0001
0100
2002
3003
,
0100
1000
0010
0001
,
0100
0100
0220
0330
,
0001
0010
1000
0100
,
0010
0010
0220
0330
,
0001
0100
1000
0000
,
1000
0010
0001
0000
,
0100
1000
0010
0001
,
0200
0000
0010
0000
,
1000
0000
0001
0000
,
0301
0000
0100
0000
,
1000
0000
0010
0000
,
1000
0000
0010
0000
,
0001
0000
0100
0000
,
1000
2000
0000
0000
,
0000
0000
0000
3000
,
0001
0002
0000
0000
,
0000
0000
0000
0003
,
1000
0100
0020
0030
,
0001
0010
0200
0300
,
2000
0000
3002
0000
,
2000
0000
0000
3003
,
0020
0000
0230
0000
,
0020
0000
0000
0330
,
0001
0100
1000
0000
,
1000
0010
0001
0000
,
1000
0010
0100
0000
,
0001
0100
0020
0030
,
0001
0100
1000
0000
,
1000
0010
0001
0000
,
2000
0000
3002
0000
,
0203
0000
0010
0310
,
0001
0100
1000
0010
,
0001
0001
2002
3003
,
1000
0010
0001
0100
,
1000
1000
2002
3003
,
0100
1000
0010
0001
,
1000
0100
0010
0001
,
2001
0000
3020
0000
,
0200
0000
0330
0000
,
0001
0100
1000
0100
,
0001
0001
2002
3003
,
1000
0010
0001
0010
,
1000
1000
2002
3003
,
0100
1000
0010
0001
,
0100
1000
0010
0001
,
0200
0000
0320
0000
,
1030
0001
2002
3003
;

//---------------dance-single - ----------------
#NOTES:
     dance-single:
     :
     Medium:
     8:
     0.370427,0.459796,0.096361,0.350404,0.000000,296.000000,285.000000,11.000000,40.000000,0.000000,0.000000,0.370427,0.459796,0.096361,0.350404,0.000000,296.000000,285.000000,11.000000,40.000000,0.000000,0.000000:
0000
0000
0000
0000
,
0000
0000
0000
0000
,
0000
0000
0000
0000
,
0000
0000
0000
0000
,
0000
0000
0000
0000
,
0000
0000
0000
0000
,
1000
0100
0100
0000
,
0001
0100
0100
0000
,
1000
0010
0010
0000
,
0001
0010
0010
0000
,
1000
0100
0010
0001
,
1000
0010
0100
0001
,
2000
0000
3002
0000
,
0203
0000
0010
0000
0010
0300
0000
0000
,
0001
0100
1000
0100
,
0010
0010
0220
0330
,
0010
0001
0010
1000
,
0100
0100
0220
0330
,
0001
0100
1000
0001
,
1000
0000
0010
0000
0001
1000
0001
0000
,
0100
0010
1000
0001
,
1000
0000
0100
0000
0010
0100
0010
0000
,
0001
0100
1000
0010
,
1000
0000
0001
0000
1000
0001
1000
0000
,
0100
0010
0100
0000
0001
1000
0001
0000
,
0200
0000
0010
0310
,
0002
0000
1003
0100
,
0010
0010
0010
0000
0001
0000
1000
0000
,
0020
0000
0031
0100
,
1000
1000
1000
0000
0001
0000
1000
0000
,
0010
1000
0010
0001
,
0100
1000
0001
0010
,
0200
0000
0010
0310
,
0001
1000
0000
2002
0000
0000
3003
0000
,
1000
0010
0100
0001
,
1000
1000
1000
0000
0010
0000
0100
0000
,
0001
1000
0010
0100
,
0001
0001
0001
0000
0100
0000
0010
0000
,
2000
0100
3100
0000
,
0002
0100
0103
0000
,
2000
0000
3002
0000
,
0203
0000
0010
0310
,
0001
0100
0000
1000
0000
0000
1001
0000
,
2000
0000
0100
3010
,
0002
0000
0010
0103
,
1000
0010
0100
0001
,
0100
0010
1000
0001
,
1000
0001
2000
0000
0000
0000
0001
0000
,
0000
0001
0000
3001
,
0001
1000
0002
0000
0000
0000
1000
0000
,
0000
1000
0000
1003
,
0100
1000
0010
0000
0001
0000
1001
0000
,
0010
0001
0100
0000
1000
0000
1001
0000
,
0100
0010
0000
0000
0010
0100
0000
0000
,
2000
0000
0000
3002
0000
0000
0000
0000
,
1003
1001
0100
0110
,
0020
0000
0100
0130
,
0001
0100
1000
0010
,
0001
1000
2002
3003
,
0100
1000
0010
0001
,
0100
0010
0220
0330
,
0001
0100
1000
0010
,
0001
1000
0001
1000
,
0020
0030
0200
0300
,
0002
1000
1000
1003
,
0100
0000
1000
0000
0010
0100
0001
0000
,
0100
0010
0100
0001
,
0100
0000
0010
0000
1000
0010
0100
0000
,
0001
0100
1000
1001
,
1000
0000
0010
0000
0100
0001
1000
0000
,
0010
0000
0001
0000
1000
0010
0100
0000
,
0002
0000
0203
0000
,
0320
1000
1030
0000
,
0100
1000
0001
1000
,
0020
0100
0130
0000
,
1000
0001
0100
0010
,
0200
0010
0310
0000
,
0001
0100
0001
0000
1000
0100
1000
0000
,
0001
1000
0001
1000
0002
0000
1003
0000
,
0001
1000
0001
0000
0100
0010
0100
0000
,
1000
0001
1000
0002
2000
0000
3003
0000
;

//---------------dance-single - ----------------
#NOTES:
     dance-single:
     :
     Hard:
     11:
     0.534366,0.636640,0.192722,0.236523,0.043800,427.000000,405.000000,22.000000,27.000000,0.000000,0.000000,0.534366,0.636640,0.192722,0.236523,0.043800,427.000000,405.000000,22.000000,27.000000,0.000000,0.000000:
// measure 0
0000
0000
0000
0000
,  // measure 1
0000
0000
0000
0000
,  // measure 2
0000
0000
0000
0000
,  // measure 3
0000
0000
0000
0000
,  // measure 4
0000
0000
0000
0000
,  // measure 5
0000
0000
0000
0000
,  // measure 6
2000
0000
3200
0000
,  // measure 7
0320
0000
0032
0000
,  // measure 8
0103
0010
1000
0001
,  // measure 9
1000
0010
0100
0001
,  // measure 10
0100
1000
0100
0000
0010
0001
0010
0000
,  // measure 11
0100
0001
1000
0000
0010
1000
0001
0000
,  // measure 12
0100
0000
0000
1000
0000
0000
0100
0000
0010
0000
0000
0001
0000
0000
0010
0000
,  // measure 13
0100
0010
0100
0010
,  // measure 14
0001
0100
1000
0000
1000
0100
0001
0000
,  // measure 15
0001
1000
0010
1000
0001
0000
1001
0000
,  // measure 16
1000
0010
0001
0000
0001
0010
1000
0000
,  // measure 17
1000
0001
0100
0001
1000
0000
1001
0000
,  // measure 18
0100
1000
0100
0000
0010
0001
0010
0000
,  // measure 19
0100
0010
0100
0010
1000
0001
1000
0000
,  // measure 20
0001
0010
0001
0000
1000
0100
1000
0000
,  // measure 21
0001
1000
0001
1000
0010
0100
0010
0000
,  // measure 22
0001
0010
0100
0000
1000
0100
0010
0000
,  // measure 23
0001
0010
0100
1000
0100
0010
0001
0000
,  // measure 24
1000
0010
1000
0010
0001
0100
0001
0100
,  // measure 25
0020
0000
0100
0130
,  // measure 26
0002
0000
0000
0000
1003
0010
0100
0000
,  // measure 27
0001
0100
0010
0000
1000
0010
0100
0000
,  // measure 28
0002
0000
1000
1003
,  // measure 29
0100
1000
0010
0000
0010
0001
0100
0000
,  // measure 30
0100
0001
1000
0000
0010
1000
0001
0000
,  // measure 31
0001
1000
0010
0000
0010
1000
0001
0000
,  // measure 32
0200
0000
0010
0310
,  // measure 33
0001
1000
0000
2002
0000
0000
3003
0000
,  // measure 34
0100
0000
1000
0010
0001
0100
0010
0000
,  // measure 35
0010
0100
0010
0100
0010
0000
0000
0000
0001
0000
1000
0000
0001
0000
0000
0000
,  // measure 36
0010
0000
1000
0001
0100
0010
1000
0001
,  // measure 37
0100
0010
0100
0010
0100
0000
0000
0000
0001
0000
1000
0000
0001
0000
0000
0000
,  // measure 38
0200
1000
0010
0301
,  // measure 39
0020
0001
0100
1030
,  // measure 40
0001
1000
0010
0000
1000
0001
0100
0020
,  // measure 41
0000
0000
0100
0000
0130
0000
0001
0100
,  // measure 42
0000
1000
0000
2002
0000
0000
3003
0000
,  // measure 43
0100
1000
0010
0000
0001
0000
1001
0000
,  // measure 44
0010
0001
0100
0000
1000
0000
1001
0000
,  // measure 45
0100
1000
0010
0000
0010
0001
0100
0000
,  // measure 46
0100
0001
1000
0010
0100
0000
1001
0000
,  // measure 47
0010
0100
0020
0000
0000
0000
0100
0000
,  // measure 48
0000
0000
0100
0000
0000
0130
0100
0000
,  // measure 49
0001
1000
0002
0000
0000
0000
1000
0000
,  // measure 50
0000
0000
1000
0000
0000
1003
1000
0000
,  // measure 51
0001
0100
1000
0000
1000
0100
0001
0000
,  // measure 52
1000
0010
0001
0000
0001
0010
1000
0000
,  // measure 53
0001
1000
1000
0000
1000
1000
0001
0000
,  // measure 54
0002
0000
0000
2000
0000
0000
3003
0000
,  // measure 55
0001
0100
1000
0010
0001
0100
1000
0010
,  // measure 56
0220
0330
0001
1000
,  // measure 57
1001
0000
0110
0000
0001
0100
0010
1000
,  // measure 58
0010
0100
0001
1000
0020
0000
0130
0000
,  // measure 59
0001
0100
1000
0000
1000
0010
0001
0000
,  // measure 60
1000
0010
0100
0001
1000
0010
0100
0000
,  // measure 61
0001
0100
1000
0000
1000
0010
0001
0000
,  // measure 62
0001
1000
0010
0100
0001
1000
0010
0000
,  // measure 63
0001
0000
0000
1000
0000
0000
0001
0000
0100
0000
0000
0010
0000
0000
0100
0000
,  // measure 64
0020
0100
0100
0130
,  // measure 65
0001
0100
1000
0010
0001
0000
1001
0000
,  // measure 66
1000
0010
0001
0100
1000
0000
1001
0000
,  // measure 67
0100
1000
0010
0000
0010
0001
0100
0000
,  // measure 68
0001
0100
0010
1000
0001
0000
1001
0000
,  // measure 69
0100
1000
0010
0000
0010
0100
0001
0000
,  // measure 70
0001
0100
1000
0000
1000
0010
0001
0000
,  // measure 71
1000
0000
0000
0100
0000
0000
1100
0000
0001
0000
0000
0010
0000
0000
0011
0000
,  // measure 72
0001
1000
2002
3003
,  // measure 73
0100
1000
0010
0000
0010
0001
0100
0000
,  // measure 74
0100
0001
1000
0010
1000
0000
1001
0000
,  // measure 75
1000
0010
0100
0000
0001
0100
0010
0000
,  // measure 76
0001
1000
0010
0100
1000
0000
1001
0000
,  // measure 77
1000
0100
0001
0100
1000
0100
0001
0100
,  // measure 78
1000
0010
0001
0010
1000
0010
0001
0010
,  // measure 79
1010
0000
0001
0100
0101
0000
0000
0100
,  // measure 80
0110
0010
1000
0001
2002
0000
3003
0000
;
