#TITLE:Paradission;
#SUBTITLE:;
#ARTIST:BlackY;
#TITLETRANSLIT:;
#SUBTITLETRANSLIT:;
#ARTISTTRANSLIT:;
#GENRE:MUSECA;
#CREDIT:;
#BANNER:;
#BACKGROUND:;
#LYRICSPATH:;
#CDTITLE:;
#MUSIC:Paradission.ogg;
#OFFSET:-0.440000;
#SAMPLESTART:73.607956;
#SAMPLELENGTH:15.000000;
#SELECTABLE:YES;
#DISPLAYBPM:154.000000;
#BPMS:0.000000=154.100006
;
#STOPS:
;
#BGCHANGES:;
#KEYSOUNDS:;
#ATTACKS:;

//---------------dance-single - ----------------
#NOTES:
     dance-single:
     :
     Beginner:
     2:
     0.122390,0.144771,0.063461,0.000000,0.000000,100.000000,8.000000,0.000000,0.000000,0.000000,0.000000,0.122390,0.144771,0.063461,0.000000,0.000000,100.000000,8.000000,0.000000,0.000000,0.000000,0.000000:
0000
0000
0000
0000
,
0000
0000
0000
0000
,
0000
0000
0000
0000
,
0000
0000
0000
0000
,
0000
0000
0000
0000
,
0000
0000
0000
0000
,
1001
0000
0000
0000
,
0010
0000
0000
0000
,
1001
0000
0000
0000
,
0100
0000
0000
0000
,
1000
0000
0100
0000
,
0001
0000
0000
0000
,
1000
0000
0100
0000
,
0001
0000
0000
0000
,
0001
0000
0010
0000
,
1000
0000
0000
0000
,
0001
0000
0010
0000
,
1000
0000
0000
0000
,
0100
0000
0000
0000
,
0100
0000
0000
0000
,
0001
0000
0000
0000
,
0001
0000
0000
0000
,
0010
0000
0000
0000
,
0010
0000
0000
0000
,
1000
0000
0000
0000
,
1000
0000
0000
0000
,
0100
0000
0000
0000
,
0100
0000
0000
0000
,
0001
0000
0000
0000
,
0001
0000
0000
0000
,
1000
0000
0100
0000
,
0001
0000
0000
0000
,
1000
0000
0010
0000
,
0001
0000
0000
0000
,
0001
0000
0100
0000
,
1000
0000
0010
0000
,
0001
0000
0000
0000
,
1001
0000
0000
0000
,
0100
0000
0000
0000
,
0000
0000
0000
0000
,
0010
0000
0000
0000
,
0000
0000
0000
0000
,
0001
0000
0100
0000
,
1000
0000
0000
0000
,
1000
0000
0010
0000
,
0001
0000
0000
0000
,
0100
0000
0000
0000
,
0010
0000
0010
0000
,
0001
0000
1000
0000
,
0100
0000
0100
0000
,
1000
0000
0001
0000
,
0010
0000
0010
0000
,
0001
0000
1000
0000
,
0001
0000
0100
0000
,
1000
0000
0100
0000
,
0001
0000
0000
0010
,
0010
0000
0000
1000
,
1000
0000
0000
0001
,
0001
0000
0000
0100
,
0100
0000
0001
0000
,
0010
0000
1000
0000
,
1001
0000
0010
0000
,
0010
0000
0000
0000
,
1001
0000
0100
0000
,
0100
0000
0000
0000
,
0110
0000
0010
0000
,
0001
0000
0010
0000
,
0110
0000
0100
0000
,
1000
0000
0100
0000
,
0001
0000
0100
0000
,
1000
0000
0100
0000
,
0010
0000
0010
0000
,
0100
0000
0100
0000
,
1001
0000
0000
0000
;

//---------------dance-single - ----------------
#NOTES:
     dance-single:
     :
     Easy:
     7:
     0.299175,0.322314,0.118990,0.166586,0.000000,228.000000,15.000000,21.000000,0.000000,0.000000,0.000000,0.299175,0.322314,0.118990,0.166586,0.000000,228.000000,15.000000,21.000000,0.000000,0.000000,0.000000:
0000
0000
0000
0000
,
0000
0000
0000
0000
,
0000
0000
0000
0000
,
0000
0000
0000
0000
,
0000
0000
0000
0000
,
0000
0000
0000
0000
,
1000
0100
1000
0000
,
0001
0100
0001
0000
,
1000
0010
1000
0000
,
0001
0010
0001
0000
,
1001
0001
0100
0000
,
1001
1000
0100
0000
,
0010
0100
1000
0100
,
0010
0100
1000
0000
,
1001
1000
0100
0000
,
1001
0001
0100
0000
,
0001
0010
0100
0010
,
0001
0010
0100
0010
,
0001
0000
0001
0000
,
0100
0000
0100
0000
,
0010
0000
0010
0000
,
1000
0000
1000
0000
,
0001
0100
0001
0100
,
1000
0100
1000
0100
,
0001
0100
1000
0100
,
0001
0100
1000
0100
,
0001
0010
0001
0010
,
1000
0010
1000
0010
,
0001
0010
1000
0010
,
0001
0010
1000
0010
,
0001
0100
0010
1000
,
1001
0000
1001
0000
,
1000
0010
0100
0001
,
1001
0000
1001
0000
,
0002
0000
0000
0203
0000
0000
0320
0000
,
0000
2030
0000
0000
3002
0000
0000
0000
,
0203
0000
0000
0310
,
0110
0001
0000
0000
,
1000
0100
0001
0000
,
0001
0100
1000
0000
,
1000
0010
0001
0000
,
0001
0010
1000
0000
,
2000
3100
0001
0000
,
0002
0103
1000
0000
,
0010
0010
0100
0100
,
0001
1000
1001
0001
,
0020
0000
0230
0000
,
0301
0001
0100
0010
,
1000
1000
0010
0100
,
0002
0103
1000
0010
,
2000
3100
0001
0100
,
0010
0010
1000
0001
,
0100
0100
0001
1000
,
0010
1000
0100
0001
,
0010
0001
0100
1000
,
0020
0130
0001
1000
,
0200
0310
0001
0010
,
0002
0100
0010
0103
,
2000
0010
0100
3010
,
0001
0010
1000
0100
,
0001
0001
1000
1000
,
1001
0000
0110
0000
,
2002
0000
0000
3003
,
0010
0000
0100
0000
,
0220
0000
0330
0000
,
0001
0100
1000
0100
,
0001
0010
1000
0010
,
0001
0100
0010
1000
,
0001
1000
0100
0010
,
1000
1000
0001
0001
,
0100
0010
1000
0001
,
0010
0000
1000
0000
0100
1000
0100
0000
,
0010
0000
1000
0000
0001
0010
0001
0000
,
2001
0000
0000
0000
3010
0000
0010
0100
;

//---------------dance-single - ----------------
#NOTES:
     dance-single:
     :
     Medium:
     9:
     0.394367,0.380917,0.269711,0.158653,0.027764,294.000000,34.000000,20.000000,0.000000,0.000000,0.000000,0.394367,0.380917,0.269711,0.158653,0.027764,294.000000,34.000000,20.000000,0.000000,0.000000,0.000000:
// measure 0
0000
0000
0000
0000
,  // measure 1
0000
0000
0000
0000
,  // measure 2
0000
0000
0000
0000
,  // measure 3
0000
0000
0000
0000
,  // measure 4
0000
0000
0000
0000
,  // measure 5
0000
0000
0000
0000
,  // measure 6
1001
0001
0100
1000
,  // measure 7
1001
1000
0100
0001
,  // measure 8
1001
0010
1000
0010
,  // measure 9
1001
0000
0110
0001
,  // measure 10
0001
0010
1000
0000
0100
0000
1001
0000
,  // measure 11
1000
0100
0001
0000
0010
0000
1001
0000
,  // measure 12
0001
0100
0010
0000
1000
0000
1001
0000
,  // measure 13
1000
0010
0100
0000
0001
0000
0000
0000
,  // measure 14
0001
0100
1000
0000
0010
0000
1001
0000
,  // measure 15
1000
0100
0001
0000
0010
0000
1001
0000
,  // measure 16
0010
0100
0001
0010
,  // measure 17
1001
0000
0000
0010
0000
0000
0010
0000
1000
0000
0000
0001
0000
0000
0001
0000
,  // measure 18
0100
0000
1001
0000
,  // measure 19
0010
0000
1001
0000
,  // measure 20
0100
0000
1001
0000
,  // measure 21
0010
0000
1001
0000
,  // measure 22
0001
0100
1000
0000
1001
0000
0010
0000
,  // measure 23
1000
0100
0001
0000
0100
0000
1001
0000
,  // measure 24
0001
0100
0010
0000
0010
1000
0100
0000
,  // measure 25
0010
0100
0001
0000
0001
0100
1000
0000
,  // measure 26
0010
0000
1000
0000
0001
1000
0001
0000
,  // measure 27
0010
0000
0100
0000
0001
1000
0001
0000
,  // measure 28
0100
0000
0001
0000
1000
0001
1000
0000
,  // measure 29
0010
0000
0100
0000
0001
0100
1000
0000
,  // measure 30
0010
1000
0100
0000
1001
0000
0010
0000
,  // measure 31
0001
0100
1000
0000
1001
0000
0010
0000
,  // measure 32
1000
0001
0100
0000
0010
0000
1001
0000
,  // measure 33
0010
1000
0100
0000
0001
0000
0101
0000
,  // measure 34
0001
0000
0000
0010
0000
0000
0100
0000
0000
1000
0000
0000
0001
0000
0000
0010
,  // measure 35
0000
0000
0100
0000
0000
1000
0000
0000
0001
0000
0000
0010
0000
0000
0100
0000
,  // measure 36
2000
0000
0000
0000
,  // measure 37
0000
3100
0010
0000
0010
0000
1001
0000
,  // measure 38
0002
0000
0203
0000
,  // measure 39
0320
0000
1030
0001
,  // measure 40
0200
0000
0302
0000
,  // measure 41
2003
0000
3010
0100
,  // measure 42
0002
0000
0000
0000
0000
0000
0000
0000
0023
0000
0000
0000
0000
0000
0000
0030
,  // measure 43
2000
0000
3100
0001
,  // measure 44
2000
0000
3020
0000
,  // measure 45
0032
0000
0103
0100
,  // measure 46
0210
0000
0000
0000
0000
0000
0000
0000
0001
0300
0000
0000
0001
0000
0000
0000
,  // measure 47
0001
0010
0100
0000
1000
0000
1001
0000
,  // measure 48
1000
0100
0010
0000
1000
0000
1001
0000
,  // measure 49
0001
0100
1000
0000
0001
1000
0100
0000
,  // measure 50
0010
1000
0100
0000
0001
0000
1001
0000
,  // measure 51
0010
1000
0100
0000
0001
0100
0010
0000
,  // measure 52
0001
0000
0100
0000
1000
0010
1000
0000
,  // measure 53
0001
1000
0001
0110
,  // measure 54
0001
1000
0001
1001
,  // measure 55
0010
1000
0100
0000
0001
0000
0101
0000
,  // measure 56
0100
1000
0010
0000
1000
0000
1100
0000
,  // measure 57
1000
0001
0100
0000
0001
0100
1000
0000
,  // measure 58
0001
1000
0010
1000
0001
0000
1001
0000
,  // measure 59
0010
1000
0001
0000
0001
0100
0010
0000
,  // measure 60
0010
0100
1000
0000
0010
0100
0001
0000
,  // measure 61
0001
0100
1000
0100
0001
0000
1001
0000
,  // measure 62
0220
0000
0000
0000
0000
0030
0000
0000
0010
0000
0000
0000
0310
0000
0000
0000
,  // measure 63
0002
0000
0203
0000
,  // measure 64
0320
0000
0000
0000
0000
0000
0000
0000
0000
0000
0000
0000
0000
0000
0000
0030
,  // measure 65
1000
0000
1000
0000
0001
0100
0010
0000
,  // measure 66
0001
0000
0001
0000
1000
0010
0100
0000
,  // measure 67
0001
0000
0100
0000
1000
0100
1000
0000
,  // measure 68
0010
0000
1000
0000
0001
1000
0001
0000
,  // measure 69
0010
0000
1000
0000
0100
0010
0001
0000
,  // measure 70
0010
0000
0100
0000
0001
1000
0100
0000
,  // measure 71
0010
0000
1000
0000
0001
0010
0001
0000
,  // measure 72
0010
0000
0100
0000
0001
1000
0001
1000
,  // measure 73
2001
0000
0000
0000
0000
0000
0000
3000
0010
0000
0000
0000
0010
0000
0100
0000
;

//---------------dance-single - ----------------
#NOTES:
     dance-single:
     :
     Hard:
     12:
     0.512224,0.498122,0.237980,0.150721,0.063461,403.000000,30.000000,19.000000,0.000000,0.000000,0.000000,0.512224,0.498122,0.237980,0.150721,0.063461,403.000000,30.000000,19.000000,0.000000,0.000000,0.000000:
// measure 0
0000
0000
0000
0000
,  // measure 1
0000
0000
0000
0000
,  // measure 2
0000
0000
0000
0000
,  // measure 3
0000
0000
0000
0000
,  // measure 4
0000
0000
0000
0000
,  // measure 5
0000
0000
0000
0000
,  // measure 6
0001
0100
1000
0000
1000
0100
0001
0000
,  // measure 7
0001
0010
1000
0000
1000
0010
0001
0000
,  // measure 8
0001
0100
0001
0100
0001
1000
0001
1000
,  // measure 9
0220
0000
0000
0330
,  // measure 10
0001
0010
0100
0000
1000
0000
1100
0000
,  // measure 11
1000
0010
0100
0000
0001
0000
0011
0000
,  // measure 12
0001
0100
1000
0000
1000
0100
0001
0000
,  // measure 13
0001
0010
1000
0010
0001
0010
1000
0010
,  // measure 14
0001
1000
0100
0001
1000
0000
1001
0000
,  // measure 15
0001
0100
1000
0001
0100
0000
1001
0000
,  // measure 16
0010
1000
0010
1000
0001
1000
0001
1000
,  // measure 17
0001
0100
0001
0100
0001
0010
0100
1000
,  // measure 18
1001
0000
1000
0100
,  // measure 19
2200
3300
0001
0100
,  // measure 20
0202
0303
0010
1000
,  // measure 21
2020
3030
0001
0010
,  // measure 22
0011
0010
0100
1000
0010
1000
0010
0000
,  // measure 23
1000
0100
0010
0001
0100
0001
0100
0000
,  // measure 24
0001
0100
1000
0000
1000
0100
0001
0000
,  // measure 25
0001
0010
1000
0010
0001
0010
1000
0010
,  // measure 26
0001
1000
0001
0100
0001
1000
0010
0000
,  // measure 27
0010
1000
0010
0100
0010
1000
0001
0000
,  // measure 28
0001
0100
1000
0000
1000
0100
0001
0000
,  // measure 29
0001
0010
1000
0000
1000
0010
0001
0000
,  // measure 30
0001
0000
0100
0000
1100
0000
0000
1001
,  // measure 31
0000
0000
0100
1000
0100
0000
0001
0000
0100
0000
0000
0000
0001
0010
0001
0010
,  // measure 32
0001
0000
0011
0000
1001
0000
0001
0010
,  // measure 33
1000
0100
0001
0000
1001
0000
0001
0000
,  // measure 34
0001
0000
0001
0010
0000
0000
0010
0000
0010
0100
0000
0000
0100
0000
0100
1000
,  // measure 35
0000
0000
1000
0000
1000
0001
0000
0000
0001
0000
0000
1000
0000
0000
0001
0000
,  // measure 36
1002
1000
1000
1003
,  // measure 37
0000
0001
0100
0100
1000
0200
0000
0000
,  // measure 38
0301
0010
0100
0000
0200
0000
0300
0000
,  // measure 39
1000
0000
0100
0000
0010
0000
0000
0000
0020
0000
0000
0000
0000
0030
0000
0000
,  // measure 40
0001
0010
0100
0000
1000
0100
0010
0000
,  // measure 41
2000
0000
0000
0000
0000
0000
0000
0000
3002
0000
0000
0000
0200
0003
0000
0000
,  // measure 42
0310
1000
1100
0000
,  // measure 43
0001
0100
0101
0000
,  // measure 44
0001
0010
1000
0000
1000
0100
0001
0000
,  // measure 45
0001
0100
1000
0100
0001
0010
1000
0010
,  // measure 46
0001
0000
1001
1001
,  // measure 47
1000
0100
0001
0100
1000
0100
1000
0000
,  // measure 48
0001
0100
1000
0100
0001
0100
0001
0000
,  // measure 49
0001
0010
0100
0000
0010
0100
1000
0000
,  // measure 50
1000
0100
0001
0100
1000
0100
0010
0000
,  // measure 51
0001
0100
1000
0001
0100
0010
1001
0000
,  // measure 52
0010
1000
0100
0010
1000
0001
0110
0000
,  // measure 53
1001
0001
0100
0000
0001
1000
0100
1000
,  // measure 54
0001
1000
0001
1000
0010
1000
0010
0000
,  // measure 55
0001
0100
1000
0100
0001
0100
1000
0100
,  // measure 56
0010
1000
0001
0010
1000
0010
0001
0010
,  // measure 57
1000
0001
1000
0001
1000
0010
1000
0010
,  // measure 58
1000
0100
1000
0100
0001
0100
0001
0100
,  // measure 59
0001
0010
0100
0000
1001
0000
1001
0000
,  // measure 60
1000
0100
0010
0000
1001
0000
1001
0000
,  // measure 61
0001
1000
0010
0000
0010
1000
0001
0000
,  // measure 62
0001
0100
1000
0100
0001
0100
1000
0000
,  // measure 63
2002
0000
0000
0003
,  // measure 64
0200
0000
3000
0000
,  // measure 65
0310
1000
0001
0100
0010
1000
0100
0000
,  // measure 66
0001
1000
0100
0010
0100
0001
0010
0000
,  // measure 67
0010
1000
0100
0000
0001
0100
0010
0000
,  // measure 68
0001
0100
1000
0100
0001
0100
1000
0000
,  // measure 69
0001
1000
0001
1000
0010
0100
0010
0100
,  // measure 70
0001
0000
0010
0000
0100
0000
1000
0000
0001
0010
0000
0100
0000
1000
0000
0001
,  // measure 71
0010
1000
0100
1000
0100
1000
0001
0100
,  // measure 72
0001
0010
0000
0010
0100
0000
1000
0001
0000
0001
1000
0000
0100
0000
0010
0000
,  // measure 73
1002
0000
0000
0000
0000
0000
0000
0000
0000
0000
0000
0003
0100
0000
1001
0000
;
