#TITLE:パラジクロロベンゼン;
#SUBTITLE:;
#ARTIST:オワタP feat. 鏡音レン;
#TITLETRANSLIT:Paradichlorobenzene;
#SUBTITLETRANSLIT:;
#ARTISTTRANSLIT:OwataP feat. Kagamine Len;
#GENRE:Pop;
#CREDIT:;
#BANNER:;
#BACKGROUND:;
#LYRICSPATH:;
#CDTITLE:;
#MUSIC:Paradichlorobenzene.ogg;
#OFFSET:-0.080001;
#SAMPLESTART:5.519868;
#SAMPLELENGTH:15.000000;
#SELECTABLE:YES;
#BPMS:0.000000=132.000000
;
#STOPS:
;
#BGCHANGES:;
#KEYSOUNDS:;
#ATTACKS:;

//---------------dance-single - ----------------
#NOTES:
     dance-single:
     :
     Hard:
     11:
     0.530691,0.650316,0.244742,0.192298,0.209779,425.000000,397.000000,28.000000,22.000000,0.000000,0.000000,0.530691,0.650316,0.244742,0.192298,0.209779,425.000000,397.000000,28.000000,22.000000,0.000000,0.000000:
0000
0000
0000
0000
,
0000
0000
0000
0000
,
0000
0000
0000
0000
,
1000
0000
0100
0000
0010
0100
0010
0100
,
0001
0000
0001
0000
1000
0001
1001
0000
,
0010
0000
0100
0000
0001
0010
0001
0010
,
0100
0000
0010
0000
1000
0001
1001
0000
,
0100
0000
0010
0000
1000
0001
1000
0001
,
0010
0000
0100
0000
0001
1000
1001
0000
,
0010
0000
0100
0000
0010
1000
0010
1000
,
0100
0001
0110
1001
,
1000
0100
0010
0001
0010
1000
0100
0010
,
0001
0010
0100
1000
0010
0100
0110
0000
,
0001
0010
0100
1000
0100
0010
0001
0100
,
0010
1000
0100
0001
1000
0010
0110
0000
,
1000
0100
0001
0100
1000
0100
0001
0100
,
1000
0010
0001
0010
1000
0010
1001
0000
,
0001
0010
1000
0010
0001
0010
1000
0010
,
0100
1000
0100
0010
0100
0000
0110
0000
,
1000
0100
0010
0100
0001
0100
0101
0000
,
0001
0100
0010
1000
0100
1000
1100
0000
,
1000
0010
0100
0001
1000
0010
1010
0000
,
1000
0010
0100
0001
0100
0010
0110
0000
,
0001
0100
0010
1000
0001
0100
0101
0000
,
0001
0100
1000
0100
0001
0010
0011
0000
,
1000
0010
0100
0001
0100
0010
0110
0000
,
1000
0001
0100
0010
1000
0001
1001
0000
,
1000
0100
0001
0100
1000
0100
0001
0100
,
1000
0010
0001
0010
1000
0010
0001
0010
,
0100
0010
0001
0010
0100
0010
0001
0100
,
0010
0000
1000
0000
0100
0000
0001
0000
1000
0100
1000
0100
1000
0000
0000
0000
,
0001
1000
0100
0000
0001
1000
0010
0000
,
1000
0001
0100
0000
1000
0001
0010
0000
,
1000
0100
0001
0100
1000
0010
0001
0010
,
1000
0010
0100
0001
0100
0010
0110
0000
,
0001
0100
0010
1000
0010
0100
0110
0000
,
2000
3010
0002
0013
,
0200
1300
0200
0301
,
0020
1030
0020
0031
,
2000
3100
0002
0103
,
0200
2300
3200
0310
,
0020
0032
0023
0130
,
2000
3020
0230
0302
,
0203
0320
2030
3001
,
0001
0100
1000
0100
0001
0100
1000
0100
,
0001
0010
1000
0010
0001
0010
1000
0010
,
0001
0100
0010
1000
0010
0100
0001
1000
,
0010
1000
0001
0100
0010
1000
1001
0000
,
1000
0100
1000
0100
0001
0010
0100
0010
,
0001
0010
1000
0010
0100
0001
1000
0010
,
0001
0010
0001
0010
0100
1000
0010
0100
,
0001
1000
0010
0100
0001
0000
1001
0000
,
1000
0001
0000
0001
0000
0001
0000
0001
1000
0000
0000
0000
1001
0000
0000
0000
,
0001
1000
0000
1000
0000
1000
0000
1000
0001
0000
0000
0000
1001
0000
0000
0000
,
0010
0100
0000
0100
0000
0100
0000
0100
0010
0000
0000
0000
0110
0000
0000
0000
,
0100
0010
0000
0010
0000
0010
0000
0010
0100
0000
0000
0000
0110
0000
0000
0000
,
1000
0100
0000
0001
0000
0100
0000
0001
0100
0001
0000
0001
1000
0000
0110
0000
,
0100
0001
0000
0010
0000
0001
0000
0010
0001
0010
0000
0010
0100
0000
1001
0000
,
0010
1000
0000
0100
0000
1000
0000
0100
1000
0100
0000
0100
0010
0000
1001
0000
,
0001
0010
0000
1000
0000
0010
0000
1000
0010
1000
0000
1000
0010
0000
0000
0000
,
0100
0001
0000
0001
0100
0000
0000
0000
1000
0001
0000
0001
1000
0000
0000
0000
,
0010
0100
0000
0100
0020
0000
0000
0000
0000
0000
0000
0000
0000
0000
0000
0000
,
0030
0000
0000
0000
;

//---------------dance-single - ----------------
#NOTES:
     dance-single:
     :
     Medium:
     8:
     0.405823,0.406447,0.288446,0.008741,0.000000,325.000000,292.000000,33.000000,1.000000,0.000000,0.000000,0.405823,0.406447,0.288446,0.008741,0.000000,325.000000,292.000000,33.000000,1.000000,0.000000,0.000000:
// measure 0
0000
0000
0000
0000
,  // measure 1
0000
0000
0000
0000
,  // measure 2
0000
0000
0000
0000
,  // measure 3
1000
0001
1000
0000
0010
0000
0100
0000
,  // measure 4
0001
1000
0001
0000
0100
0000
0010
0000
,  // measure 5
1000
0100
1000
0000
0010
0000
0001
0000
,  // measure 6
0001
0010
0001
0000
0100
0000
1000
0000
,  // measure 7
0010
0100
1000
0000
0010
0000
0110
0000
,  // measure 8
0100
0010
0001
0000
0100
0000
0110
0000
,  // measure 9
0001
0100
1000
0000
0001
0010
1000
0000
,  // measure 10
1000
0100
0001
0000
1000
0010
0001
0000
,  // measure 11
1000
0100
1000
0100
0010
0000
0010
0000
,  // measure 12
0001
0100
0010
1001
,  // measure 13
0001
0010
0001
0010
0100
0000
1000
0000
,  // measure 14
0010
0100
0001
1001
,  // measure 15
1000
0100
0010
0100
1000
0000
0010
0000
,  // measure 16
0100
0001
1000
1001
,  // measure 17
0001
0010
0100
0010
0001
0000
1000
0000
,  // measure 18
0010
0100
0001
1001
,  // measure 19
0100
1000
0100
0000
0010
0000
0110
0000
,  // measure 20
0001
0010
0001
0000
0100
0000
0110
0000
,  // measure 21
1000
0100
0010
0000
0001
0000
1001
0000
,  // measure 22
0001
0010
0100
0000
1000
0000
1001
0000
,  // measure 23
1000
0000
0010
0000
0100
0001
0100
0000
,  // measure 24
0001
0000
0100
0000
0010
1000
0010
0000
,  // measure 25
1000
0000
0100
0000
0010
0001
0010
0000
,  // measure 26
0001
0000
0010
0000
0100
1000
0100
0000
,  // measure 27
1000
0010
0100
0001
,  // measure 28
0100
0000
0010
0010
0010
0010
0010
0000
,  // measure 29
1000
0001
0100
0010
,  // measure 30
1000
0000
0100
0100
0100
0100
0100
0000
,  // measure 31
1000
0010
0100
0101
,  // measure 32
0001
0100
0010
1010
,  // measure 33
1000
0100
0010
0001
,  // measure 34
1000
0000
0010
0000
0100
0010
0100
0000
,  // measure 35
0001
0000
0100
0000
0010
0100
0010
0000
,  // measure 36
1001
0010
1001
0010
,  // measure 37
1001
0000
1001
0000
0010
0010
0010
0000
,  // measure 38
1001
0100
1001
0100
,  // measure 39
1001
0000
1001
0000
0100
0100
0100
0000
,  // measure 40
1010
0100
1010
0100
,  // measure 41
1010
0000
0100
0000
0010
0010
0010
0000
,  // measure 42
0101
0010
0101
0010
,  // measure 43
0101
0000
0010
0000
0100
0100
0100
0000
,  // measure 44
1000
0100
0010
0000
0001
0000
1001
0000
,  // measure 45
0001
0010
0100
0000
1000
0000
1001
0000
,  // measure 46
1000
0100
0010
0000
0001
0000
1001
0000
,  // measure 47
0001
0010
0100
0000
1000
0000
1001
0000
,  // measure 48
1000
0010
0100
0000
0010
0000
0110
0000
,  // measure 49
0001
0100
0010
0000
0100
0000
0110
0000
,  // measure 50
1000
0100
0001
0000
1000
0010
0001
0000
,  // measure 51
1000
0010
0001
1000
0100
0000
1001
0000
,  // measure 52
0001
0000
0100
0000
0001
0100
0001
0000
,  // measure 53
1000
0000
0100
0000
1000
0100
1000
0000
,  // measure 54
0010
0000
0100
0000
0010
0100
0010
0000
,  // measure 55
1000
0000
0001
0000
1000
0001
1000
0000
,  // measure 56
0001
0000
0100
0000
0010
1000
0010
0000
,  // measure 57
1000
0000
0010
0000
0100
0001
0100
0000
,  // measure 58
0001
0000
0100
0000
0010
0100
0010
0000
,  // measure 59
1000
0001
0100
0000
0010
0100
0010
0000
,  // measure 60
0100
0010
0100
0000
1000
0001
1000
0000
,  // measure 61
0001
1000
0002
0000
0000
0000
0000
0000
,  // measure 62
0003
0000
0000
0000
;

//---------------dance-single - ----------------
#NOTES:
     dance-single:
     :
     Easy:
     6:
     0.314669,0.460640,0.270965,0.139853,0.000000,252.000000,221.000000,31.000000,16.000000,0.000000,0.000000,0.314669,0.460640,0.270965,0.139853,0.000000,252.000000,221.000000,31.000000,16.000000,0.000000,0.000000:
0000
0000
0000
0000
,
0000
0000
0000
0000
,
0000
0000
0000
0000
,
1000
1000
0100
0100
,
0010
0010
0002
0003
,
0001
0001
0010
0010
,
0100
0100
2000
3000
,
1000
1000
0010
0010
,
0100
0100
0002
0003
,
0001
0001
0100
0100
,
0010
0010
2000
3001
,
0100
1000
0100
0001
,
0100
1000
0100
0101
,
0001
0010
1000
0010
,
0001
0010
1000
1010
,
1000
0100
0010
0001
,
1000
0010
0100
0001
,
0001
0100
0010
1000
,
0001
0010
0100
1000
,
0002
0000
0103
0100
,
2000
0000
3100
0100
,
0002
0000
0013
0010
,
2000
0000
3010
0010
,
1000
0010
0100
1001
,
0001
0100
0010
1001
,
1000
0100
0010
0001
,
1000
0010
0100
0001
,
0020
0000
0130
0100
,
1001
1001
0010
0010
,
0200
0000
0310
0010
,
1001
1001
0100
0100
,
1000
0100
0010
0001
,
1000
0010
0100
0001
,
0100
0010
1000
0001
,
0100
0010
0110
0110
,
1000
0001
1001
1001
,
0200
0000
1300
1000
,
0200
0000
0301
0001
,
0020
0000
1030
1000
,
0020
0000
0031
0001
,
1000
0100
0010
0001
,
1000
0100
0010
0001
,
1000
0010
0100
0001
,
1000
0010
0100
0001
,
0100
1000
0100
1000
,
0100
0001
0100
0101
,
0001
0010
0001
0010
,
1000
0010
1000
1010
,
1000
0100
1000
0100
,
0010
0001
0010
0011
,
0001
0010
0001
0010
,
0100
1000
0100
1100
,
1000
0100
0010
0110
,
0001
0010
0100
0110
,
1000
0100
0001
1001
,
0001
0100
1000
1001
,
1000
0010
0100
0101
,
0001
0100
0010
1010
,
1000
0010
0100
1001
,
0001
0100
1100
1100
,
0101
0101
0011
0011
,
1010
2020
0000
0000
,
3030
0000
0000
0000
;

//---------------dance-single - ----------------
#NOTES:
     dance-single:
     :
     Beginner:
     2:
     0.111133,0.159957,0.034963,0.000000,0.000000,89.000000,85.000000,4.000000,0.000000,0.000000,0.000000,0.111133,0.159957,0.034963,0.000000,0.000000,89.000000,85.000000,4.000000,0.000000,0.000000,0.000000:
0000
0000
0000
0000
,
0000
0000
0000
0000
,
0000
0000
0000
0000
,
1000
0000
0000
0000
,
0001
0000
0001
0000
,
0001
0000
0000
0000
,
1000
0000
1000
0000
,
1000
0000
0000
0000
,
0010
0000
0010
0000
,
0010
0000
0000
0000
,
0100
0000
0100
0000
,
0100
0000
0000
0000
,
1000
0000
0100
0000
,
0001
0000
0000
0000
,
1000
0000
0010
0000
,
0001
0000
0000
0000
,
0001
0000
0010
0000
,
1000
0000
0000
0000
,
0001
0000
0100
0000
,
1000
0000
0000
0000
,
1000
0000
0000
0000
,
0001
0000
0000
0000
,
0001
0000
0000
0000
,
0100
0000
0000
0000
,
0100
0000
0000
0000
,
0010
0000
0000
0000
,
0010
0000
0000
0000
,
1000
0000
0000
0000
,
0100
0000
0000
0000
,
0010
0000
0000
0000
,
0001
0000
0001
0000
,
0001
0000
0000
0000
,
0010
0000
0000
0000
,
0100
0000
0000
0000
,
1000
0000
1000
0000
,
1000
0000
1000
0000
,
0110
0000
0000
0000
,
0001
0000
1000
0000
,
1001
0000
0000
0000
,
0100
0000
0010
0000
,
0110
0000
0000
0000
,
0001
0000
1000
0000
,
1001
0000
0000
0000
,
0100
0000
0010
0010
,
1000
0000
0001
0000
,
1000
0000
0001
0000
,
0100
0000
0010
0000
,
0100
0000
0010
0000
,
1000
0000
0001
0000
,
1000
0000
0001
0000
,
0100
0000
0010
0000
,
0100
0000
0010
0000
,
1000
0000
0000
0000
,
0001
0000
0000
0000
,
1000
0000
0000
0000
,
0001
0000
0000
0000
,
0010
0000
0000
0000
,
0100
0000
0000
0000
,
0010
0000
0000
0000
,
0100
0000
0100
0000
,
0100
0000
0100
0000
,
0100
0000
0000
0000
;
