#TITLE:PRIME LIGHT;
#SUBTITLE:;
#ARTIST:TAG;
#TITLETRANSLIT:;
#SUBTITLETRANSLIT:;
#ARTISTTRANSLIT:;
#GENRE:GITADORA;
#CREDIT:;
#BANNER:;
#BACKGROUND:;
#LYRICSPATH:;
#CDTITLE:;
#MUSIC:PRIME LIGHT.mp3;
#OFFSET:0.658000;
#SAMPLESTART:14.188021;
#SAMPLELENGTH:15.000000;
#SELECTABLE:YES;
#DISPLAYBPM:138.000000;
#BPMS:0.000000=138.000000
,86.000000=137.979996
;
#STOPS:
;
#BGCHANGES:;
#KEYSOUNDS:;
#ATTACKS:;

//---------------dance-single - ----------------
#NOTES:
     dance-single:
     :
     Beginner:
     2:
     0.102235,0.194399,0.010681,0.085450,0.000000,67.000000,66.000000,1.000000,8.000000,0.000000,0.000000,0.102235,0.194399,0.010681,0.085450,0.000000,67.000000,66.000000,1.000000,8.000000,0.000000,0.000000:
0000
0000
0000
0000
,
0000
0000
0000
0000
,
0000
0000
0000
0000
,
0000
0000
0000
0000
,
0000
0000
0000
0000
,
1000
0000
0000
0000
,
0001
0000
0000
0000
,
1000
0000
0000
0000
,
0001
0000
0000
0000
,
0010
0000
0010
0000
,
0010
0000
0000
0000
,
0100
0000
0100
0000
,
0100
0000
0000
0000
,
1000
0000
1000
0000
,
1000
0000
0000
0000
,
0001
0000
0001
0000
,
0001
0000
0000
0000
,
1000
0000
1000
0000
,
1000
1000
0000
0000
,
0100
0000
1000
0000
,
0100
0000
0001
0000
,
0100
0000
1000
0000
,
0100
0000
0100
0000
,
0001
0000
0010
0000
,
1000
0000
0010
0000
,
0001
0000
0010
0000
,
1000
0000
0010
0000
,
0020
0000
0000
0000
,
0030
0000
0000
0000
,
0200
0000
0000
0000
,
0300
0000
0000
0000
,
2000
0000
0000
0000
,
3000
0000
0000
0000
,
0002
0000
0000
0000
,
0003
0000
0000
0000
,
0100
0000
0000
0000
,
1000
0000
0000
0000
,
0100
0000
0000
0000
,
0001
0000
0000
0000
,
1000
0000
0000
0000
,
0010
0000
0000
0000
,
0001
0000
0000
0000
,
0010
0000
0000
0000
,
0100
1000
0100
0000
,
0100
1000
0100
0000
,
0010
0001
0010
0000
,
0010
0001
0010
0000
,
0200
0000
0000
0000
,
0320
0000
0000
0000
,
2030
0000
0000
0000
,
3002
0000
0000
0000
,
0103
0000
0000
0000
,
0110
0000
0000
0000
;

//---------------dance-single - ----------------
#NOTES:
     dance-single:
     :
     Easy:
     6:
     0.207521,0.280383,0.074769,0.416569,0.154878,136.000000,129.000000,7.000000,39.000000,0.000000,0.000000,0.207521,0.280383,0.074769,0.416569,0.154878,136.000000,129.000000,7.000000,39.000000,0.000000,0.000000:
// measure 0
0000
0000
0000
0000
,  // measure 1
0000
0000
0000
0000
,  // measure 2
0000
0000
0000
0000
,  // measure 3
0000
0000
0000
0000
,  // measure 4
0000
0000
0000
0000
,  // measure 5
0110
0220
0000
0330
,  // measure 6
0001
1000
0010
0000
1000
0000
0001
0000
,  // measure 7
0200
0000
0000
0000
0000
0000
0000
0320
0000
0000
0000
0000
0000
0000
0000
0000
,  // measure 8
0000
0000
0030
0001
,  // measure 9
1000
0000
0000
0000
0010
0000
0000
0000
1000
0000
0001
0000
0100
0000
0000
0020
,  // measure 10
0000
0000
0000
0000
0000
0000
0000
0000
0000
0000
0000
0000
0000
0000
0000
0230
,  // measure 11
0000
0000
0000
0000
,  // measure 12
0301
0000
0000
0000
1000
0000
0000
0000
0001
0000
0000
1000
0000
0000
0000
0000
,  // measure 13
0010
0000
0000
0000
0100
0000
0000
0000
0001
0000
1000
0000
0010
0000
0000
0200
,  // measure 14
0000
0000
0000
0000
0000
0000
0000
0320
0000
0000
0000
0000
0000
0000
0000
2030
,  // measure 15
0000
0000
0000
0000
0000
0000
0000
0000
0000
0000
0000
0000
0000
0000
0000
3002
,  // measure 16
0000
0000
0000
0000
0000
0000
0000
0000
0000
0000
0000
0000
0000
0000
0000
0023
,  // measure 17
0000
0000
0000
0000
0000
0000
0000
0000
0000
0000
0000
0000
0000
0000
0000
0200
,  // measure 18
0030
0000
0000
0310
,  // measure 19
0001
0100
0001
0100
,  // measure 20
1000
0100
1000
0100
,  // measure 21
0001
0010
0001
0010
,  // measure 22
1000
0010
1000
0010
,  // measure 23
0001
1000
0001
1000
,  // measure 24
0010
0100
0010
0100
,  // measure 25
0001
0000
0000
1000
0000
0000
0000
0001
,  // measure 26
0000
0100
0000
0000
0010
0000
0000
0000
1000
0000
0000
0000
0001
0000
0000
0000
,  // measure 27
0200
0000
0000
0020
0000
0000
0000
0000
,  // measure 28
0000
0000
0000
0330
,  // measure 29
0000
2002
0000
0000
0000
0000
0000
0000
0000
0000
0000
0000
3003
0000
0000
0001
,  // measure 30
0000
0000
0000
0000
0100
0000
0000
1000
0000
0000
0000
0000
0100
0000
0000
0000
,  // measure 31
0002
0000
0000
0000
0000
0000
0000
0000
0000
0000
0000
0000
0000
0000
0000
0103
,  // measure 32
0000
0020
0000
0000
0000
0000
0000
0000
0000
0000
0000
0000
2030
0000
0000
0000
,  // measure 33
0000
3002
0000
0000
0000
0000
0000
0000
0000
0000
0000
0000
0000
0000
0000
0203
,  // measure 34
0000
0000
0000
0000
0000
0000
0000
0020
0000
0000
0000
0000
0330
0000
0000
0000
,  // measure 35
0001
0000
0000
0100
0000
0000
0010
0000
0000
0000
0000
0000
1000
0000
0000
0000
,  // measure 36
0000
0000
0000
0000
0000
0000
0000
0000
1000
0000
0000
0010
0000
0000
0100
0000
,  // measure 37
0002
0000
0000
2003
,  // measure 38
0000
3020
0000
0000
0230
0000
0000
0301
,  // measure 39
2000
0000
0000
0000
0000
0000
0000
0000
0000
0000
0000
0000
0000
3010
0000
0100
,  // measure 40
0000
0000
0000
0000
0000
0000
0001
0000
0000
0000
0000
0000
0100
0000
0000
1000
,  // measure 41
0000
0000
0000
0000
0010
0000
0000
0100
0000
0000
0000
0000
0001
0000
0000
0000
,  // measure 42
0100
0000
0000
0000
1000
0000
0000
0010
0000
0000
0000
0000
0100
0000
0000
0000
,  // measure 43
1001
0010
1000
0010
,  // measure 44
0001
0000
0000
0000
0100
0000
0000
0000
0010
0000
0000
1000
0000
0000
0002
0000
,  // measure 45
0000
0200
0000
0000
0000
0000
0000
0000
,  // measure 46
0303
0000
0001
0000
0100
0010
1000
0000
,  // measure 47
0002
0000
0000
0000
0000
0000
2003
0000
0000
0000
0000
0000
3020
0000
0000
0200
,  // measure 48
0000
0000
0000
0000
0000
0000
0000
0000
0000
0000
0000
0330
0000
0000
0000
0000
,  // measure 49
2000
0000
0000
3002
0000
0000
0203
0020
,  // measure 50
0000
0000
0000
0330
,  // measure 51
2002
0000
0000
3003
,  // measure 52
0000
0000
1100
0000
0000
0001
0000
0000
1001
0000
0000
0000
0000
0000
0000
0000
;

//---------------dance-single - ----------------
#NOTES:
     dance-single:
     :
     Medium:
     9:
     0.373844,0.504689,0.181581,0.213625,0.181581,245.000000,228.000000,17.000000,20.000000,0.000000,0.000000,0.373844,0.504689,0.181581,0.213625,0.181581,245.000000,228.000000,17.000000,20.000000,0.000000,0.000000:
// measure 0
0000
0000
0000
0000
,  // measure 1
0000
0000
0000
0000
,  // measure 2
0000
0000
0000
0000
,  // measure 3
0000
0000
0000
0000
,  // measure 4
0000
0000
0000
0000
,  // measure 5
1001
2200
0000
3300
,  // measure 6
0001
0100
0010
1000
0001
0000
1001
0000
,  // measure 7
0100
0000
0000
0010
0000
0000
0200
0000
0000
0000
0000
0000
0000
0000
0000
0000
,  // measure 8
0000
0000
0300
0000
0001
0000
1000
0010
,  // measure 9
0100
0000
0000
0000
0001
0000
1000
0000
0010
0000
0000
0000
1001
0000
0000
0010
,  // measure 10
0000
0000
0000
0000
1000
0000
0000
0000
0001
0000
0100
0000
0010
0000
0000
0110
,  // measure 11
0000
0000
1000
0010
0100
0000
0001
0000
,  // measure 12
0000
1000
0000
0000
0100
0000
0000
0000
0100
0000
0000
0010
0000
0000
0001
0000
,  // measure 13
0100
0000
0000
0000
0001
0000
1000
0000
0010
0000
0000
0000
1000
0000
0000
0001
,  // measure 14
0000
0000
1000
0000
0000
0010
0000
0100
0000
0000
0001
0000
0000
0100
0000
0010
,  // measure 15
0000
0000
0000
0000
1000
0000
0001
0000
0100
0000
0000
0000
1000
0000
0000
1100
,  // measure 16
0000
0000
0000
0000
1000
0000
0010
0000
0100
0000
0000
0000
0001
0000
0000
0011
,  // measure 17
0000
0000
0001
0100
0010
0000
1000
0000
,  // measure 18
0000
0000
0010
0000
0000
0100
0000
0000
0000
0000
0000
0000
0010
1000
0000
0000
,  // measure 19
0001
0100
0010
1000
0001
0100
0010
0000
,  // measure 20
1000
0001
1000
0001
,  // measure 21
1000
0010
0100
0001
1000
0010
0100
0000
,  // measure 22
1000
0001
1000
0001
,  // measure 23
0100
0010
1000
0001
0100
0010
1000
0000
,  // measure 24
0001
0100
0010
1000
,  // measure 25
0010
0100
0001
1000
0010
0100
0001
0000
,  // measure 26
1000
0010
0100
0001
,  // measure 27
0200
0000
0000
0000
0000
0000
0320
0000
0000
0000
0000
0000
0000
0000
0000
1030
,  // measure 28
0000
0001
0000
0000
0200
0000
0000
0000
0000
0000
0000
0000
0310
0000
0000
1000
,  // measure 29
0000
0001
0000
0000
0100
0000
0000
0000
0010
0000
1000
0000
0001
0000
0000
0200
,  // measure 30
0000
0000
0000
0000
0310
0000
0000
1000
0000
0000
0001
0000
0100
0000
0000
0000
,  // measure 31
0001
0000
1000
0000
0010
0000
1000
0000
0001
0000
1000
0000
0010
0000
0000
1001
,  // measure 32
0000
1001
0000
0000
0010
0000
0100
0000
0001
0000
0100
0000
0010
0000
0000
0000
,  // measure 33
0000
0110
0000
0000
1000
0000
0001
0000
0100
0000
0010
0000
1000
0000
0000
1100
,  // measure 34
0000
0000
0000
0000
0001
0000
0000
0101
0000
0000
0000
0000
0001
0000
0000
0000
,  // measure 35
1000
0000
0000
0010
0000
0000
0100
0000
0001
0000
0000
0000
0100
0000
0000
0000
,  // measure 36
0001
0000
0000
0000
1000
0000
0000
0000
0001
0000
0000
0100
0000
0000
0010
0000
,  // measure 37
2000
0000
0000
3010
0100
0001
2000
0000
,  // measure 38
0000
0000
3010
0000
0000
0100
0000
0000
0001
0000
0000
0100
0000
0000
0010
0000
,  // measure 39
2000
0000
0000
0000
0000
0000
3002
0000
0000
0000
0000
0000
0103
0000
0000
0020
,  // measure 40
0000
0000
0000
0000
0000
0000
0000
0000
0000
0000
0000
0000
0130
0000
0000
0001
,  // measure 41
0000
0000
1000
0010
0000
0100
0001
0000
,  // measure 42
0010
1000
0001
0100
0010
0000
1001
0000
,  // measure 43
1000
0100
0001
0100
1000
0100
0001
0100
,  // measure 44
1000
1001
0010
1001
,  // measure 45
0010
0001
0010
1000
0010
0001
0010
1000
,  // measure 46
0001
0010
0100
1001
,  // measure 47
0200
0000
0000
0000
0000
0000
0320
0000
0000
0000
0000
0000
1030
0000
0000
0002
,  // measure 48
0000
0000
0000
0000
0103
0010
1000
0000
,  // measure 49
0200
0000
0000
0000
0000
0000
0320
0000
0000
0000
0000
0000
1030
0000
0000
0002
,  // measure 50
0000
0000
0000
0000
1003
0010
0100
0000
,  // measure 51
2000
0000
0000
3020
0000
0000
0000
0000
,  // measure 52
0030
0000
0100
0000
0000
0001
0000
0000
1001
0000
0000
0000
0000
0000
0000
0000
;

//---------------dance-single - ----------------
#NOTES:
     dance-single:
     :
     Hard:
     13:
     0.592046,0.869187,0.320437,0.234987,0.587469,388.000000,358.000000,30.000000,22.000000,0.000000,0.000000,0.592046,0.869187,0.320437,0.234987,0.587469,388.000000,358.000000,30.000000,22.000000,0.000000,0.000000:
// measure 0
0000
0000
0000
0000
,  // measure 1
0000
0000
0000
0000
,  // measure 2
0000
0000
0000
0000
,  // measure 3
0000
0000
0000
0000
,  // measure 4
0000
0000
0000
0000
,  // measure 5
0000
0000
0020
0000
0000
0000
0130
0001
,  // measure 6
1000
0010
0000
0100
0000
0001
0000
1000
0000
0000
0001
0000
1000
0000
0010
0000
,  // measure 7
0110
0000
0000
1100
0000
0000
0102
0000
0000
0000
0000
0000
0000
0000
0000
0000
,  // measure 8
0000
0000
0103
0000
0010
0000
0000
1000
0000
0001
0000
0000
1000
0000
0010
0000
,  // measure 9
1001
0000
0000
0000
0010
0000
1000
0000
0100
0000
0001
0000
0100
0010
0000
0200
,  // measure 10
0000
0000
0000
0000
0010
0000
0000
0000
0300
0000
0000
0000
0010
0001
0010
2000
,  // measure 11
0000
0000
0000
0000
3010
0000
1000
0000
0001
1000
0000
0010
0000
0000
0100
0001
,  // measure 12
0000
1000
0000
0000
1100
0000
0000
0000
0101
0000
0000
1001
0000
0000
0010
0000
,  // measure 13
1000
0000
0000
0000
1001
0000
0010
0000
0100
0000
0001
0000
1000
0010
0000
0100
,  // measure 14
0000
0000
0001
0000
0100
0010
0000
1000
0000
0000
1000
0000
0001
0100
0000
0010
,  // measure 15
0000
0000
1000
0000
0001
0000
0010
0000
1000
0000
0100
0000
0001
0100
0001
0200
,  // measure 16
0000
0000
0000
0000
0310
0000
1000
0000
0001
0000
0100
0000
0010
1000
0010
2000
,  // measure 17
0000
0000
0000
0000
3010
0000
0100
0000
0001
0000
1000
0000
0010
0100
0010
0200
,  // measure 18
0000
0000
0320
0000
0000
0230
0000
0000
0000
0000
0000
0000
0301
1000
0000
0000
,  // measure 19
0010
1000
0001
1000
0010
1000
0001
1000
,  // measure 20
0010
0100
1000
0100
0010
0100
1000
0100
,  // measure 21
0001
0010
0100
0010
0001
0010
0100
0010
,  // measure 22
0001
0000
0010
0000
1000
0000
0100
0000
0001
0000
1000
0000
0001
1000
0001
0000
,  // measure 23
1000
0010
1000
0001
1000
0010
1000
0001
,  // measure 24
0001
0100
0001
1000
0001
0100
0001
1000
,  // measure 25
0100
0000
0000
1100
0000
0000
0101
0000
0000
0000
0001
0000
1000
0000
0010
0100
,  // measure 26
0001
0000
0000
0000
1100
0000
0000
0000
0001
0000
0100
0000
0010
2000
0000
0000
,  // measure 27
3010
0000
0000
0000
0001
1000
0001
1000
0001
1000
0001
1000
0001
1000
0001
1000
,  // measure 28
0000
1001
0000
0000
0010
0100
0010
0100
0010
0100
0010
0100
0010
0100
0010
0100
,  // measure 29
0000
0110
0000
0000
1000
0100
1000
0100
1000
0100
1000
0100
1000
0100
1000
0001
,  // measure 30
0000
0000
0000
0000
0001
1000
0000
1001
0000
0000
0000
0000
0010
0100
0000
0000
,  // measure 31
1000
0010
1000
0001
1000
0010
1000
0001
1000
0010
1000
0001
1000
0010
1000
0001
,  // measure 32
0000
1001
0000
0000
0001
0100
0001
1000
0001
0100
0001
1000
0001
0100
0001
1000
,  // measure 33
0000
1001
0000
0000
1000
0100
0001
0100
1000
0100
0001
0100
1000
0100
0001
1000
,  // measure 34
0000
0000
0000
0000
1000
0100
0000
1100
0000
0000
0001
0000
0100
0000
0000
0000
,  // measure 35
2001
0000
0000
0001
0000
0000
0001
0000
0000
0000
0000
0000
0020
0000
0000
0000
,  // measure 36
0000
0000
0000
0000
3030
0000
0000
0000
0001
0000
0000
0100
0000
0000
0010
0000
,  // measure 37
2100
0000
0000
3002
0000
0000
0203
0000
,  // measure 38
0000
0000
0320
0000
0000
0000
0000
0000
1030
0000
0000
0001
0000
0000
0100
0000
,  // measure 39
1010
0000
0000
1001
0000
0000
0101
0000
0000
0000
0010
0000
0100
0001
0000
1000
,  // measure 40
0000
0000
0010
0000
0100
0000
0001
0000
0010
0000
1000
0000
0100
1000
0000
0100
,  // measure 41
0000
0010
0100
0001
1000
0010
0100
0001
,  // measure 42
1000
1100
0101
1001
,  // measure 43
0010
1000
0010
1000
0010
1000
0010
0000
0001
0000
1000
0000
0010
0000
0100
0000
,  // measure 44
0001
0100
0001
0100
0001
0100
0001
0000
1000
0010
0100
0001
0010
0000
1000
0000
,  // measure 45
0000
0000
1001
0000
0000
0000
0010
1000
0001
0000
0100
0000
0010
0000
1000
0000
,  // measure 46
0001
0100
0010
1000
0100
0000
0010
0000
0100
0000
0001
0100
0010
1000
0000
0000
,  // measure 47
0001
0000
0000
1000
0000
0000
1100
0000
0001
0000
0100
0000
0010
1000
0001
0200
,  // measure 48
0000
0000
0000
0000
0000
0000
0310
0000
1000
0000
0001
0000
0100
0010
1000
0001
,  // measure 49
0010
0000
1000
0000
0010
0000
1000
0000
0001
0000
1000
0000
0010
1000
0001
0200
,  // measure 50
0000
0000
0320
2030
,  // measure 51
3002
0000
0000
0203
0000
0000
0300
0000
,  // measure 52
0000
0000
1100
0000
0000
0110
0000
0000
0011
0000
0000
0000
0000
0000
0000
0000
;

//---------------dance-double - ----------------
#NOTES:
     dance-double:
     :
     Easy:
     6:
     0.221254,0.308421,0.096131,0.234987,0.112153,145.000000,136.000000,9.000000,22.000000,0.000000,0.000000,0.221254,0.308421,0.096131,0.234987,0.112153,145.000000,136.000000,9.000000,22.000000,0.000000,0.000000:
00000000
00000000
00000000
00000000
,
00000000
00000000
00000000
00000000
,
00000000
00000000
00000000
00000000
,
00000000
00000000
00000000
00000000
,
00000000
00000000
00000000
00000000
,
00000000
00200000
00000000
00000000
,
01300000
10000000
00010000
00100000
,
00010000
00000000
00000000
00001000
00000000
00000000
00000200
00000000
00000000
00000000
00000000
00000000
00000000
00000000
00000000
00000000
,
00000000
00000000
00000300
00000010
,
00001001
00000100
00000010
00001000
,
00000100
00001000
00010000
00100000
,
01000000
10000000
00010000
00100000
,
00000000
01000000
00000000
00000000
01000000
00000000
00000000
00000000
00100000
00000000
00000000
00100000
00000000
00000000
00000000
00000000
,
10000000
00100000
00010000
01000000
,
00010000
00000000
00000000
00000000
10000000
00000000
00000000
00000000
00010000
00000000
00000000
00000000
00100000
00000000
00000000
00020000
,
00000000
00000000
00000000
00000000
00000000
00000000
00000000
00000000
00000000
00000000
00000000
00000000
00000000
00000000
00000000
00032000
,
00000000
00000000
00000000
00000000
00000000
00000000
00000000
00000000
00000000
00000000
00000000
00000000
00000000
00000000
00000000
00003200
,
00000000
00000000
00000000
00000000
00000000
00000000
00000000
00000300
,
00000000
00000000
00000010
00000000
00000000
00000001
00000000
00000000
00000000
00000000
00000000
00000000
00000100
00000000
00000000
00000000
,
00001100
00001000
00010000
00100000
,
01000000
00010000
01000000
00100000
,
10000000
00100000
01000000
00010000
,
11000000
01010000
00010000
00001000
,
00000010
00000001
00001000
00000010
,
00000100
00000001
00001000
00000100
,
00000010
00000001
00000101
00001000
,
00001100
00001000
00010000
00100000
,
20000000
00000000
00000000
02000000
00000000
00000000
00000000
00000000
,
00000000
00000000
00000000
33000000
,
00000000
00020000
00000000
00000000
00000000
00000000
00000000
00000000
00000000
00000000
00000000
00000000
00000000
00000000
00000000
00032000
,
00000000
00000000
00000000
00000000
00000000
00000000
00000000
00003200
00000000
00000000
00000000
00000000
00000000
00000000
00000000
00000000
,
00000320
00000000
00000000
00000000
00000000
00000000
00000000
00000000
00000000
00000000
00000000
00000000
00000000
00000000
00000000
00000002
,
00000000
00000000
00000000
00000033
,
00000000
00002002
00000000
00000000
00000000
00000000
00000000
00000000
00000000
00000000
00000000
00000000
00003003
00000000
00000000
00002000
,
00000000
00000000
00000000
00000000
00000000
00000000
00000000
00023000
00000000
00000000
00000000
00000000
00000000
00000000
00000000
00000000
,
00130000
00000000
00000000
00010000
00000000
00000000
00100000
00000000
,
00000000
00000000
10000000
00000000
00000000
00000000
00000000
00000000
00100000
00000000
00000000
00001000
00000000
00000000
00010000
00000000
,
00000200
00000000
00000000
00000000
,
00000000
00000000
00000310
00000000
00000000
00000001
00000000
00000000
00000100
00000000
00000000
00001000
00000000
00000000
00010000
00000000
,
00200000
00000000
00000000
00000000
,
01300000
00000000
10000000
00000000
,
00010000
01000000
00100000
10000000
,
00100000
01000000
00010000
00011000
,
00000100
00001000
00000100
00001000
,
00000100
00000001
00000100
00000001
,
00001000
00000010
00001000
00000010
,
00000001
00000010
00000001
00000010
,
00001000
00000000
00000000
00100000
00000000
00000000
00100000
00000000
00000000
00000000
00000000
00000000
10000000
00000000
00000000
00020000
,
00000000
00000000
00000000
00030000
,
00100000
00000000
00000000
00001000
00000000
00000000
00001000
00000000
00000000
00000000
00000000
00000000
00000100
00000000
00000000
00000020
,
00000000
00000000
00000031
00001000
,
00000200
00000000
00000000
00020000
00000000
00000000
00000000
00000000
,
00000000
00030300
00000000
00000000
00101000
00000000
00000000
00000000
;

//---------------dance-double - ----------------
#NOTES:
     dance-double:
     :
     Medium:
     9:
     0.331119,0.420574,0.170900,0.331119,0.154878,217.000000,201.000000,16.000000,31.000000,0.000000,0.000000,0.331119,0.420574,0.170900,0.331119,0.154878,217.000000,201.000000,16.000000,31.000000,0.000000,0.000000:
00000000
00000000
00000000
00000000
,
00000000
00000000
00000000
00000000
,
00000000
00000000
00000000
00000000
,
00000000
00000000
00000000
00000000
,
00000000
00000000
00000000
00000000
,
00000000
00000002
00000000
00000003
,
00000010
00000000
00000000
00001000
00000000
00000000
00010000
00000000
00000000
00000000
00100000
00000000
00100000
00000000
10000000
00000000
,
00010000
00000000
00000000
11000000
00000000
00000000
00200000
00000000
00000000
00000000
00000000
00000000
00000000
00000000
00000000
00000000
,
00000000
00000000
01000000
00000000
01000000
00000000
00000000
02000000
00000000
00000000
00000000
00000000
03300000
00000000
00000000
00000000
,
00010000
00100000
01000000
00000000
00010000
00001000
00000100
00000000
,
00001010
00000001
00000100
00000000
00000010
00001000
00000001
00000000
,
00000100
00001000
00010000
00000000
00110000
00000000
10000000
00000000
,
00000000
00100000
00000000
00000000
10000000
00000000
00010000
00000000
01000000
00000000
00000000
10100000
00000000
00000000
00000000
00000000
,
00010000
01000000
00001000
00000000
00010000
00000100
00001000
00000000
,
00000010
00000000
00000001
00000000
00000010
00001000
00000000
00000000
00001000
00000000
00000100
00000000
00001000
00010000
00000000
00000000
,
00100000
00000000
10000000
00000000
00010000
00000000
00000000
00000000
00100000
00000000
00000000
00000000
01000000
00000000
00000000
00020000
,
00000000
00000000
00000000
00000000
00000000
00000000
00000000
00000000
00000000
00000000
00000000
00000000
00130000
00000000
00000000
00002000
,
00000000
00000000
00000000
00000000
00000000
00000000
00003100
00000020
,
00000000
00000000
00000001
00000000
00000000
00000002
00000000
00000000
00000000
00000000
00000000
00000000
00000033
00000000
00000000
00000000
,
00000001
00000100
00001000
00000000
00000100
00001000
00010000
00000000
,
00100000
00010000
10000000
00000000
00100000
10000000
00010000
00000000
,
10000000
01000000
00010000
00000000
01000000
00010000
00001000
00000000
,
00000100
00000010
00001000
00000001
00000100
00000000
00001010
00000000
,
00000001
00001000
00000010
00000000
00000010
00001000
00000001
00000000
,
00000100
00001000
00010000
00000000
00100000
00010000
10000000
00000000
,
00100000
01000000
10000000
00000000
00100000
01000000
00010000
00000000
,
00100000
00000000
00001000
00000000
00010000
00000000
00000000
00000000
00000100
00000000
00001000
00000000
00000010
00000100
00000000
00000000
,
00000002
00000000
00000000
00002000
00000000
00000000
00000000
00000000
,
00000000
00003003
00000000
00000000
00000000
00000000
00000000
00000000
00001000
00000000
00010000
00000000
00100000
00000000
00000000
00000000
,
00000000
02200000
00000000
00000000
00000000
00000000
00000000
00000000
00000000
00000000
00000000
00000000
03300000
00000000
00000000
22000000
,
00000000
00000000
00000000
00000000
33000000
00000000
00000000
02020000
00000000
00000000
00000000
00000000
03030000
00000000
00000000
00000000
,
00022000
00000000
00000000
00000000
00000000
00000000
00000000
00000000
00000000
00000000
00000000
00000000
00033000
00000000
00000000
00000100
,
00000000
00000200
00000000
00000000
00000000
00000000
00000000
00000000
00000000
00000000
00000000
00000000
00000320
00000000
00000000
00000000
,
00000000
00000032
00000000
00000000
00000000
00000000
00000000
00000000
00000000
00000000
00000000
00000000
00001003
00000000
00000000
00002000
,
00000000
00000000
00000000
00000000
00013000
00000000
00000000
00200000
00000000
00000000
00000000
00000000
10300000
00000000
00000000
00000000
,
11000000
00000000
00000000
00010000
00000000
00000000
01010000
00000000
00000000
00000000
00001000
00000000
00010000
00000000
00000000
00000000
,
00000000
00000000
00000010
00000000
00000000
00000000
00000100
00000000
00000001
00000000
00000000
00001000
00000000
00000000
00000010
00000000
,
00000200
00000000
00000000
00000301
,
00000000
00000000
00000100
00000000
00000000
00001000
00000000
00000000
00010000
00000000
00000000
00100000
00000000
00000000
00100000
00000000
,
10000000
00000000
00000000
00010000
00000000
00000000
01000000
00000000
00000000
00000000
00100000
00000000
10000000
00000000
00000000
00000000
,
00000000
01010000
00000000
00000000
00001000
00010000
00000100
00000000
,
00000000
00000010
00001000
00000000
00000001
00000000
00001001
00000000
,
00000100
00001000
00010000
00000000
00100000
00010000
10000000
00000000
,
00200000
00000000
01300000
00000000
00010000
10000000
00100000
00000000
,
01000000
00010000
00001000
00000000
00000010
00000001
00000100
00000000
,
00002000
00000010
00000001
00003100
,
00020000
10000000
00100000
01030000
,
00010000
00000000
00000000
00100000
00000000
00000000
01000000
00000000
00000000
00000000
00000000
00000000
10000000
00000000
00000000
22000000
,
00000000
00000000
33000000
00100000
,
00010000
00000000
00000000
00100000
00000000
00000000
01010000
00000000
00000000
00000000
00000000
00000000
00001000
00000000
00000000
00020000
,
00000000
00000000
00030100
00000010
,
00000002
00000000
00000000
00002000
00000000
00000000
00003003
00000000
,
00000000
00000000
00000001
00000000
00000000
00001000
00000000
00000000
00011000
00000000
00000000
00000000
00000000
00000000
00000000
00000000
;

//---------------dance-double - ----------------
#NOTES:
     dance-double:
     :
     Hard:
     12:
     0.498967,0.672919,0.234987,0.085450,0.352481,327.000000,305.000000,22.000000,8.000000,0.000000,0.000000,0.498967,0.672919,0.234987,0.085450,0.352481,327.000000,305.000000,22.000000,8.000000,0.000000,0.000000:
00000000
00000000
00000000
00000000
,
00000000
00000000
00000000
00000000
,
00000000
00000000
00000000
00000000
,
00000000
00000000
00000000
00000000
,
00000000
00000000
00000000
00000000
,
00000000
00000000
00000200
00000000
00000000
00000000
00001300
00000001
,
00001000
00010000
00000000
00001000
00000000
00100000
00000000
00010000
00000000
00000000
10000000
00000000
00100000
00000000
00010000
00000000
,
01000000
00000000
00000000
11000000
00000000
00000000
02020000
00000000
00000000
00000000
00000000
00000000
00000000
00000000
00000000
00000000
,
00000000
00000000
00000000
00000000
03030000
00000000
00000000
00011000
00000000
00001000
00000000
00000000
00001000
00000000
00000010
00000000
,
00000100
00000000
00000001
00000000
00000010
00000000
00000000
00000000
00000100
00000000
00001000
00000000
00010000
00001000
00000000
00100000
,
00000000
00000000
00000000
00000000
00100000
00000000
10000000
00000000
00010000
00000000
00000000
00000000
01000000
00100000
00000000
10000000
,
00000000
00000000
00000000
00000000
00010000
00000000
00100000
00000000
10000000
00000000
00000000
00010000
00000000
00000000
01000000
00000000
,
00000000
00001000
00000000
00000000
00011000
00000000
00000000
00000000
00000100
00000000
00000000
00000110
00000000
00000000
00000000
00000000
,
00000010
00000000
00001000
00000000
00000001
00000000
00000000
00000000
00000100
00000000
00001000
00000000
00010000
00001000
00000000
00100000
,
00000000
00000000
00010000
00000000
00000000
10000000
00000000
00100000
00000000
00000000
01000000
00000000
00000000
00010000
00000000
00100000
,
00000000
00000000
01000000
00000000
00010000
00000000
00000000
00000000
10000000
00000000
00100000
00000000
00010000
00000000
00000000
00002000
,
00000000
00000000
00000000
00000000
00000000
00000000
00000000
00000000
00000000
00000000
00000000
00000000
00003010
00000000
00000000
00000001
,
00000000
00000000
00000100
00000000
00000010
00000000
00000000
00000000
00001000
00000000
00000100
00000000
00001000
00000000
00000000
00010000
,
00000000
00000000
00100000
00000000
00000000
10020000
00000000
00000000
00000000
00000000
00000000
00000000
00130000
10000000
00000000
00000000
,
00010000
00100000
10000000
01000000
00010000
00100000
01000000
10000000
,
01000000
00010000
01000000
00100000
01000000
00010000
00001000
00000100
,
00001000
00000010
00000100
00000001
00001000
00000010
00000100
00000001
,
00000010
00001000
00001100
00000000
00001000
00010000
00010000
00000000
,
10000000
00100000
00010000
01000000
00100000
10000000
01000000
00010000
,
00100000
10000000
01000000
00100000
00001000
00010000
00001000
00000100
,
00000010
00000001
00000010
00000100
00001000
00000010
00000100
00000001
,
00000010
00001000
00001001
00000000
00000010
00000100
00000100
00000000
,
00001000
00000000
00000000
00000000
00100000
00000000
00010000
00000000
10000000
00000000
00000000
00000000
00100000
00000000
00000000
10010000
,
00000000
10010000
00000000
00000000
00100000
00000000
10000000
00000000
01000000
00000000
00000000
00000000
00001000
00000000
00000000
00011000
,
00000000
00011000
00000000
00000000
00000001
00000000
00001000
00000000
00000010
00000000
00000000
00000000
00000001
00001000
00000000
00000010
,
00000000
00000000
00000100
00000000
00010000
00001000
00000000
00100000
00000000
00000000
00010000
00000000
10000000
00100000
00000000
00000000
,
00010000
00000000
01000000
00010000
01000000
00000000
00010000
01000000
00010000
00000000
01000000
00010000
01000000
00010000
01000000
00001000
,
00000000
00010000
00000000
00000000
00000100
00001000
00000100
00000000
00001000
00000100
00001000
00000000
00000100
00001000
00000100
00001000
,
00000000
00000001
00000000
00000000
00000010
00001000
00000010
00000000
00000001
00001000
00000001
00000000
00000001
00001000
00000010
00000100
,
00000000
00000001
00001000
00000000
00000010
00001000
00000000
00011000
00000000
00010000
00001000
00000000
00100000
00000000
00010000
00000000
,
01010000
00000000
00000000
00010000
00000000
00000000
01000000
00000000
00100000
00000000
10000000
00000000
00010000
00000000
00000000
01000000
,
00000000
00000000
00100000
00000000
00000000
00000000
10010000
00000000
00100000
00000000
00000000
10000000
00000000
00000000
01000000
00000000
,
00020000
00000000
00000000
00031000
,
00000000
00000000
00000010
00000000
00000000
00000001
00000000
00000000
00001000
00000000
00000000
00001100
00000000
00000000
00001000
00000000
,
00010000
00000000
00000000
01000000
00000000
00000000
00100000
00000000
10000000
00000000
00010000
00000000
00000000
00000000
00200000
00000000
,
00000000
00000000
01000000
00000000
00000000
00000000
01300000
00000000
00000000
00000000
01000000
00000000
00010000
00000000
00000000
00100000
,
00000000
00001000
01000000
00000000
00001000
00010000
00000100
00000000
,
00001000
00000010
00000001
00000100
00001010
00000000
00001001
00000000
,
00000010
00001000
00000100
00001000
00010000
00001000
00010000
00100000
,
10000000
00000000
00100000
00000000
01000000
00000000
00010000
00000000
00100000
00000000
10000000
00100000
01000000
00000000
00010000
00000000
,
00100000
10000000
01000000
00001000
00010000
00001000
00000001
00001000
,
00000010
00000000
00000100
00000000
00000001
00000000
00000010
00000000
00000100
00000000
00001000
00000000
00001000
00010000
00001000
00000000
,
00100000
00000000
00000000
00100000
00000000
00000000
10000000
00000000
00010000
00000000
00000000
00000000
10000000
00000000
00000000
11000000
,
00000000
00010000
01000000
00000000
01000000
00010000
00001000
00000000
,
00001000
00000000
00000010
00000000
00000001
00000000
00000000
00000000
00000100
00000000
00000010
00000000
00000001
00000000
00000000
00001001
,
00000000
00000000
00000010
00000100
00001000
00000000
00001000
00000000
,
00010000
00000000
00000000
00000000
00000000
00000000
20000000
00000000
00000000
00000000
00000000
00000000
00000000
00000000
00000000
30000000
,
00000000
00000000
00010000
00000000
00000000
01001000
00000000
00000000
00010100
00000000
00000000
00000000
00000000
00000000
00000000
00000000
;
