#TITLE:PETIT LOVE;
#SUBTITLE:;
#ARTIST:SMiLE.dk;
#TITLETRANSLIT:;
#SUBTITLETRANSLIT:;
#ARTISTTRANSLIT:;
#GENRE:Dancemania;
#CREDIT:;
#BANNER:PETIT LOVE.png;
#BACKGROUND:PETIT LOVE-bg.png;
#LYRICSPATH:;
#CDTITLE:;
#MUSIC:PETIT LOVE.ogg;
#OFFSET:-0.556000;
#SAMPLESTART:91.907890;
#SAMPLELENGTH:15.000000;
#SELECTABLE:YES;
#BPMS:0.000000=155.000000
;
#STOPS:
;
#BGCHANGES:;
#KEYSOUNDS:;
#ATTACKS:;

//---------------dance-single - ----------------
#NOTES:
     dance-single:
     :
     Easy:
     5:
     0.242142,0.285148,0.094166,0.266805,0.000000,216.000000,204.000000,12.000000,34.000000,0.000000,0.000000,0.242142,0.285148,0.094166,0.266805,0.000000,216.000000,204.000000,12.000000,34.000000,0.000000,0.000000:
0000
0000
0000
0000
,
0000
0000
0000
0000
,
0000
0000
0000
0000
,
0000
0000
0000
0000
,
0000
0000
0000
0000
,
1000
0000
1000
0000
,
0001
0001
0001
0000
,
0100
0000
0100
0000
,
0010
0010
0010
0000
,
1000
0000
1000
0000
,
0001
0000
0001
0000
,
1000
0000
1000
0000
,
0001
1000
0001
1000
,
0001
0000
0100
0000
,
0001
0000
0010
0000
,
0001
0000
1000
0000
,
0001
0010
0100
1000
,
0002
0000
1003
0000
,
0100
0100
0010
0000
,
0002
0000
1003
0000
,
0010
0010
0100
0000
,
0002
0000
1003
0000
,
0001
0010
0100
0000
,
2000
0000
3001
0000
,
0010
0100
1000
0000
,
1001
0000
1001
0000
,
2002
0000
3003
0000
,
1000
0000
0010
0000
,
1000
0000
0100
0000
,
1000
0000
0001
0000
,
1000
0100
0010
0001
,
2000
0000
3001
0000
,
0010
0010
0100
0000
,
2000
0000
3001
0000
,
0100
0100
0010
0000
,
2000
0000
3001
0000
,
1000
0100
0010
0000
,
0002
0000
1003
0000
,
0100
0010
0001
0000
,
1001
0000
1001
0000
,
2002
0000
3003
0000
,
0010
0000
1000
0001
,
1000
0100
0010
0001
,
1000
0000
0100
0010
,
0001
0100
0010
1000
,
0001
0001
2000
3000
,
0010
0010
0100
0001
,
1000
0010
0100
0001
,
2000
3000
0002
0003
,
0010
0000
0001
0100
,
0001
0001
1000
1000
,
0002
0000
2003
0000
,
3100
0010
0001
0000
,
2000
0000
3000
0000
,
0002
0000
0003
0000
,
1001
0000
1001
0000
,
0002
0000
1003
0000
,
1001
0000
1001
0000
,
0001
2000
0002
3003
,
1000
0100
0100
0100
,
0010
0001
0010
0001
,
1000
0010
0010
0010
,
0100
0001
0100
0001
,
1000
0001
0001
0001
,
0100
0001
0010
0100
,
1000
0001
0001
0001
,
1000
0010
0100
0100
,
0002
0000
1003
0000
,
0001
0010
0100
0100
,
2000
0000
3001
0000
,
1000
0010
0100
0100
,
0002
0000
1003
1000
,
0020
0000
0130
0000
,
0002
0000
1003
1000
,
0020
0000
0130
0000
,
0002
0000
1003
1000
,
0200
0000
0310
0000
,
2002
0000
3003
0000
,
1000
0001
0100
0000
,
2002
0000
3003
0000
,
0100
0010
1000
0001
;

//---------------dance-single - ----------------
#NOTES:
     dance-single:
     :
     Medium:
     9:
     0.402449,0.506929,0.086319,0.235416,0.000000,359.000000,348.000000,11.000000,30.000000,0.000000,0.000000,0.402449,0.506929,0.086319,0.235416,0.000000,359.000000,348.000000,11.000000,30.000000,0.000000,0.000000:
0000
0000
0000
0000
,
0000
0000
0000
0000
,
0000
0000
0000
0000
,
0000
0000
0000
0000
,
0000
0000
0000
0000
,
1000
0000
1000
0100
0000
0100
1000
0000
,
0100
0100
0100
0110
,
0001
0000
0001
0010
0000
0010
0001
0000
,
0010
0010
0010
0110
,
0000
0100
0000
0001
0000
0100
0000
0001
,
0000
1000
0000
0100
0000
0001
0100
1000
,
0000
0001
0000
0100
0000
0001
0000
0100
,
0000
0010
0000
1000
0000
0001
0100
1000
,
0000
0100
0000
0001
0000
0100
0000
0001
,
0000
1000
0000
0100
0000
0001
0100
1000
,
0000
0001
0000
1000
0000
0001
0000
0100
,
0000
0010
0000
1000
0000
0010
0100
1000
,
0100
0100
0100
0100
,
0002
0003
2000
3000
,
0001
1000
0100
0000
0010
0000
0010
0000
,
0001
1000
0010
0100
,
0001
0001
0001
0001
,
2000
3000
0200
0300
,
0001
0100
1000
0000
0100
0000
0100
0000
,
1000
0010
0100
0001
,
2000
3000
0002
0003
,
0100
1000
0100
0001
0010
0000
1001
0000
,
0000
0010
0000
1000
0000
0010
0000
1000
,
0000
0001
0000
0010
0000
1000
0010
0001
,
0000
1000
0000
0001
0000
1000
0000
0010
,
0000
0100
0000
0001
0000
0100
0010
0001
,
0010
0010
0010
0010
,
2000
3000
0002
0003
,
1000
0001
0010
0000
0100
0000
0100
0000
,
1000
0001
0100
0010
,
1000
1000
1000
1000
,
0002
0003
0020
0030
,
1000
0010
0001
0000
0010
0000
0010
0000
,
0001
0100
0010
1000
,
0002
0003
2000
3000
,
0010
0001
0010
1000
0100
0000
1001
0000
,
0001
0010
0100
0000
1000
0010
0100
0000
,
0001
1000
0100
0000
0010
0001
0100
0000
,
0020
0030
0020
0030
,
0100
0001
0010
0000
0001
0000
0001
0000
,
1000
0010
0100
0000
0001
0010
0100
0000
,
1000
0001
0100
0000
0010
1000
0100
0000
,
0020
0030
0020
0030
,
1000
1001
0001
1001
,
1000
0100
0010
0000
0001
0100
0010
0000
,
1000
0001
0010
0000
0100
1000
0010
0000
,
0200
0300
0002
0003
,
1000
0010
0100
0000
0001
0000
1000
0000
,
0001
0010
0100
1000
0001
0100
0010
1000
,
0100
0010
0001
0100
0010
0000
0010
0000
,
1001
0200
0001
0301
,
1000
0000
1000
0000
1000
0100
1000
0000
,
0001
0002
0100
0103
,
0010
0000
0010
0000
1000
0100
0010
0000
,
0001
0010
0100
0000
2000
0000
3010
0000
,
0100
0001
0010
0000
0100
0000
1000
0000
,
0010
0100
0001
0000
0020
0000
0130
0000
,
1000
0001
0100
0000
0010
0000
0100
0000
,
0001
0010
0100
0000
1000
0000
1000
0000
,
0100
1000
0010
0000
0100
0000
0100
0000
,
0010
0100
0001
0000
1000
0000
1000
0000
,
0001
0010
0100
0000
1000
0000
1001
0000
,
1000
0100
0010
0000
0002
0000
0103
0000
,
0010
1000
0100
0000
0020
0000
0031
0000
,
0100
0010
1000
0010
0100
0000
0100
0000
,
0001
1000
0010
0000
0200
0000
0301
0000
,
0010
0100
1000
0100
0010
0000
0010
0000
,
0001
1000
0010
0000
0200
0000
0301
0000
,
0100
0010
1000
0001
0100
0000
0001
0000
,
1000
0001
0010
0000
0200
0000
1300
0000
,
0001
0100
0010
1000
0001
0000
1000
0000
,
0001
1000
0020
0000
0130
0000
1001
0000
,
0010
0001
0010
0000
0002
0000
1003
0000
,
0001
0001
0001
1001
,
0010
1000
0010
0000
2000
0000
3001
0000
,
1000
1000
1000
1001
;

//---------------dance-single - ----------------
#NOTES:
     dance-single:
     :
     Hard:
     11:
     0.551546,0.601978,0.086319,0.258958,0.015694,492.000000,481.000000,11.000000,33.000000,0.000000,0.000000,0.551546,0.601978,0.086319,0.258958,0.015694,492.000000,481.000000,11.000000,33.000000,0.000000,0.000000:
0000
0000
0000
0000
,
0000
0000
0000
0000
,
0000
0000
0000
0000
,
0000
0000
0000
0000
,
0000
0000
0000
0000
,
1000
0100
0001
1000
0100
0001
1000
0100
,
0001
1000
0100
0001
2000
0000
3001
0000
,
0001
0010
1000
0001
0010
1000
0001
0010
,
1000
0001
0100
0010
1000
0001
0100
0010
,
0000
0010
0001
1000
0100
0010
0001
1000
,
0000
0010
1000
0001
0100
0010
1000
0001
,
0000
1000
1000
0001
0100
0010
0100
0001
,
0000
0100
0100
0001
1000
0100
0010
0001
,
0000
0100
0001
1000
0010
0100
0001
1000
,
0000
0100
1000
0001
0010
0100
1000
0001
,
0000
1000
1000
0010
1000
0100
0010
0001
,
0000
0010
0010
0001
0100
0010
1000
0001
,
1000
0000
1000
0000
1000
0100
0001
0000
,
0100
1000
0001
0100
1000
0100
0001
0000
,
1000
0000
1000
0000
0100
0001
0100
0000
,
1000
0010
0100
1000
0100
0001
2000
0000
,
3010
0000
0010
0000
0100
0001
1000
0000
,
0100
0001
0100
0010
0001
1000
0001
0000
,
1000
0000
1000
0000
0010
1000
0001
0000
,
0100
0010
1000
0010
0100
0001
2000
0000
,
3001
0010
0001
0010
0100
1000
0100
1000
,
0001
0010
0100
1000
0001
0000
1001
0000
,
0000
0010
1000
0001
0100
0010
1000
0001
,
0000
0010
0001
1000
0100
0010
0001
1000
,
0000
0001
0001
0100
0001
0010
0100
1000
,
0000
0100
0100
1000
0010
0100
0001
1000
,
0001
0000
0001
0000
0001
0010
1000
0000
,
0010
0001
1000
0010
0001
0010
2000
0000
,
3001
0000
0001
0000
0010
1000
0010
0000
,
0001
0100
0010
0001
0010
1000
0002
0000
,
0103
0000
0100
0000
0010
1000
0001
0000
,
0010
1000
0010
0100
1000
0001
2000
0000
,
3001
0000
0001
0000
0100
0001
1000
0000
,
0010
0100
0001
0100
0010
1000
0002
0000
,
1003
0100
1000
0100
0010
0001
0010
0001
,
1000
0100
0010
0001
1000
0000
1001
0000
,
1000
0000
2000
0000
0001
0001
3001
0000
,
0010
0000
0020
0000
0001
0001
0031
0000
,
1000
0100
0010
0001
1000
0010
0100
0001
,
1000
0100
0010
0001
1000
0000
1001
0000
,
0100
0000
0100
0000
1000
0100
0001
0000
,
1000
0000
1000
0000
0100
0001
0100
0000
,
1000
0010
0100
0001
1000
0100
0010
0001
,
0010
0001
0010
0001
0010
0000
0000
0000
0100
1000
0100
1000
0100
0000
0000
0000
,
1000
0000
2000
0000
3001
0100
0010
0100
,
0001
0000
0002
0000
1003
0100
0010
0100
,
1000
0100
0010
0001
1000
0010
0100
0001
,
1000
0100
0010
0001
1000
0000
1001
0000
,
1000
2000
3100
0200
,
0310
0000
0020
0000
0031
0010
0001
0000
,
2000
0100
0001
3100
,
2000
0100
3001
0101
,
2000
0100
0001
3100
,
1000
0001
1000
0010
1000
0000
1010
0000
,
1000
0100
0001
0100
1000
0100
0001
0100
,
2000
3200
0320
0032
,
0103
1000
0100
0001
0100
1000
0100
0001
,
0200
0320
2030
3002
,
0013
0001
0010
0001
0010
0001
1000
0010
,
0100
1000
0100
1000
0100
1000
0100
1000
,
0001
0000
0001
0000
1000
0010
0100
0000
,
0010
0000
0010
0000
1000
0001
0100
0000
,
1000
0100
0001
0010
0100
0001
0100
1000
,
0010
0001
0010
1000
0100
0001
0100
1000
,
0010
0000
0010
0000
0010
0001
0010
0000
,
1000
0000
1000
0000
1000
0100
1000
0000
,
0010
1000
0010
0100
0010
1000
0010
0100
,
0002
2003
3200
0320
,
0031
0010
0001
1000
0001
0010
0001
1000
,
0002
0023
0230
2300
,
3100
0010
0001
1000
0100
0010
0001
1000
,
0001
0001
1000
1000
0010
0010
0100
0100
,
0001
0011
0001
1100
,
0001
0010
0001
0010
0001
1000
0001
0000
,
1000
1010
1000
0101
,
1000
0010
0100
0001
1000
0100
1001
0000
;

//---------------dance-double - ----------------
#NOTES:
     dance-double:
     :
     Easy:
     6:
     0.323977,0.348514,0.117708,0.156944,0.000000,289.000000,274.000000,15.000000,20.000000,0.000000,0.000000,0.323977,0.348514,0.117708,0.156944,0.000000,289.000000,274.000000,15.000000,20.000000,0.000000,0.000000:
00000000
00000000
00000000
00000000
,
00000000
00000000
00000000
00000000
,
00000000
00000000
00000000
00000000
,
00000000
00000000
00000000
00000000
,
00000000
00000000
00000000
00000000
,
00000001
00000010
00000100
00001000
,
00000100
00000010
00001100
00000000
,
00010000
00100000
01000000
10000000
,
01000000
00100000
00010000
00100000
,
10000000
01000000
00010000
00000100
,
00000001
00000100
00001000
00001000
,
00000010
00010000
00002000
01003000
,
00010000
20000000
01000000
31000000
,
00100000
00001000
00010000
00000100
,
00000001
00000100
00010000
00010000
,
00001000
02000000
00010000
13000000
,
00100000
02000000
00001000
03001000
,
00010000
00000100
00000100
00000100
,
00001000
00000000
00000001
00000000
,
00000100
00000010
00000010
00000010
,
00020000
00030000
00002000
00003000
,
01000000
00100000
10000000
00010000
,
01000000
00000000
00001000
00000000
,
00010000
00000100
00000001
00000100
,
00020000
00030000
00000020
00000030
,
00010000
00010000
00000010
00000000
,
00000100
00000100
00000100
00000100
,
00000100
00010000
00001000
00100000
,
10000000
00100000
00001000
00001000
,
00010000
00000020
00001000
00000031
,
00000100
00000020
00010000
00010030
,
00001000
00100000
00100000
00100000
,
00010000
00000000
10000000
00000000
,
00100000
01000000
01000000
01000000
,
00002000
00003000
00020000
00030000
,
00000010
00000100
00000001
00001000
,
00000010
00000000
00010000
00000000
,
00001000
00100000
10000000
00100000
,
00002000
00003000
02000000
03000000
,
00001000
00001000
01000000
00000000
,
00001000
00001000
00001000
00001000
,
00000001
00001001
00000100
00010000
,
00001000
00011000
01000000
00010000
,
10000000
10000000
01000000
00010000
,
00000100
00000010
00000001
00000100
,
00001000
00011000
00001000
01000000
,
00010000
10010000
01000000
00001000
,
00010000
00010000
00000010
00000100
,
00000001
00000001
00000200
00000300
,
00000010
00011000
00001000
01000000
,
00010000
10010000
01000000
00001000
,
00010000
00010000
00000010
00000100
,
00000001
00000010
00000100
00010000
,
00001000
00010000
00010000
00010000
,
00000010
00001000
00001000
00001000
,
00000010
00000100
00000010
00001000
,
00000010
00010000
00001000
00011000
,
00001000
00010000
00001000
01000000
,
00001000
00100000
00010000
10010000
,
10000000
00100000
10000000
00100000
,
01000000
00001000
01000000
00001000
,
00010000
00000100
00010000
00000100
,
00001000
00000010
00001000
00000010
,
00010000
00010000
00000100
00010000
,
00000010
00001000
00000001
00000100
,
00000010
00000010
00010000
00001000
,
01000000
00010000
00100000
01000000
,
10000000
00100000
10000000
00100000
,
01000000
00001000
00010000
00000100
,
00001000
00000001
00001000
00000001
,
00000100
00000010
00010000
00001000
,
00021000
00000000
00031000
00000000
,
20010000
00000000
31000000
00000000
,
00012000
00000000
00013000
00000000
,
00001002
00000000
00000103
00000000
,
00011000
00000100
00011000
01000000
,
00010000
10000000
01000000
00010000
,
00000100
00000001
00001000
00000100
,
00010000
00000100
00010000
00010000
,
00002000
00000000
01003000
00000000
,
00001000
00001000
00010000
00000100
;

//---------------dance-double - ----------------
#NOTES:
     dance-double:
     :
     Medium:
     9:
     0.452895,0.538612,0.204027,0.313888,0.054930,404.000000,378.000000,26.000000,40.000000,0.000000,0.000000,0.452895,0.538612,0.204027,0.313888,0.054930,404.000000,378.000000,26.000000,40.000000,0.000000,0.000000:
00000000
00000000
00000000
00000000
,
00000000
00000000
00000000
00000000
,
00000000
00000000
00000000
00000000
,
00000000
00000000
00000000
00000000
,
00000000
00000000
00000000
00000000
,
10000000
01000000
00000000
10000000
01000000
00000000
00100000
00010000
,
00000000
00100000
00010000
00000000
00011000
00000000
00011000
00000000
,
00000100
00000010
00000000
00000100
00000010
00000000
00000100
00001000
,
00000000
00000100
00001000
00000000
00010000
00001000
00010000
00000000
,
00020000
00000000
00031000
00000000
00010000
00001000
00010000
00000100
,
00002000
00000000
00003001
00000000
00001000
00000001
00001000
00000010
,
00020000
00000000
00031000
00000000
00010000
00001000
01000000
00100000
,
20000000
00000000
30010000
00000000
10000000
00010000
01000000
00100000
,
00000002
00000000
00000103
00000000
00000010
00001000
00000010
00001000
,
00000200
00000000
00010300
00000000
00001000
00100000
00001000
00100000
,
00020000
00000000
01030000
00000000
00100000
10000000
00100000
10000000
,
00010000
00000000
00010000
00000000
10000000
00100000
01000000
00001000
,
00010000
00001000
00010000
00000000
00000020
00000000
00001030
00000000
,
00000001
00000011
00001000
00000010
,
00010000
00000000
00001000
00000000
01000000
00010000
10000000
00000000
,
00020000
00230000
02300000
13000000
,
00010000
00100000
00001000
00000000
00020000
00000000
00030010
00000000
,
00001000
00001010
00000200
00000301
,
00000010
00000000
00000100
00000000
00010000
00001000
00100000
00000000
,
00020000
02030000
03200000
10300000
,
11000000
00110000
00011000
00001100
,
00000022
00000000
00000033
00000000
,
00002000
00000000
00103000
00000000
01000000
00010000
01000000
00010000
,
00200000
00000000
00301000
00000000
00010000
00000100
00010000
00000100
,
00002000
00000000
00003010
00000000
00000100
00000001
00000100
00000001
,
00001000
00000000
00001000
00000000
00000001
00000100
00000010
00010000
,
00001000
00010000
00001000
00000000
02000000
00000000
03010000
00000000
,
10000000
11000000
00010000
01000000
,
00001000
00000000
00010000
00000000
00000010
00001000
00000001
00000000
,
00002000
00003200
00000320
00000031
,
00001000
00000100
00010000
00000000
00002000
00000000
01003000
00000000
,
00010000
01010000
00200000
10300000
,
01000000
00000000
00100000
00000000
00001000
00010000
00000100
00000000
,
00002000
00003020
00000230
00000301
,
00000011
00001100
00011000
00110000
,
22000000
00000000
33000000
00000000
,
10000000
00010000
00100000
01000000
00100000
00010000
10000000
00000000
,
01000000
00100000
00010000
01000000
00001000
00000000
00001000
00000000
,
00020000
00030000
00000200
00000300
,
00001000
00000001
00000100
00000010
,
00010000
00001000
01000000
00010000
01000000
00001000
00010000
00000000
,
00000010
00000100
00000001
00000010
00000100
00000000
00000100
00000000
,
00010000
00001000
01000000
00001000
,
00010000
00010000
00000100
00001001
,
00000010
00001000
00000010
00000100
00000001
00000000
00001000
00000000
,
00000100
00010000
00001000
00100000
00010000
00000000
01000000
00000000
,
00010000
00000000
10000000
00000000
01000000
00100000
00010000
00000000
,
01000000
00000000
00001000
00000000
00010000
00000100
00001000
00000000
,
00001000
00000100
00000010
00000001
00000100
00000010
00010000
00001000
,
01000000
00010000
10000000
01000000
00100000
00001000
00010000
00000010
,
00000100
00000000
00000000
00000001
00000100
00000000
00000000
00000000
00000010
00000000
00000000
00001000
00000010
00000000
00000000
00000000
,
00010000
00000000
00000000
00001000
00010000
00000000
00000000
00001000
00010000
00000000
00000000
00001000
01000000
00000000
00000000
00000000
,
00100000
00000000
00000000
10000000
00100000
00000000
00000000
00000000
01000000
00000000
00000000
00010000
01000000
00000000
00000000
00000000
,
00001000
00000000
00000000
00010000
00001000
00000000
00000000
00010000
00001000
00000000
00000000
00010000
00000010
00000000
00000000
00000000
,
00001000
00002000
00000001
00003100
,
00000010
00000000
00000000
00010000
00001000
00000000
00000000
00000000
01000000
00000000
00000000
00000000
01000000
00000000
00000000
00000000
,
00010000
00020000
10000000
01030000
,
00100000
00000000
00000000
00001000
00010000
00000000
00000000
00000000
00000100
00000000
00000000
00000000
00000100
00000000
00000000
00000000
,
00001000
00001001
00000100
00001000
,
00000001
00000000
00000000
00000100
00000010
00000000
00000000
00000000
00010000
00000000
00000000
00000000
00001000
00000000
00000000
00000000
,
01000000
01010000
00100000
10000000
,
01000000
00000000
00000000
00100000
00001000
00000000
00000000
00000000
00010000
00000000
00000000
00000000
00000100
00000000
00000000
00000000
,
00001000
00002000
00000001
00003001
,
00001000
00000100
00000010
00000001
,
00000100
00000200
00000010
00000310
,
00010000
00001000
01000000
00010000
,
00110000
00110000
01000000
00001000
,
00010000
00000100
00002000
00003001
,
00001001
00001001
00000100
00010000
,
00001000
01000000
00010000
00000000
20000000
00000000
30010000
00000000
,
00110000
00000000
00011000
00000000
00000100
00000100
00000100
00000000
,
00001000
00000001
00000100
00000000
00000010
00010000
00001000
00000000
,
01000000
00010000
01000000
00010000
,
01000000
00010000
01000000
00001000
00010000
00000000
00000010
00000000
,
00001000
00000100
00001000
00000100
,
00000010
00000001
00000000
00001000
00000100
00000000
00011000
00000000
;

//---------------dance-double - ----------------
#NOTES:
     dance-double:
     :
     Hard:
     14:
     0.580693,0.570295,0.204027,0.102014,0.510068,518.000000,492.000000,26.000000,13.000000,0.000000,0.000000,0.580693,0.570295,0.204027,0.102014,0.510068,518.000000,492.000000,26.000000,13.000000,0.000000,0.000000:
00000000
00000000
00000000
00000000
,
00000000
00000000
00000000
00000000
,
00000000
00000000
00000000
00000000
,
00000000
00000000
00000000
00000000
,
00000000
00000000
00000000
00000000
,
00000001
00000010
00000100
00000010
00000100
00001000
00000100
00001000
,
00010000
00001000
00010000
00100000
01000000
00000000
01000000
00000000
,
10000000
01000000
00100000
01000000
00100000
00010000
00100000
00010000
,
00001000
00010000
00001000
00000100
00000010
00000100
00001000
00010000
,
00010000
00000000
00000000
00010000
00100000
00000000
00000000
00100000
00010000
00000000
00000000
00010000
00100000
00000000
00000000
00100000
,
00001000
00000000
00000000
00001000
00010000
00000000
00000000
00010000
00001000
00000000
00000000
00001000
00010000
00000000
00000000
00010000
,
00000010
00000000
00000000
00000010
00001000
00000000
00000000
00001000
00000010
00000000
00000000
00000010
00001000
00000000
00000000
00001000
,
00000001
00000000
00000000
00000001
00000100
00000000
00000000
00000100
00000001
00000000
00000000
00000001
00000100
00000000
00000000
00000100
,
00000001
00000000
00000000
00000001
00000100
00000000
00000000
00000100
00000010
00000000
00000000
00000010
00010000
00000000
00000000
00010000
,
00001000
00000000
00000000
00001000
01000000
00000000
00000000
01000000
00100000
00000000
00000000
00100000
10000000
00000000
00000000
10000000
,
01000000
00000000
00000000
01000000
00100000
00000000
00000000
00100000
00001000
00000000
00000000
00001000
00010000
00000000
00000000
00010000
,
00000100
00000000
00000000
00000100
00001000
00000000
00000000
00001000
00000001
00000000
00000000
00000001
00000100
00000000
00000000
00000100
,
00000001
00000000
00000000
00000100
00000001
00000000
00000000
00000000
00002000
00000000
00000000
00000000
00003100
00000000
00000000
00000000
,
00010000
00000000
00000000
00001000
00010000
00000000
00000000
00000000
00002000
00000000
00000000
00000000
01003000
00000000
00000000
00000000
,
00010000
00000000
00000000
10000000
00010000
00000000
00000000
00000000
00100000
00000000
00000000
00000000
00001000
00000000
00000000
00000000
,
00010000
00000000
00000000
00000100
00010000
00000000
00000000
00000000
00000010
00000000
00000000
00000000
00000100
00000000
00000000
00000000
,
00000001
00000000
00000000
00000010
00000001
00000000
00000000
00000000
00001000
00000000
00000000
00000000
00000010
00000000
00000000
00000000
,
00010000
00000000
00000000
00001000
00010000
00000000
00000000
00000000
00002000
00000000
00000000
00000000
00103000
00000000
00000000
00000000
,
00010000
00000000
00000000
10000000
00010000
00000000
00000000
00000000
01000000
00000000
00000000
00000000
00001000
00000000
00000000
00000000
,
00010000
00000000
00000000
00000010
00010000
00000000
00000000
00000000
00000200
00000000
00000000
00000000
00000310
00000000
00000000
00000000
,
00000001
00000100
00000001
00001000
00000100
00000010
00000100
00001000
,
00010000
00010000
01000000
01000000
02000000
00000000
03000000
00000000
,
10000000
00000000
00000000
10000000
00100000
00000000
00000000
00100000
01000000
00000000
00000000
01000000
00001000
00000000
00000000
00001000
,
00010000
00000000
00000000
00010000
00000010
00000000
00000000
00000010
00000100
00000000
00000000
00000100
00000001
00000000
00000000
00000001
,
00000010
00000000
00000000
00000010
00000100
00000000
00000000
00000100
00010000
00000000
00000000
00010000
00001000
00000000
00000000
00001000
,
00100000
00000000
00000000
00100000
00010000
00000000
00000000
00010000
10000000
00000000
00000000
10000000
00100000
00000000
00000000
00100000
,
10000000
00000000
00000000
00100000
10000000
00000000
00000000
00000000
00020000
00000000
00000000
00000000
00130000
00000000
00000000
00000000
,
00001000
00000000
00000000
00010000
00001000
00000000
00000000
00000000
00010000
00000000
00000000
00000000
00000010
00000000
00000000
00000000
,
00001000
00000000
00000000
00000001
00001000
00000000
00000000
00000000
00000200
00000000
00000000
00000000
00010300
00000000
00000000
00000000
,
00001000
00000000
00000000
00100000
00001000
00000000
00000000
00000000
02000000
00000000
00000000
00000000
03100000
00000000
00000000
00000000
,
10000000
00000000
00000000
01000000
10000000
00000000
00000000
00000000
00020000
00000000
00000000
00000000
01030000
00000000
00000000
00000000
,
00001000
00000000
00000000
00010000
00001000
00000000
00000000
00000000
00020000
00000000
00000000
00000000
00030100
00000000
00000000
00000000
,
00001000
00000000
00000000
00000001
00001000
00000000
00000000
00000000
00000020
00000000
00000000
00000000
00010030
00000000
00000000
00000000
,
00001000
00000000
00000000
01000000
00001000
00000000
00000000
00000000
00200000
00000000
00000000
00000000
01300000
00000000
00000000
00000000
,
10000000
00100000
10000000
00010000
00100000
01000000
00100000
00010000
,
00001000
00001000
00000100
00000100
00000200
00000000
00000300
00000000
,
00000010
00010000
00001000
00010000
00001000
00000000
01000000
00000000
,
00001000
00010000
00000100
00000010
00000001
00001000
00000100
00010000
,
00000010
00001010
00000001
00000011
,
00001001
00001010
00011000
01000000
,
00100000
00001000
00010000
00001000
00010000
00000000
00000100
00000000
,
00010000
00001000
01000000
00100000
10000000
00010000
01000000
00001000
,
00100000
00110000
10000000
10100000
,
00011000
00110000
11000000
00110000
,
00100000
00001000
00010000
00001000
00010000
00000000
00000100
00000100
,
00010000
00001000
01000000
00100000
10000000
00010000
01000000
00001000
,
00100000
00100000
00110000
00000000
00001000
00001000
00011000
00000000
,
10010000
00110000
00011000
00000100
,
00000010
00010000
00001000
00010000
00001000
00000000
01000000
00000000
,
00001000
00010000
00000100
00000010
00000001
00001000
00000100
00010000
,
00000010
00001010
00000001
00000011
,
00001000
00000000
00001000
00000000
00000010
00010000
00001000
00000000
,
01000000
01010000
00010000
10010000
,
00001000
00000000
00001000
00000000
00010000
00000010
00000100
00000000
,
00001000
00000000
00000000
00001000
00000010
00000000
00000000
00000010
00001000
00000000
00000000
00001000
00000010
00000000
00000000
00000000
,
00010000
00000000
00000000
00010000
00001000
00000000
00000000
00001000
00010000
00000000
00000000
00010000
00001000
00000000
00000000
00000000
,
00100000
00000000
00000000
00100000
00010000
00000000
00000000
00010000
00100000
00000000
00000000
00100000
00010000
00000000
00000000
00000000
,
10000000
00000000
00000000
10000000
01000000
00000000
00000000
01000000
10000000
00000000
00000000
10000000
01000000
00000000
00000000
00000000
,
10000000
00000000
00000000
10000000
01000000
00000000
00000000
01000000
00100000
00000000
00000000
00100000
00001000
00000000
00000000
00001000
,
00010000
00000000
00000000
00010000
00000100
00000000
00000000
00000100
00000010
00000000
00000000
00000010
00000001
00000000
00000000
00000001
,
00000100
00000000
00000000
00000100
00000010
00000000
00000000
00000010
00010000
00000000
00000000
00010000
00001000
00000000
00000000
00001000
,
00000100
00000000
00000000
00000100
00001000
00000000
00000000
00001000
00000001
00000000
00000000
00000001
00000100
00000000
00000000
00000000
,
00000010
00000000
00000000
00000010
00010000
00000000
00000000
00010000
00000100
00000000
00000000
00000100
00010000
00000000
00000000
00010000
,
00001000
00000000
00000000
00001000
00100000
00000000
00000000
00100000
00010000
00000000
00000000
00010000
10000000
00000000
00000000
10000000
,
01000000
00000000
00000000
01000000
00100000
00000000
00000000
00100000
00001000
00000000
00000000
00001000
00010000
00000000
00000000
00010000
,
00000100
00000000
00000000
00000100
00001000
00000000
00000000
00001000
00000010
00000000
00000000
00000010
00001000
00000000
00000000
00001000
,
00000001
00000000
00000000
00000001
00000100
00000000
00000000
00000100
00000010
00000000
00000000
00000010
00010000
00000000
00000000
00010000
,
00001000
00000000
00000000
00001000
01000000
00000000
00000000
01000000
00001000
00000000
00000000
00001000
00100000
00000000
00000000
00100000
,
00010000
00000000
00000000
00010000
10000000
00000000
00000000
10000000
00010000
00000000
00000000
00010000
01000000
00000000
00000000
01000000
,
00001000
00000000
00000000
00001000
00000010
00000000
00000000
00000010
00000100
00000000
00000000
00000100
00001000
00000000
00000000
00001000
,
00000010
00000000
00000000
00000010
00010000
00000000
00000000
00010000
00000100
00000000
00000000
00000100
00010000
00000000
00000000
00010000
,
00001000
00000000
00000000
00001000
00100000
00000000
00000000
00100000
00010000
00000000
00000000
00010000
10000000
00000000
00000000
00000000
,
01010000
10000000
01010000
10000000
,
01000000
10000000
01000000
00100000
01000000
00010000
01010000
00000000
,
00011000
00000100
00011000
00000100
,
00000010
00000001
00000010
00000100
00000010
00000000
00011000
00000000
;

//---------------dance-single - ----------------
#NOTES:
     dance-single:
     :
     Beginner:
     2:
     0.116587,0.158415,0.031389,0.047083,0.000000,104.000000,100.000000,4.000000,6.000000,0.000000,0.000000,0.116587,0.158415,0.031389,0.047083,0.000000,104.000000,100.000000,4.000000,6.000000,0.000000,0.000000:
0000
0000
0000
0000
,
0000
0000
0000
0000
,
0000
0000
0000
0000
,
0000
0000
0000
0000
,
0000
0000
0000
0000
,
1000
0000
0000
0000
,
1000
0000
0000
0000
,
0001
0000
0000
0000
,
0001
0000
0000
0000
,
0100
0000
1000
0000
,
0100
0000
0000
0000
,
0100
0000
0001
0000
,
0100
0000
0000
0000
,
0010
0000
1000
0000
,
0010
0000
0000
0000
,
0010
0000
0001
0000
,
0010
0000
0000
0000
,
1000
0000
0000
0000
,
0100
0000
0000
0000
,
0001
0000
0000
0000
,
0010
0000
0000
0000
,
0001
0000
0000
0000
,
0010
0000
0000
0000
,
1000
0000
0000
0000
,
0100
0000
0000
0000
,
0010
0000
0100
0000
,
0020
0000
0030
0000
,
0100
0000
0001
0000
,
0100
0000
0000
0000
,
0100
0000
1000
0000
,
0100
0000
0000
0000
,
0001
0000
0000
0000
,
0010
0000
0000
0000
,
1000
0000
0000
0000
,
0100
0000
0000
0000
,
1000
0000
0000
0000
,
0100
0000
0000
0000
,
0001
0000
0000
0000
,
0010
0000
0000
0000
,
0100
0000
0010
0000
,
0200
0000
0300
0000
,
1000
0000
1000
0000
,
1000
0000
0100
0000
,
0001
0000
0001
0000
,
0002
0000
0003
0000
,
0001
0000
0001
0000
,
0001
0000
0010
0000
,
1000
0000
1000
0000
,
2000
0000
3000
0000
,
1000
0000
1000
0000
,
0100
0000
0000
0000
,
0001
0000
0001
0000
,
0100
0000
0000
0000
,
1000
0000
1000
0000
,
0010
0000
0000
0000
,
0001
0000
0001
0000
,
0010
0000
0000
0000
,
1001
0000
0000
0000
,
1001
0000
0000
0000
,
0100
0000
1000
0000
,
0100
0000
0000
0000
,
0100
0000
0001
0000
,
0100
0000
0000
0000
,
0010
0000
1000
0000
,
0010
0000
0000
0000
,
0010
0000
0001
0000
,
0010
0000
0000
0000
,
0100
0000
1000
0000
,
0010
0000
0000
0000
,
0010
0000
0001
0000
,
0100
0000
0000
0000
,
1000
0000
0000
0000
,
0001
0000
0000
0000
,
1000
0000
0000
0000
,
0001
0000
0000
0000
,
0100
0000
0000
0000
,
0010
0000
0000
0000
,
0100
0000
0000
0000
,
0010
0000
0000
0000
,
1001
0000
0000
0000
,
2002
0000
0000
3003
;

//---------------dance-single - ----------------
#NOTES:
     dance-single:
     :
     Challenge:
     10:
     0.369939,0.506929,0.007847,0.062778,0.000000,330.000000,329.000000,1.000000,8.000000,148.000000,0.000000,0.369939,0.506929,0.007847,0.062778,0.000000,330.000000,329.000000,1.000000,8.000000,148.000000,0.000000:
// measure 0
0000
0000
0000
0000
,  // measure 1
0000
0000
0000
0000
,  // measure 2
0000
0000
0000
0000
,  // measure 3
0000
0000
0000
0000
,  // measure 4
0000
0000
0000
0000
,  // measure 5
1000
0000
1000
0100
0000
0100
1000
0000
,  // measure 6
0100
0100
0100
MMMM
,  // measure 7
0001
0000
0001
0010
0000
0010
0001
0000
,  // measure 8
0010
0010
0010
MMMM
,  // measure 9
0000
0100
0000
0001
0000
0100
0000
0001
,  // measure 10
0000
1000
0000
0100
0000
0001
0100
1000
,  // measure 11
0000
0001
0000
0100
0000
0001
0000
0100
,  // measure 12
0000
0010
0000
1000
0000
0001
0100
1000
,  // measure 13
0000
0100
0000
0001
0000
0100
0000
0001
,  // measure 14
0000
1000
0000
0100
0000
0001
0100
1000
,  // measure 15
0000
0001
0000
1000
0000
0001
0000
0100
,  // measure 16
0000
0010
0000
1000
0000
0010
0100
1000
,  // measure 17
0100
0100
0100
0100
,  // measure 18
0001
MMMM
1000
MMMM
,  // measure 19
0001
1000
0100
0000
0010
0000
0010
0000
,  // measure 20
0001
1000
0010
0100
,  // measure 21
0001
0001
0001
0001
,  // measure 22
1000
MMMM
0100
MMMM
,  // measure 23
0001
0100
1000
0000
0100
0000
0100
0000
,  // measure 24
1000
0010
0100
0001
,  // measure 25
1000
MMMM
0001
MMMM
,  // measure 26
0100
1000
0100
0001
0010
0000
MMMM
0000
,  // measure 27
0000
0010
0000
1000
0000
0010
0000
1000
,  // measure 28
0000
0001
0000
0010
0000
1000
0010
0001
,  // measure 29
0000
1000
0000
0001
0000
1000
0000
0010
,  // measure 30
0000
0100
0000
0001
0000
0100
0010
0001
,  // measure 31
0010
0010
0010
0010
,  // measure 32
1000
MMMM
0001
MMMM
,  // measure 33
1000
0001
0010
0000
0100
0000
0100
0000
,  // measure 34
1000
0001
0100
0010
,  // measure 35
1000
1000
1000
1000
,  // measure 36
0001
MMMM
0010
MMMM
,  // measure 37
1000
0010
0001
0000
0010
0000
0010
0000
,  // measure 38
0001
0100
0010
1000
,  // measure 39
0001
MMMM
1000
MMMM
,  // measure 40
0010
0001
0010
1000
0100
0000
MMMM
0000
,  // measure 41
0001
0010
0100
0000
1000
0010
0100
0000
,  // measure 42
0001
1000
0100
0000
0010
0001
0100
0000
,  // measure 43
0010
MMMM
0010
MMMM
,  // measure 44
0100
0001
0010
0000
0001
0000
0001
0000
,  // measure 45
1000
0010
0100
0000
0001
0010
0100
0000
,  // measure 46
1000
0001
0100
0000
0010
1000
0100
0000
,  // measure 47
0010
MMMM
0010
MMMM
,  // measure 48
1000
MMMM
0001
MMMM
,  // measure 49
1000
0100
0010
0000
0001
0100
0010
0000
,  // measure 50
1000
0001
0010
0000
0100
1000
0010
0000
,  // measure 51
0100
MMMM
0001
MMMM
,  // measure 52
1000
0010
0100
0000
0001
0000
MMMM
0000
,  // measure 53
0001
0010
0100
1000
0001
0100
0010
1000
,  // measure 54
0100
0010
0001
0100
0010
0000
0010
0000
,  // measure 55
1001
0200
0001
0301
,  // measure 56
1000
0000
1000
0000
1000
0100
1000
0000
,  // measure 57
0001
0002
0100
0103
,  // measure 58
0010
0000
0010
0000
1000
0100
0010
0000
,  // measure 59
0001
0010
0100
0000
2000
0000
3010
0000
,  // measure 60
0100
0001
0010
0000
0100
0000
MMMM
0000
,  // measure 61
0010
0100
0001
0000
0020
0000
0130
0000
,  // measure 62
1000
0001
0100
0000
0010
0000
MMMM
0000
,  // measure 63
0001
0010
0100
0000
1000
0000
1000
0000
,  // measure 64
0100
1000
0010
0000
0100
0000
MMMM
0000
,  // measure 65
0010
0100
0001
0000
1000
0000
MMMM
0000
,  // measure 66
0001
0010
0100
0000
1000
0000
MMMM
0000
,  // measure 67
1000
0100
0010
0000
0002
0000
0103
0000
,  // measure 68
0010
1000
0100
0000
0010
0000
MMMM
0000
,  // measure 69
0100
0010
1000
0010
0100
0000
0100
0000
,  // measure 70
0001
1000
0010
0000
0100
0000
MMMM
0000
,  // measure 71
0010
0100
1000
0100
0010
0000
0010
0000
,  // measure 72
0001
1000
0010
0000
0100
0000
MMMM
0000
,  // measure 73
0100
0010
1000
0001
0100
0000
0001
0000
,  // measure 74
1000
0001
0010
0000
0100
0000
MMMM
0000
,  // measure 75
0001
0100
0010
1000
0001
0000
1000
0000
,  // measure 76
0001
1000
0020
0000
0130
0000
MMMM
0000
,  // measure 77
0010
0001
0010
0000
0002
0000
1003
0000
,  // measure 78
0001
0001
0001
MMMM
,  // measure 79
0010
1000
0010
0000
2000
0000
3001
0000
,  // measure 80
1000
1000
1000
MMMM
;

//---------------dance-double - ----------------
#NOTES:
     dance-double:
     :
     Challenge:
     10:
     0.420386,0.538612,0.180486,0.235416,0.054930,375.000000,352.000000,23.000000,30.000000,240.000000,0.000000,0.420386,0.538612,0.180486,0.235416,0.054930,375.000000,352.000000,23.000000,30.000000,240.000000,0.000000:
00000000
00000000
00000000
00000000
,
00000000
00000000
00000000
00000000
,
00000000
00000000
00000000
00000000
,
00000000
00000000
00000000
00000000
,
00000000
00000000
00000000
00000000
,
10000000
01000000
00000000
10000000
01000000
00000000
00100000
00010000
,
00000000
00100000
00010000
00000000
00011000
00000000
MMMMMMMM
00000000
,
00000100
00000010
00000000
00000100
00000010
00000000
00000100
00001000
,
00000000
00000100
00001000
00000000
00010000
00001000
00010000
00000000
,
00020000
00000000
00031000
00000000
00010000
00001000
00010000
00000100
,
00002000
00000000
00003001
00000000
00001000
00000001
00001000
00000010
,
00020000
00000000
00031000
00000000
00010000
00001000
01000000
00100000
,
20000000
00000000
30010000
00000000
10000000
00010000
01000000
00100000
,
00000002
00000000
00000103
00000000
00000010
00001000
00000010
00001000
,
00000200
00000000
00010300
00000000
00001000
00100000
00001000
00100000
,
00020000
00000000
01030000
00000000
00100000
10000000
00100000
10000000
,
00010000
00000000
00010000
00000000
10000000
00100000
01000000
00001000
,
00010000
00001000
00010000
00000000
00000020
00000000
00001030
00000000
,
00000001
00000011
00001000
MMMMMMMM
,
00010000
00000000
00001000
00000000
01000000
00010000
10000000
00000000
,
00020000
00230000
01300000
MMMMMMMM
,
00010000
00100000
00001000
00000000
00020000
00000000
00030010
00000000
,
00001000
00001010
00000100
MMMMMMMM
,
00000010
00000000
00000100
00000000
00010000
00001000
00100000
00000000
,
00020000
02030000
03100000
MMMMMMMM
,
11000000
00110000
00011000
00001100
,
00000022
00000000
00000033
MMMMMMMM
,
00002000
00000000
00103000
00000000
01000000
00010000
01000000
00010000
,
00200000
00000000
00301000
00000000
00010000
00000100
00010000
00000100
,
00002000
00000000
00003010
00000000
00000100
00000001
00000100
00000001
,
00001000
00000000
00001000
00000000
00000001
00000100
00000010
00010000
,
00001000
00010000
00001000
00000000
02000000
00000000
03010000
00000000
,
10000000
11000000
00010000
MMMMMMMM
,
00001000
00000000
00010000
00000000
00000010
00001000
00000001
00000000
,
00002000
00003200
00000310
MMMMMMMM
,
00001000
00000100
00010000
00000000
00002000
00000000
01003000
00000000
,
00010000
01010000
00100000
MMMMMMMM
,
01000000
00000000
00100000
00000000
00001000
00010000
00000100
00000000
,
00002000
00003020
00000130
MMMMMMMM
,
00000011
00001100
00011000
00110000
,
22000000
00000000
33000000
MMMMMMMM
,
10000000
00010000
00100000
01000000
00100000
00010000
10000000
00000000
,
01000000
00100000
00010000
01000000
00001000
00000000
00001000
00000000
,
00010000
MMMMMMMM
00000100
MMMMMMMM
,
00001000
00000001
00000100
00000010
,
00010000
00001000
01000000
00010000
01000000
00001000
00010000
00000000
,
00000010
00000100
00000001
00000010
00000100
00000000
00000100
00000000
,
00010000
00001000
01000000
00001000
,
00010000
MMMMMMMM
00000100
MMMMMMMM
,
00000010
00001000
00000010
00000100
00000001
00000000
MMMMMMMM
00000000
,
00000100
00010000
00001000
00100000
00010000
00000000
MMMMMMMM
00000000
,
00010000
00000000
10000000
00000000
01000000
00100000
00010000
00000000
,
01000000
00000000
00001000
00000000
00010000
00000100
00001000
00000000
,
00001000
00000100
00000010
00000001
00000100
00000010
00010000
00001000
,
01000000
00010000
10000000
01000000
00100000
00001000
00010000
00000010
,
00000100
00000000
00000000
00000001
00000100
00000000
00000000
00000000
00000010
00000000
00000000
00001000
00000010
00000000
00000000
00000000
,
00010000
00000000
00000000
00001000
00010000
00000000
00000000
00001000
00010000
00000000
00000000
00001000
01000000
00000000
00000000
00000000
,
00100000
00000000
00000000
10000000
00100000
00000000
00000000
00000000
01000000
00000000
00000000
00010000
01000000
00000000
00000000
00000000
,
00001000
00000000
00000000
00010000
00001000
00000000
00000000
00010000
00001000
00000000
00000000
00010000
00000010
00000000
00000000
00000000
,
00001000
00002000
00000001
00003100
,
00000010
00000000
00000000
00010000
00001000
00000000
00000000
00000000
01000000
00000000
00000000
00000000
MMMMMMMM
00000000
00000000
00000000
,
00010000
00020000
10000000
01030000
,
00100000
00000000
00000000
00001000
00010000
00000000
00000000
00000000
00000100
00000000
00000000
00000000
MMMMMMMM
00000000
00000000
00000000
,
00001000
00001001
00000100
00001000
,
00000001
00000000
00000000
00000100
00000010
00000000
00000000
00000000
00010000
00000000
00000000
00000000
MMMMMMMM
00000000
00000000
00000000
,
01000000
01010000
00100000
10000000
,
01000000
00000000
00000000
00100000
00001000
00000000
00000000
00000000
00010000
00000000
00000000
00000000
MMMMMMMM
00000000
00000000
00000000
,
00001000
00002000
00000001
00003001
,
00001000
00000100
00000010
MMMMMMMM
,
00000100
00000200
00000010
00000310
,
00010000
00001000
01000000
MMMMMMMM
,
00110000
00110000
01000000
00001000
,
00010000
00000100
00001000
MMMMMMMM
,
00001001
00001001
00000100
00010000
,
00001000
01000000
00010000
00000000
10000000
00000000
MMMMMMMM
00000000
,
00110000
00000000
00011000
00000000
00000100
00000100
00000100
00000000
,
00001000
00000001
00000100
00000000
00000010
00010000
00001000
00000000
,
01000000
MMMMMMMM
01000000
MMMMMMMM
,
01000000
00010000
01000000
00001000
00010000
00000000
00000010
00000000
,
00001000
MMMMMMMM
00001000
MMMMMMMM
,
00000010
00000001
00000000
00001000
00000100
00000000
MMMMMMMM
00000000
;
