#TITLE:オンリーワンダー;
#SUBTITLE:;
#ARTIST:フレデリック;
#TITLETRANSLIT:Only wonder;
#SUBTITLETRANSLIT:;
#ARTISTTRANSLIT:Frederic;
#GENRE:Pop;
#CREDIT:;
#BANNER:;
#BACKGROUND:;
#LYRICSPATH:;
#CDTITLE:;
#MUSIC:Only wonder.ogg;
#OFFSET:1.360000;
#SAMPLESTART:50.946999;
#SAMPLELENGTH:15.000000;
#LASTBEATHINT:0.896543;
#SELECTABLE:YES;
#DISPLAYBPM:168.000000;
#BPMS:0.000000=168.000000
;
#STOPS:
;
#BGCHANGES:3.000=Only wonder.avi=1.000=0=0=1=====,
99999=-nosongbg-=1.000=0=0=0 // don't automatically add -songbackground-
;
#KEYSOUNDS:;
#ATTACKS:;

//---------------dance-single - ----------------
#NOTES:
     dance-single:
     :
     Beginner:
     2:
     0.112033,0.162988,0.018897,0.000000,0.000000,83.000000,81.000000,2.000000,0.000000,0.000000,0.000000,0.112033,0.162988,0.018897,0.000000,0.000000,83.000000,81.000000,2.000000,0.000000,0.000000,0.000000:
0000
0000
0000
0000
,
0000
0000
0000
0000
,
0000
0000
0000
0000
,
0000
0000
0000
0000
,
0000
0000
0000
0000
,
0000
0000
0000
0000
,
0000
0000
0000
0000
,
1000
0000
0100
0000
,
1000
0000
0000
0000
,
0001
0000
0010
0000
,
0001
0000
0000
0000
,
1000
0000
0010
0000
,
1000
0000
0000
0000
,
0001
0000
0100
0000
,
0001
0000
0000
0000
,
0100
0000
0010
0000
,
0100
0000
0000
0000
,
0001
0000
1000
0000
,
0001
0000
0000
0000
,
1000
0000
0000
0000
,
0010
0000
0000
0000
,
0100
0000
0000
0000
,
0001
0000
0000
0000
,
0001
0000
0000
0000
,
0100
0000
0000
0000
,
0010
0000
0000
0000
,
1000
0000
0000
0000
,
1000
0000
0000
0000
,
0100
0000
0000
0000
,
0010
0000
0000
0000
,
0001
0000
0000
0000
,
0001
0000
0000
0000
,
0010
0000
0000
0000
,
0100
0000
0000
0000
,
1000
0000
0001
0000
,
1001
0000
0000
0000
,
0000
0000
0000
0000
,
1000
0000
1000
0000
,
0100
0000
0000
0000
,
0001
0000
0001
0000
,
0100
0000
0000
0000
,
1000
0000
1000
0000
,
0010
0000
0000
0000
,
0001
0000
0001
0000
,
0010
0000
0000
0000
,
1000
0000
0100
0000
,
1000
0000
0000
0000
,
0001
0000
0010
0000
,
0001
0000
0000
0000
,
0100
0000
0010
0000
,
0100
0000
0000
0000
,
0001
0000
1000
0000
,
0001
0000
0000
0000
,
1000
0000
0000
0000
,
0100
0000
0000
0000
,
0010
0000
0000
0000
,
0001
0000
0000
0000
,
1000
0000
0000
0000
,
0010
0000
0000
0000
,
0100
0000
0000
0000
,
0001
0000
0000
0000
,
1000
0000
0100
0000
,
1000
0000
0000
0000
,
0001
0000
0010
0000
,
0001
0000
0000
0000
,
0100
0000
0010
0000
,
0100
0000
0000
0000
,
1000
0000
0001
0000
,
1000
0000
0000
0000
,
1001
0000
0000
0000
;

//---------------dance-single - ----------------
#NOTES:
     dance-single:
     :
     Easy:
     6:
     0.303704,0.357924,0.122832,0.481878,0.000000,225.000000,212.000000,13.000000,51.000000,0.000000,0.000000,0.303704,0.357924,0.122832,0.481878,0.000000,225.000000,212.000000,13.000000,51.000000,0.000000,0.000000:
0000
0000
0000
0000
,
0000
0000
0000
0000
,
0000
0000
0000
0000
,
0000
0000
0000
0000
,
0000
0000
0000
0000
,
0000
0000
0000
0000
,
0000
0000
0000
0000
,
1000
0100
1000
0100
,
0010
0100
0010
0100
,
0001
0010
0001
0010
,
1000
0000
0100
0000
0010
0000
0001
1000
,
0000
0001
0100
0001
,
1000
0100
1000
0100
,
0001
0010
0001
0010
,
1000
0010
1000
0010
,
1000
0100
0010
0001
,
0100
0010
1000
0001
,
0100
0001
0010
0100
,
1000
0010
0100
0001
,
2000
0000
3100
0000
,
0002
0000
0013
0000
,
2000
0000
3010
0000
,
0002
0000
0103
0000
,
2000
0100
3100
0000
,
0002
0100
0103
0000
,
2000
0010
3010
0000
,
0002
0010
0013
0000
,
2000
0000
3020
0000
,
0230
0000
0302
0000
,
0103
0010
1000
0001
,
0100
0100
0220
0330
,
0001
0000
0200
0000
,
0320
0000
2030
0000
,
3001
0100
0010
1000
,
0010
0010
0220
0330
,
2002
0000
0000
0000
,
3003
0000
0000
0000
0000
0001
1000
0001
,
2000
3100
0200
0310
,
0001
0010
2002
3003
,
1000
0010
2002
3003
,
0001
0100
0220
0330
,
2000
3010
0020
0031
,
0002
0103
0200
1300
,
0010
0000
0100
0000
0001
0000
1000
0002
,
0000
0000
1000
1003
,
0002
0013
0020
0130
,
1000
0100
2002
3003
,
0001
0100
2002
3003
,
1000
0010
0220
0330
,
0002
0103
0200
1300
,
2000
3010
0020
0031
,
0100
0000
0010
0000
1000
0000
0001
2000
,
0000
0000
0001
3001
,
0001
0100
1000
0100
,
0001
0100
1000
0100
,
0001
0010
1000
0010
,
0001
0010
1000
0010
,
1000
0100
0220
0330
,
0001
0010
0220
0330
,
1000
0100
0010
0001
,
1000
0010
0100
0001
,
0100
1000
0100
1000
,
0100
0001
0100
0001
,
0010
1000
0010
1000
,
0010
0001
0010
0001
,
0100
1000
0010
0001
,
0100
1000
0010
0001
,
0100
0010
1000
0001
,
0100
0000
0100
0000
0110
0000
0000
1001
;

//---------------dance-single - ----------------
#NOTES:
     dance-single:
     :
     Medium:
     9:
     0.367145,0.423001,0.132280,0.491326,0.000000,272.000000,258.000000,14.000000,52.000000,0.000000,0.000000,0.367145,0.423001,0.132280,0.491326,0.000000,272.000000,258.000000,14.000000,52.000000,0.000000,0.000000:
0000
0000
0000
0000
,
0000
0000
0000
0000
,
0000
0000
0000
0000
,
0000
0000
0000
0000
,
0000
0000
0000
0000
,
0000
0000
0000
0000
,
0000
0000
0000
0000
,
1000
0100
0010
0001
,
0010
0100
1000
1001
,
0001
0010
0100
1000
,
0100
0000
0010
0000
0001
0000
1000
0001
,
0000
0100
1000
0010
,
0001
0100
0010
1000
,
0001
0010
0100
1000
,
0010
0100
0001
1000
,
0100
1000
0010
0001
,
0100
0010
1000
0001
,
0100
0010
1000
0001
,
0010
0000
0010
0000
0100
0010
0100
0000
,
1000
1001
0001
1001
,
0020
0100
0200
0330
,
2000
0100
0200
3300
,
0002
0100
0200
0303
,
2000
3010
0002
0013
,
2000
3100
0002
0103
,
0200
0302
0023
2030
,
3001
1000
0001
0000
1002
0000
0103
0000
,
0001
1001
1000
1001
,
0200
0010
0020
0330
,
0002
0010
0020
0033
,
2000
0010
0020
3030
,
0002
0103
2000
3100
,
0002
0013
2000
3010
,
0001
0010
0100
1000
,
0010
0100
0001
1000
,
2001
0100
0100
3100
,
0001
1000
0001
1000
0001
0000
1001
0000
,
0010
1000
0100
1100
,
0100
0001
0000
0100
0000
2000
0000
0000
,
3010
0100
0000
0001
0000
0020
0000
0130
,
0000
1000
0002
0000
1003
0000
0100
0000
,
2000
3100
0200
0310
,
0020
0031
0002
1003
,
0001
0100
0010
0000
1000
0010
0100
0002
,
0000
0100
0100
1003
,
0100
0001
0010
0011
,
0010
1000
0000
0010
0000
0002
0000
0000
,
0103
0010
0000
1000
0000
0200
0000
0310
,
0000
0001
2000
0000
3001
0000
0010
0000
,
0002
0013
0020
0130
,
0200
1300
2000
3001
,
1000
0010
0100
0000
0001
0100
0010
2000
,
0000
0010
0010
3001
,
1000
0000
0100
0000
1000
0100
1000
0000
,
0010
0000
0100
0000
0010
0100
0010
0000
,
0001
0000
0010
0000
0001
0010
0001
0000
,
2000
0001
0001
3001
,
0002
0013
0020
0130
,
0200
1300
2000
3001
,
0100
1000
0010
0001
,
0020
0230
0302
2003
,
3020
0100
0100
0130
,
0001
0100
0010
1001
,
1000
0010
0100
1001
,
0100
0000
1000
0000
0010
0100
0010
0000
,
1000
0010
0001
1001
,
0001
0100
1000
1001
,
0010
1000
0100
0010
,
0001
1000
0001
0000
0100
0000
0010
0100
;

//---------------dance-single - ----------------
#NOTES:
     dance-single:
     :
     Hard:
     11:
     0.552067,0.618232,0.311803,0.529121,0.051967,409.000000,376.000000,33.000000,56.000000,0.000000,0.000000,0.552067,0.618232,0.311803,0.529121,0.051967,409.000000,376.000000,33.000000,56.000000,0.000000,0.000000:
// measure 0
0000
0000
0000
0000
,  // measure 1
0000
0000
0000
0000
,  // measure 2
0000
0000
0000
0000
,  // measure 3
0000
0000
0000
0000
,  // measure 4
0000
0000
0000
0000
,  // measure 5
0000
0000
0000
0000
,  // measure 6
0000
0000
0000
0000
,  // measure 7
1000
0000
0010
0100
0010
0000
0100
0000
0001
0000
1000
0000
0010
0000
0000
0000
,  // measure 8
1001
0010
1001
0100
,  // measure 9
1000
0000
0001
1000
0001
0000
0100
0000
0001
0000
1000
0000
0010
0000
0000
0000
,  // measure 10
1100
0000
0101
0000
1100
0000
0101
1001
,  // measure 11
0000
0000
0100
0010
0100
0000
1000
0000
0100
0000
0001
0000
1000
0000
1001
0000
,  // measure 12
0000
0010
0100
1000
0010
0100
0001
1001
,  // measure 13
0000
0000
0010
0100
0010
0000
0100
0000
0001
0000
1000
0000
0010
0000
0110
0000
,  // measure 14
0000
1000
0010
0100
0001
1000
0001
1001
,  // measure 15
0000
0000
0001
1000
0001
0000
1000
0000
0010
0000
0100
0000
0001
0000
1001
0000
,  // measure 16
0000
1000
0010
0100
0001
0100
0010
0110
,  // measure 17
0000
0000
1000
0100
1000
0000
0100
0000
0001
0000
0010
0000
0100
0000
1000
0000
,  // measure 18
0000
0010
0100
0001
1000
0010
1000
0000
,  // measure 19
2100
3100
0102
0103
,  // measure 20
0001
0010
0100
1000
0020
0000
0130
0000
,  // measure 21
1000
0100
0010
0001
0200
0000
0310
0000
,  // measure 22
1000
0001
0010
0000
0220
0000
0330
0000
,  // measure 23
0002
0000
0000
0003
0100
0000
1000
0000
2000
0000
0000
0000
3100
0000
0001
0000
,  // measure 24
0002
0000
0013
1000
2000
0000
3010
0001
,  // measure 25
0100
0010
1000
0001
0100
0010
1000
0000
,  // measure 26
0001
0100
0010
1000
0100
0010
0001
0000
,  // measure 27
0012
0013
2010
3010
,  // measure 28
1000
0100
0010
0001
0200
0000
0310
0000
,  // measure 29
0001
0010
0100
1000
0020
0000
0130
0000
,  // measure 30
0001
1000
0100
0000
0220
0000
0330
0000
,  // measure 31
2000
0000
0000
3000
0010
0000
0001
0000
0002
0000
0000
0000
0013
0000
1000
0000
,  // measure 32
2000
0000
3100
0001
0002
0000
0103
1000
,  // measure 33
1000
0010
0100
0000
0001
0100
0010
0000
,  // measure 34
0001
0100
1000
0000
1000
0010
0001
0000
,  // measure 35
0210
0010
0010
0310
,  // measure 36
0010
0100
0010
0100
0010
1000
0100
0001
,  // measure 37
0120
0130
1002
1003
,  // measure 38
1000
0010
0100
0001
0200
0000
0301
0000
,  // measure 39
0001
0100
0010
1000
0200
0000
1300
0000
,  // measure 40
0100
0010
0100
0001
2000
0000
3001
0000
,  // measure 41
0002
0000
0013
0100
2000
0000
3100
0010
,  // measure 42
0002
0000
0103
0010
2000
0000
3010
0100
,  // measure 43
0001
0100
0010
0100
1000
0010
0100
0002
,  // measure 44
0000
1000
1000
1003
,  // measure 45
0210
0310
2001
3001
,  // measure 46
0001
0100
0010
1000
0020
0000
1030
0000
,  // measure 47
1000
0010
0100
0001
0020
0000
0031
0000
,  // measure 48
0010
0100
0010
1000
0002
0000
1003
0000
,  // measure 49
2000
0000
3100
0010
0002
0000
0013
0100
,  // measure 50
2000
0000
3010
0100
0002
0000
0103
0010
,  // measure 51
1000
0010
0100
0010
0001
0100
0010
2000
,  // measure 52
0000
0001
0001
3001
,  // measure 53
0002
0000
0013
0000
0010
0100
0010
0100
,  // measure 54
2000
0000
3100
0000
0100
0010
0100
0010
,  // measure 55
0002
0000
0103
0000
0100
0010
0100
0010
,  // measure 56
2000
0000
3010
0000
0010
0100
0010
0100
,  // measure 57
2000
3010
0002
0013
,  // measure 58
2000
3100
0002
0103
,  // measure 59
2000
3200
0320
0032
,  // measure 60
0203
0000
0320
0000
2030
0000
3001
1000
,  // measure 61
0000
0000
0001
1000
0001
0000
0010
0000
0100
0000
0001
0000
1000
0000
1001
0000
,  // measure 62
0000
1000
0010
0100
0001
0010
0100
0110
,  // measure 63
0000
0000
0100
0010
0100
0000
1000
0000
0001
0000
0010
0000
0100
0000
1100
0000
,  // measure 64
0000
1000
0010
0100
0001
0010
0001
0011
,  // measure 65
0000
0000
0010
0100
0010
0000
0100
0000
0001
0000
1000
0000
0010
0000
0100
0000
,  // measure 66
0000
0000
0001
1000
0001
0000
1000
0000
0010
0000
0100
0000
0001
0000
0010
0000
,  // measure 67
0000
0000
0100
1000
0100
0000
1000
0000
0010
0000
0100
0000
0001
0000
0100
0000
,  // measure 68
0101
0000
1100
0000
0101
0000
1001
1001
;
