#TITLE:お願い!コンコンお稲荷さま;
#SUBTITLE:;
#ARTIST:ARM×狐夢想 feat. ななひら;
#TITLETRANSLIT:Onegai! Konkon Oinari-sama;
#SUBTITLETRANSLIT:;
#ARTISTTRANSLIT:ARM×Kitsune Musou feat. Nanahira;
#GENRE:Anime/Game;
#CREDIT:;
#BANNER:;
#BACKGROUND:;
#LYRICSPATH:;
#CDTITLE:;
#MUSIC:Onegai! Konkon Oinari-sama.ogg;
#OFFSET:0.050000;
#SAMPLESTART:55.504990;
#SAMPLELENGTH:15.000000;
#SELECTABLE:YES;
#DISPLAYBPM:175.000000;
#BPMS:0.000000=175.000000
;
#STOPS:
;
#BGCHANGES:0.250=Onegai! Konkon Oinari-sama.avi=1.000=0=0=0=StretchNoLoop====,
99999=-nosongbg-=1.000=0=0=0 // don't automatically add -songbackground-
;
#KEYSOUNDS:;
#ATTACKS:;

//---------------dance-single - ----------------
#NOTES:
     dance-single:
     :
     Hard:
     12:
     0.593085,0.647139,0.217984,0.287342,0.099083,419.000000,397.000000,22.000000,29.000000,0.000000,0.000000,0.593085,0.647139,0.217984,0.287342,0.099083,419.000000,397.000000,22.000000,29.000000,0.000000,0.000000:
0000
0000
0000
0000
,
0000
0000
0000
0000
,
0000
0000
0000
0000
,
0001
1000
0010
0100
0001
1000
0001
0010
,
0100
0000
1000
0000
0001
0000
0100
0000
0010
0100
0010
0000
1000
0000
0001
0000
,
0010
1000
0100
0010
0001
1000
0010
0100
,
0011
0110
1100
1001
,
0010
1000
0100
0010
0001
0100
0010
1000
,
0100
0000
0010
0000
0001
0000
1000
0000
0001
1000
0001
0000
1000
0000
0010
0000
,
0000
0000
0010
0100
0010
0000
0100
0000
0010
0000
0000
1000
0001
0000
1000
0000
,
0000
0000
0010
0100
0010
0000
0100
0000
0001
0000
0000
0000
1001
0000
0000
0000
,
0001
0100
1000
0100
0001
0000
1001
0000
,
0001
0010
1000
0010
0001
0000
1001
0000
,
1000
0100
0010
0000
0001
0010
0100
0000
,
1000
0100
0010
0001
0010
0100
1000
0000
,
0001
0010
1000
0010
0001
0000
1001
0000
,
1000
0010
0001
0010
1000
0001
1001
0001
,
2000
0001
3001
1000
0002
1000
1003
0002
,
2000
0000
0000
3003
,
1000
0010
0001
0010
1000
0000
1001
0000
,
1000
0100
0001
0100
1000
0000
1001
0000
,
0001
0010
0100
0000
1000
0100
0010
0000
,
0001
0010
0100
1000
0100
0010
0001
0000
,
1000
0100
0001
0100
1000
0000
1001
0000
,
0001
0100
1000
0100
0001
1000
1001
0000
,
1000
0100
0010
0001
0010
0100
1000
0010
,
0100
0010
0100
0001
1001
0000
0010
1000
,
0200
0000
0010
0310
,
0002
0000
1000
1003
,
2000
0000
0100
3100
,
0020
0000
0100
0130
,
0002
0000
0010
0013
,
2000
0000
0100
3100
,
0220
0000
0330
0000
,
0002
0203
2300
3020
,
0032
0000
0010
0013
,
2000
0000
0010
3010
,
0001
1000
0001
1000
0010
0100
0010
0100
,
0001
0010
0100
1000
0100
0010
0001
1000
,
2002
0000
0000
0000
,
3003
0000
0000
0000
,
1001
0000
1000
0100
1000
0000
0001
0010
,
0001
0000
0000
0100
0010
0000
0100
0000
0001
0000
0000
0000
1000
0000
0100
0000
,
0010
0000
0000
0000
0001
0000
0010
0000
0100
0000
0000
1000
0010
0000
1000
0000
,
0001
0010
1000
0100
0010
0001
0100
0010
,
1000
0000
1001
0000
0010
1000
0100
0010
,
0001
0000
0110
0000
0001
0010
0100
1000
,
0010
0000
1000
0000
0100
0000
0010
0000
0001
0000
0000
0100
0010
0000
0100
0000
,
0000
0001
0010
0100
1000
0000
1001
0010
,
1000
0000
1000
0100
0001
0000
0001
0100
,
0010
0000
0000
0100
0010
0000
1000
0000
0001
0000
0000
0000
1000
0000
0100
0000
,
0010
0000
0001
0010
0100
1000
0100
0010
,
0002
1000
1000
1003
,
0001
0010
0100
1000
0010
1000
0100
0010
,
1000
0100
0010
0001
0100
0001
0010
0100
,
2000
3100
0002
0013
,
0200
0320
2030
3002
,
1003
0000
0000
0001
1000
0000
0001
0000
0100
0000
0000
0010
0100
0000
0010
0000
,
1000
0000
0000
1000
0100
0000
1000
0000
0010
0000
0000
0001
0010
0000
0001
0000
,
2000
0000
0000
0000
0001
0001
3001
0000
,
0100
0000
0010
0100
0010
0000
0100
0000
0000
0000
0001
0000
1001
0000
0000
0000
,
1000
0100
0010
0001
0100
0010
1000
0100
,
0001
0000
0010
0000
0100
0000
1000
0000
0010
0100
0010
0000
0100
0000
1000
0000
,
0100
0000
0010
0000
0001
0000
0100
0000
0010
0000
1000
0000
0001
1000
0001
0000
,
0020
0100
0001
0130
,
0001
0010
0100
1000
0010
0100
0001
0010
,
1000
0000
0100
0000
0010
0000
0001
0000
0100
0010
0100
0000
0010
0000
1000
0000
,
0000
0000
0001
1000
0001
0000
0100
0000
0010
0000
0000
1000
0001
0000
0010
0000
,
0000
0000
1000
0001
1000
0000
0010
0000
1000
0000
0000
0000
1001
0000
0000
0000
;

//---------------dance-single - ----------------
#NOTES:
     dance-single:
     :
     Medium:
     9:
     0.519481,0.544959,0.297250,0.198167,0.000000,367.000000,337.000000,30.000000,20.000000,0.000000,0.000000,0.519481,0.544959,0.297250,0.198167,0.000000,367.000000,337.000000,30.000000,20.000000,0.000000,0.000000:
0000
0000
0000
0000
,
0000
0000
0000
0000
,
0000
0000
0000
0000
,
0001
0010
0100
0000
1000
0100
0010
0000
,
0001
0010
0100
1000
0100
0010
0001
0000
,
1000
0010
0100
0000
0001
0100
0010
0000
,
0011
0110
1100
1001
,
1000
0010
0100
0000
0001
0100
0010
0000
,
1000
0010
0100
0001
0100
0010
1000
0000
,
0000
0010
0100
0010
0100
0000
0001
1000
,
0000
0001
1000
0001
1000
0000
1001
0000
,
1000
0100
1000
0100
1000
0000
1001
0000
,
0001
0010
0001
0010
0001
0000
1001
0000
,
1000
0100
0010
0000
0001
0010
0100
0000
,
1000
0010
1000
0010
1000
0000
1001
0000
,
0001
0010
0001
0010
0001
0000
1001
0000
,
1000
0100
1000
0100
1000
0000
1001
0010
,
0020
0000
0000
0100
0230
0000
0000
0010
,
0020
0000
0000
0330
,
0001
0010
0001
0010
0001
0000
1001
0000
,
1000
0100
1000
0100
1000
0000
1001
0000
,
0001
0010
0100
0000
1000
0100
0010
0000
,
0001
0100
0001
0100
0001
0000
1001
0000
,
1000
0100
1000
0100
1000
0000
1001
0000
,
0001
0010
0001
0010
0001
0000
1001
0000
,
0100
0000
0010
0100
0010
0000
1000
0001
,
1000
0000
0100
0010
0100
0000
1001
0000
,
0020
0000
0100
0130
,
0200
0000
0001
0301
,
0002
0000
1000
1003
,
2000
0000
0001
3001
,
0002
0000
0100
0013
,
2000
0000
0010
3100
,
0220
0000
0330
0000
,
0001
1000
0001
1000
,
0020
0000
0100
0130
,
0200
0000
0010
0310
,
0001
0001
1000
1000
,
0001
1000
0001
1000
0010
0100
0010
0100
,
0020
0000
0000
0000
,
0130
0100
0100
1001
,
1000
0000
0100
1000
0100
0000
0001
0010
,
0001
0000
1000
0001
1000
0000
0100
1000
,
0010
0000
0010
0100
0001
0000
0001
0100
,
1000
0000
0010
0000
1000
0010
1000
0010
,
2000
0000
0100
0000
3100
0000
0001
0100
,
0002
0100
0103
1001
,
1000
0100
0010
0000
0001
0010
0100
0000
,
0000
1000
0001
1000
0001
0000
1001
0000
,
0100
1000
0100
0000
0010
0001
0010
0000
,
0100
0010
0100
0000
1001
0000
0010
0000
,
0001
1000
0010
0000
0100
0010
1000
0000
,
0002
0100
0010
0103
,
1000
0100
1000
0100
1000
0000
1001
0000
,
0001
0010
0001
0010
0001
0000
1001
0000
,
0100
1000
0010
0000
0100
0010
0001
0000
,
0010
0100
0001
0000
0100
0010
1000
0000
,
0020
0100
0001
0130
,
0200
0010
1000
0310
,
1002
0000
0000
0000
1000
1000
1003
0000
,
0100
0010
0100
0010
0000
1000
1001
0000
,
0001
0100
1000
0000
1000
0010
0001
0000
,
0001
1000
0001
1000
0010
0100
0010
0000
,
1000
0010
0100
0000
0001
0100
0010
0000
,
0011
0110
1100
1001
,
1000
0010
0100
0000
0001
0100
0010
0000
,
1000
0010
1000
0010
0001
0010
0100
0010
,
0000
0001
0010
0100
1000
0000
1000
0001
,
0000
0001
1000
0001
1000
0000
1001
0000
;

//---------------dance-single - ----------------
#NOTES:
     dance-single:
     :
     Easy:
     6:
     0.345377,0.408719,0.237800,0.247709,0.000000,244.000000,220.000000,24.000000,25.000000,0.000000,0.000000,0.345377,0.408719,0.237800,0.247709,0.000000,244.000000,220.000000,24.000000,25.000000,0.000000,0.000000:
0000
0000
0000
0000
,
0000
0000
0000
0000
,
0000
0000
0000
0000
,
0001
0100
1000
0100
,
0001
0100
1000
0100
,
0001
0010
1000
0010
,
0001
0010
1000
0010
,
0100
0010
0100
0010
,
1000
0001
1000
0001
,
0010
0100
0010
0100
,
1000
0001
1001
0110
,
0001
0010
0100
1000
,
1000
0100
0010
0001
,
0010
0100
0010
0100
,
0001
1000
0001
1000
,
0001
0010
0100
1100
,
1000
0100
0010
0011
,
1002
0000
2003
0000
,
0002
0000
0000
3003
,
0001
0100
0010
1000
,
1000
0010
0100
0001
,
0001
0100
1000
0100
,
0001
0010
1000
0010
,
1000
0010
0100
0001
,
0001
0100
0010
1000
,
2002
0000
0000
3003
,
0010
0010
0220
0330
,
0200
0000
1000
0000
,
0320
0000
0001
0000
,
2030
0000
0100
0000
,
3002
0000
0010
0000
,
0203
0000
1000
0000
,
0320
0000
0001
0000
,
0200
0000
0000
0000
,
0330
0000
0110
0000
,
2001
0000
0001
3001
,
1002
0000
1000
1003
,
0100
0100
0010
0010
,
1000
0001
1000
0001
,
2002
0000
0000
0000
,
3003
0000
0010
0010
,
1001
0100
1000
0010
,
0001
0010
0100
1000
,
0010
0100
0001
1000
,
0210
0010
0010
0310
,
0001
0010
0100
1100
,
0100
0010
0001
0011
,
0100
1000
0001
0010
,
0100
0010
1001
0110
,
1000
0100
0010
0011
,
0001
0010
0100
1100
,
1000
0100
0010
0001
,
2002
0000
0000
3003
,
0100
1000
0010
0001
,
0100
1000
0010
0001
,
0200
0010
1000
0310
,
0020
0100
0001
0130
,
2001
0001
0000
0001
,
0000
0001
0000
3001
,
0120
0000
0100
0130
,
1000
0001
0000
1001
,
0100
1000
0010
0001
,
0100
1000
0010
0001
,
0100
1000
0100
0001
,
0010
0010
0100
0100
,
0001
0010
0100
1000
,
0001
0010
0100
1000
,
0000
0001
1000
0001
,
0000
0100
0010
0110
;

//---------------dance-single - ----------------
#NOTES:
     dance-single:
     :
     Beginner:
     3:
     0.130224,0.204360,0.079267,0.108992,0.000000,92.000000,84.000000,8.000000,11.000000,0.000000,0.000000,0.130224,0.204360,0.079267,0.108992,0.000000,92.000000,84.000000,8.000000,11.000000,0.000000,0.000000:
// measure 0
0000
0000
0000
0000
,  // measure 1
0000
0000
0000
0000
,  // measure 2
0000
0000
0000
0000
,  // measure 3
0001
0000
0001
0000
,  // measure 4
0001
0000
0001
0000
,  // measure 5
1000
0000
1000
0000
,  // measure 6
1000
0000
1000
0000
,  // measure 7
0001
0000
0001
0000
,  // measure 8
0001
0000
1000
0000
,  // measure 9
1001
0000
0000
0000
,  // measure 10
0000
0000
0000
0000
,  // measure 11
0100
0000
1000
0000
,  // measure 12
0100
0000
0000
0000
,  // measure 13
0010
0000
0001
0000
,  // measure 14
0010
0000
0000
0000
,  // measure 15
1000
0000
0100
0000
,  // measure 16
1000
0000
0000
0000
,  // measure 17
0001
0000
0010
0000
,  // measure 18
0002
0000
0003
0000
,  // measure 19
0100
0000
0100
0000
,  // measure 20
0010
0000
0010
0000
,  // measure 21
1000
0000
0001
0000
,  // measure 22
1000
0000
0001
0000
,  // measure 23
0010
0000
0010
0000
,  // measure 24
0100
0000
0100
0000
,  // measure 25
1002
0000
0000
0000
,  // measure 26
1000
0000
1003
0000
,  // measure 27
0200
0000
0000
0000
,  // measure 28
0300
0000
0000
0000
,  // measure 29
0020
0000
0000
0000
,  // measure 30
0030
0000
0000
0000
,  // measure 31
2000
0000
0000
0000
,  // measure 32
3000
0000
0000
0000
,  // measure 33
0002
0000
0000
0000
,  // measure 34
0003
0000
0000
0000
,  // measure 35
1001
0000
0000
0000
,  // measure 36
1001
0000
0000
0000
,  // measure 37
0100
0000
0100
0000
,  // measure 38
0010
0000
0010
0000
,  // measure 39
0220
0000
0000
0000
,  // measure 40
0330
0000
0000
0000
,  // measure 41
1000
0000
0000
0000
,  // measure 42
0100
0000
0000
0000
,  // measure 43
1000
0000
0000
0000
,  // measure 44
0100
0000
0000
0000
,  // measure 45
0001
0000
0000
0000
,  // measure 46
0010
0000
0000
0000
,  // measure 47
0001
0000
0000
0000
,  // measure 48
0010
0000
0000
0000
,  // measure 49
1000
0000
0000
0000
,  // measure 50
0001
0000
0000
0000
,  // measure 51
1000
0000
0000
0000
,  // measure 52
0001
0000
0000
0000
,  // measure 53
0100
0000
0000
0000
,  // measure 54
0010
0000
0000
0000
,  // measure 55
0100
0000
0000
0000
,  // measure 56
0010
0000
0000
0000
,  // measure 57
0220
0000
0000
0000
,  // measure 58
0330
0000
0000
0000
,  // measure 59
1001
0000
0000
0000
,  // measure 60
0000
0000
0000
0000
,  // measure 61
0100
0000
0100
0000
,  // measure 62
1000
0000
1000
0000
,  // measure 63
0100
0000
0100
0000
,  // measure 64
0001
0000
0001
0000
,  // measure 65
0010
0000
0010
0000
,  // measure 66
1000
0000
1000
0000
,  // measure 67
0020
0000
0000
0000
,  // measure 68
0130
0000
0000
0110
;
