#TITLE:大江戸ジュリアナイト;
#SUBTITLE:;
#ARTIST:Mitchie M;
#TITLETRANSLIT:Oedo Julia-Night;
#SUBTITLETRANSLIT:;
#ARTISTTRANSLIT:;
#GENRE:Pop;
#CREDIT:;
#BANNER:;
#BACKGROUND:;
#LYRICSPATH:;
#CDTITLE:;
#MUSIC:Oedo Julia-Night.ogg;
#OFFSET:1.095000;
#SAMPLESTART:93.482048;
#SAMPLELENGTH:15.000000;
#LASTBEATHINT:0.135754;
#SELECTABLE:YES;
#DISPLAYBPM:144.000000;
#BPMS:0.000000=144.000000
,292.000000=155.000000
;
#STOPS:
;
#BGCHANGES:4.000=Oedo Julia-Night.avi=1.000=0=0=0=StretchNoLoop====,
99999=-nosongbg-=1.000=0=0=0 // don't automatically add -songbackground-
;
#KEYSOUNDS:;
#ATTACKS:;

//---------------dance-single - ----------------
#NOTES:
     dance-single:
     :
     Beginner:
     2:
     0.110735,0.119253,0.022360,0.007453,0.000000,100.000000,3.000000,1.000000,0.000000,0.000000,0.000000,0.110735,0.119253,0.022360,0.007453,0.000000,100.000000,3.000000,1.000000,0.000000,0.000000,0.000000:
0000
0000
0000
0000
,
0000
0000
0000
0000
,
0000
0000
0000
0000
,
0000
0000
0000
0000
,
1000
0000
1000
0000
,
0100
0000
0000
0000
,
0001
0000
0001
0000
,
0100
0000
0000
0000
,
1000
0000
1000
0000
,
0010
0000
0000
0000
,
0001
0000
0001
0000
,
0010
0000
0010
0000
,
1000
0000
0100
0000
,
1000
0000
0000
0000
,
0001
0000
0100
0000
,
0001
0000
0000
0000
,
1000
0000
0010
0000
,
1000
0000
0000
0000
,
0001
0000
0010
0000
,
0001
0001
0000
0000
,
1000
0000
0000
0000
,
0100
0000
0000
0000
,
0010
0000
0001
0000
,
0010
0000
0001
0000
,
1000
0000
0000
0000
,
0100
0000
0000
0000
,
0010
0000
0001
0000
,
0010
0000
0001
0000
,
0100
0000
0000
0000
,
0010
0000
0000
0000
,
1000
0000
0000
0000
,
0001
0000
0000
0000
,
1000
0000
0000
0000
,
0010
0000
0000
0000
,
0100
0000
0000
0000
,
0001
0000
0000
0000
,
0010
0000
0100
0000
,
0010
0000
0000
0000
,
1000
0000
0000
0000
,
0001
0000
0000
0000
,
0200
0000
0300
0000
,
1000
0000
0000
0000
,
0100
0000
0000
0000
,
0010
0000
0000
0000
,
0001
0000
0000
0000
,
1000
0000
0000
0000
,
0010
0000
0000
0000
,
0100
0000
0000
0000
,
0001
0000
1000
0000
,
1001
0000
0000
0000
,
0000
0000
0000
0000
,
0000
0000
0000
0000
,
0000
0000
0000
0000
,
0000
0000
0000
0000
,
0000
0000
0000
0000
,
0000
0000
0000
0000
,
0000
0000
0000
0001
,
1000
0000
0000
0000
,
0100
0000
1000
0000
,
0010
0000
0000
0000
,
0001
0000
0100
0000
,
0010
0000
0000
0000
,
1000
0000
0100
0000
,
0010
0010
0000
0000
,
0010
0010
0000
0000
,
0001
0000
0100
0000
,
0010
0000
0000
0000
,
1000
0000
0010
0000
,
0100
0000
0000
0000
,
1000
0000
0100
0000
,
0010
0000
0001
0000
,
1000
0000
0001
0000
,
1000
0000
0001
0000
,
1001
0000
0000
0000
,
0000
0000
0000
0000
,
0000
0000
0000
0000
,
1000
0000
0001
0000
,
1000
0000
0001
0000
,
1000
0000
0001
0000
,
1000
0000
0001
0000
,
1001
0000
0000
0000
;

//---------------dance-single - ----------------
#NOTES:
     dance-single:
     :
     Easy:
     5:
     0.288549,0.328457,0.134159,0.186332,0.000000,228.000000,18.000000,25.000000,0.000000,0.000000,0.000000,0.288549,0.328457,0.134159,0.186332,0.000000,228.000000,18.000000,25.000000,0.000000,0.000000,0.000000:
0000
0000
0000
0000
,
0000
0000
0000
0000
,
0000
0000
0000
0000
,
0000
0000
0000
0000
,
1000
0100
1000
0100
,
0001
0100
0001
0100
,
1000
0010
1000
0010
,
0001
0010
0001
0010
,
1000
0100
0010
0100
,
0001
0010
0100
0010
,
1000
0100
0001
0000
,
1000
0010
0002
0000
,
1003
0010
0100
0001
,
0200
0010
0010
0000
,
0301
1000
0010
1000
,
0020
0100
0100
0000
,
1030
0001
0100
1000
,
0010
0002
0100
0103
,
1000
0010
0100
0001
,
1001
1001
0000
0110
,
1000
0100
0010
1000
,
0001
0010
0100
0001
,
2000
0010
0100
3010
,
0002
0100
0010
0103
,
0010
1000
0010
0001
,
0100
0100
0010
0010
,
1001
0100
1000
0010
,
0020
0100
0200
0330
,
0001
0001
1000
0000
,
0100
0100
0010
0000
,
1000
0100
0010
0001
,
0200
0010
0020
0330
,
0001
0100
0010
0000
,
1000
0010
0100
0000
,
1000
0100
0001
0000
,
1000
0010
0002
0000
,
2000
0000
0000
3003
,
0010
1000
0100
1000
,
0010
1000
0100
1000
,
0010
0001
0100
0001
,
0010
0001
0100
0001
,
0010
1000
0020
0030
,
0001
0100
0002
0003
,
1000
0100
2000
3000
,
0100
0001
0200
0300
,
0010
1000
0010
0001
,
0010
0010
0220
0330
,
0001
1100
0010
1000
,
0010
0011
0100
0010
,
2002
0000
0000
0000
,
0000
0000
0000
0000
,
0000
0000
0000
0000
,
0000
0000
0000
0000
,
0000
0000
0000
0000
,
0000
0000
0000
0000
,
3003
0000
0000
0000
,
0000
0000
0000
1001
,
0110
0000
1000
0000
,
0010
0000
0100
0000
,
0001
0000
0100
0000
,
0010
0000
1000
0000
,
1001
0000
1000
0000
,
0010
0000
0100
0000
,
0001
0002
0000
0000
,
1003
2000
0000
0000
,
3010
0100
0010
1000
,
0001
0100
1100
0101
,
0010
1000
0001
0100
,
0010
1000
0011
1010
,
0001
1000
0010
0100
,
0002
0100
0010
0103
,
0010
1000
0010
0001
,
0100
0010
1000
0001
,
2002
0000
0000
0000
,
0000
0000
0000
0000
,
0000
0000
0000
3003
,
0001
1000
0010
1000
,
0001
1000
0001
0100
,
0010
1000
0010
0100
,
0001
1000
0010
0100
,
1001
1001
0000
0000
0000
0000
0000
0000
;

//---------------dance-single - ----------------
#NOTES:
     dance-single:
     :
     Medium:
     8:
     0.383312,0.418036,0.253412,0.111799,0.014907,311.000000,34.000000,15.000000,0.000000,0.000000,0.000000,0.383312,0.418036,0.253412,0.111799,0.014907,311.000000,34.000000,15.000000,0.000000,0.000000,0.000000:
0000
0000
0000
0000
,
0000
0000
0000
0000
,
0000
0000
0000
0000
,
0000
0000
0000
0000
,
0010
1000
0010
0100
,
0001
0000
1000
0000
0010
0100
0010
0000
,
1001
0010
1000
0010
,
0001
0000
0100
0000
0001
1000
0001
0000
,
0110
0001
1000
0010
,
1000
0000
0100
0000
0001
1000
0010
0000
,
1001
0010
1001
0010
,
1100
0101
1100
0101
,
0001
0100
0010
0000
1000
0000
1010
0000
,
1000
0010
0001
0000
0010
0000
0110
0000
,
0100
0001
0010
0000
1000
0000
1010
0000
,
1000
0010
0001
0000
0100
0000
0110
0000
,
0001
0100
1000
0000
0010
0000
1001
0000
,
0100
0010
0001
0000
0100
0000
0110
0000
,
1000
0010
0001
0000
0100
0001
1000
0000
,
0010
0100
0220
0000
0000
0000
0330
0000
,
0001
0100
0010
1000
,
0100
0100
0010
0010
,
1000
0000
0010
0000
0001
1000
0001
0000
,
0001
0000
0100
0000
1000
0001
1000
0000
,
0010
0100
1000
0010
,
0100
0001
0010
0001
,
1000
0000
0010
0000
1000
0001
1000
0000
,
0001
0000
0100
0000
0001
1000
0001
0000
,
1000
0000
0010
0000
0100
0010
0100
0000
,
0001
0000
0010
0000
0100
0010
0100
0000
,
1000
0100
0010
0001
,
0200
0000
0010
0000
0010
0000
0001
0300
,
0010
0000
1000
0000
0010
1000
0001
0000
,
0100
0000
0010
0000
1000
0001
0010
0000
,
1000
0100
0001
0100
,
0010
0100
0010
0100
0002
0000
0000
0000
,
2000
0000
0000
3003
,
0010
1000
0001
0000
0010
0000
1001
0000
,
0100
0001
1000
0000
0010
0000
1001
0000
,
0100
1000
0001
0000
0010
0000
0011
0000
,
1000
0001
0100
0000
1000
0000
1100
0000
,
1000
0010
0001
0000
0010
0000
0010
0000
,
0001
0100
1000
0000
0100
0000
0100
0000
,
1000
0010
0100
0000
0001
0000
0001
0000
,
0001
0100
0010
0000
1000
0000
1000
0000
,
1000
0010
0100
0000
0010
0100
0001
0000
,
0100
0010
2002
3003
,
0010
1000
0010
0100
,
0001
0001
1000
0000
0010
0000
0100
0010
,
0200
0000
0010
0000
,
0010
0000
0000
0000
0000
0000
0000
0000
0000
0000
0010
0000
0000
0000
0000
0000
0000
0000
0000
0010
0000
0000
0000
0000
,
0000
0000
0010
0000
0000
0000
0000
0000
0000
0010
0000
0000
0000
0000
0000
0020
0000
0000
0000
0000
0000
0000
0000
0000
,
0000
0000
0000
0000
,
0000
0000
0000
0000
,
0000
0000
0000
0000
,
0330
0000
0000
0000
,
0000
0000
0000
1100
,
0101
0000
0001
0000
1000
0010
0100
0001
,
0000
0100
0010
0110
,
0001
0000
1000
0000
0001
0100
0010
1000
,
0000
1100
0101
1001
,
0010
0000
0100
0000
0001
0100
0010
1000
,
0000
0100
0001
0000
,
2000
0001
0001
0001
,
3002
1000
1000
1000
,
1003
0010
0100
0000
0001
0000
1001
0000
,
0001
0100
0010
0000
1000
0000
1001
0000
,
0010
0100
0001
0000
0100
0010
1000
0000
,
0001
1000
2002
3003
,
0010
1000
0001
0000
0100
0000
0010
1000
,
0000
0001
0000
0100
0000
0010
0110
0000
,
0001
0100
0010
0000
1000
0000
1001
0000
,
1000
0010
0100
0000
0001
0000
1000
0000
,
2002
0000
0000
0000
,
0000
0000
0000
0000
,
0000
0000
0000
3003
,
0001
1000
0001
1000
,
0010
0100
0001
0000
1000
0000
1001
0000
,
0100
0010
1000
0000
0001
0000
1001
0000
,
0010
0100
0001
1000
,
0001
1000
0001
0000
0000
0000
0000
0000
0000
0000
0000
0000
0000
0000
0000
0000
;

//---------------dance-single - ----------------
#NOTES:
     dance-single:
     :
     Hard:
     11:
     0.501500,0.477756,0.313038,0.067080,0.085713,420.000000,42.000000,9.000000,0.000000,0.000000,0.000000,0.501500,0.477756,0.313038,0.067080,0.085713,420.000000,42.000000,9.000000,0.000000,0.000000,0.000000:
// measure 0
0000
0000
0000
0000
,  // measure 1
0000
0000
0000
0000
,  // measure 2
0000
0000
0000
0000
,  // measure 3
0000
0000
0000
0000
,  // measure 4
1000
0000
0100
0000
0010
0100
0001
1000
,  // measure 5
0010
0000
0100
0000
0001
1000
0010
0100
,  // measure 6
0001
0000
1000
0000
0010
0100
0001
0010
,  // measure 7
1000
0000
0100
0000
0010
1000
0001
0100
,  // measure 8
0010
0000
1000
0000
0010
1000
0100
0010
,  // measure 9
0001
0000
0100
0000
0001
0100
0010
1000
,  // measure 10
0001
0000
0100
0000
0100
0001
0010
0100
,  // measure 11
1000
0010
1001
1001
,  // measure 12
0010
1000
0001
0000
0100
0001
1000
0000
,  // measure 13
0010
1000
0001
0000
1001
0000
1001
0000
,  // measure 14
0100
1000
0010
0000
0001
0100
0010
0000
,  // measure 15
0001
0100
0010
1000
0001
0000
1001
0000
,  // measure 16
1000
0100
0010
0000
0100
0010
0001
0000
,  // measure 17
0001
0100
0010
0000
0100
0010
1000
0000
,  // measure 18
0001
0010
0100
1000
0010
0100
0001
1000
,  // measure 19
1001
1001
2002
0000
0000
0000
3003
0000
,  // measure 20
0001
0100
0010
1000
0010
0100
0001
0000
,  // measure 21
1000
0010
0100
0001
0100
0010
1000
0000
,  // measure 22
0001
0000
0000
1000
0000
0000
0010
0000
0000
1000
0000
0000
0001
0000
0100
0000
,  // measure 23
0010
0000
0000
1000
0000
0000
0010
0000
0000
0001
0000
0000
0010
0000
0100
0000
,  // measure 24
0001
0000
1000
0000
0100
0010
1000
0000
,  // measure 25
0010
0000
0100
0000
0001
0100
0010
0000
,  // measure 26
1000
0000
0000
0010
0000
0000
0100
0000
0000
0001
0000
0000
0100
0000
0010
0000
,  // measure 27
1000
0000
0000
0001
0000
0000
0100
0000
0000
0001
1000
0001
1000
0000
0000
0000
,  // measure 28
0010
0000
1000
0000
0001
1000
0010
0000
,  // measure 29
0001
0000
0100
0000
0001
1000
0010
0000
,  // measure 30
1000
0000
0100
0000
0010
0000
0100
0001
,  // measure 31
1000
0000
0110
0000
0001
0100
0001
1000
,  // measure 32
0010
0000
1001
0000
0010
1000
0001
0000
,  // measure 33
0100
0000
1010
0000
0001
0100
0010
0000
,  // measure 34
0011
0000
0100
0000
0001
1000
0010
0000
,  // measure 35
0100
0001
0010
1000
0010
0000
0001
0000
,  // measure 36
1000
0100
0010
0001
1000
0010
0100
0001
,  // measure 37
1000
0020
0100
0000
0100
0000
0130
0000
,  // measure 38
0001
0200
0010
0000
0010
0000
0310
0000
,  // measure 39
0001
2000
0100
0000
0100
0000
3100
0000
,  // measure 40
0001
1000
0010
0100
1001
0000
1001
0000
,  // measure 41
0010
1000
0010
0100
0001
0100
0010
0100
,  // measure 42
1000
0010
0100
0001
1001
0000
1001
0000
,  // measure 43
0010
1000
0001
0100
0010
0100
0001
0010
,  // measure 44
0100
1000
0010
0100
1001
0000
1001
0000
,  // measure 45
0010
1000
0100
0010
0100
0001
0010
0000
,  // measure 46
1000
0000
0010
0000
0100
0000
0000
0000
0001
1000
0001
0000
0010
0000
0000
0000
,  // measure 47
1001
0010
1001
0100
,  // measure 48
1001
0010
0100
1000
0010
0100
0001
0010
,  // measure 49
0010
0000
0210
0000
,  // measure 50
0010
0000
0000
0000
0000
0000
0000
0000
0000
0000
0000
0000
0000
0000
0000
0000
0000
0000
0000
0000
0000
0000
0000
0000
0000
0000
0000
0000
0000
0000
0000
0000
0000
0000
0000
0000
0000
0000
0000
0000
0000
0000
0000
0000
0000
0000
0000
0000
0000
0000
0000
0000
0000
0000
0000
0000
0000
0000
0000
0000
0000
0000
0000
0000
0000
0000
0000
0000
0000
0000
0000
0000
0000
0000
0000
0000
0000
0000
0000
0000
0010
0000
0000
0000
0000
0000
0000
0000
0000
0000
0000
0000
0000
0000
0000
0000
0000
0000
0000
0000
0000
0000
0000
0000
0000
0000
0000
0000
0000
0000
0000
0000
0000
0000
0000
0000
0000
0000
0000
0000
0000
0000
0000
0000
0000
0000
0000
0000
0000
0000
0000
0000
0000
0000
0000
0000
0000
0000
0000
0000
0000
0000
0000
0000
0000
0000
0000
0000
0000
0000
0010
0000
0000
0000
0000
0000
0000
0000
0000
0000
0000
0000
0000
0000
0000
0000
0000
0000
0000
0000
0000
0000
0000
0000
0000
0000
0000
0000
0000
0000
0000
0000
0000
0000
0000
0000
0000
0000
0000
0000
0000
0000
,  // measure 51
0000
0000
0000
0000
0000
0000
0000
0000
0000
0000
0000
0000
0000
0000
0000
0000
0010
0000
0000
0000
0000
0000
0000
0000
0000
0000
0000
0000
0000
0000
0000
0000
0000
0000
0000
0000
0000
0000
0000
0000
0000
0000
0000
0000
0000
0000
0000
0000
0000
0000
0000
0000
0000
0000
0000
0000
0000
0000
0000
0000
0000
0000
0000
0000
0000
0000
0010
0000
0000
0000
0000
0000
0000
0000
0000
0000
0000
0000
0000
0000
0000
0000
0000
0000
0000
0000
0000
0000
0000
0000
0000
0000
0000
0000
0000
0000
0000
0000
0000
0000
0000
0000
0000
0000
0000
0000
0000
0000
0000
0000
0000
0000
0000
0000
0010
0000
0000
0000
0000
0000
0000
0000
0000
0000
0000
0000
0000
0000
0000
0000
0000
0000
0000
0000
0000
0000
0000
0000
0000
0000
0000
0000
0000
0000
0000
0000
0000
0000
0000
0000
0000
0000
0000
0000
0000
0000
0010
0000
0000
0000
0000
0000
0000
0000
0000
0000
0000
0000
0000
0000
0000
0000
0000
0000
0000
0000
0000
0000
0000
0000
0000
0000
0000
0000
0000
0000
0000
0000
0000
0000
0000
0000
,  // measure 52
0010
0000
0000
0000
0000
0000
0000
0000
0010
0000
0000
0000
0000
0000
0000
0010
0000
0000
0000
0000
0000
0000
0010
0000
0000
0000
0000
0000
0010
0000
0000
0000
0000
0010
0000
0000
0000
0000
0020
0000
0000
0000
0000
0000
0000
0000
0000
0000
,  // measure 53
0000
0000
0000
0000
,  // measure 54
0000
0000
0000
0000
,  // measure 55
0330
0000
0000
0000
,  // measure 56
0000
0000
0000
1001
,  // measure 57
0110
0000
0001
0010
0100
1000
0010
1001
,  // measure 58
0000
0010
1000
0000
0010
0100
0001
1000
,  // measure 59
0010
0000
0100
0010
1000
0001
0010
0110
,  // measure 60
0000
0001
0010
0000
1000
0010
0100
0001
,  // measure 61
1001
0000
0010
1000
0001
0100
0010
1000
,  // measure 62
0000
1000
0010
0000
0001
0100
1000
0000
,  // measure 63
1000
0100
0001
0100
1000
0100
0001
0000
,  // measure 64
0001
0010
1000
0010
0001
0010
1000
0000
,  // measure 65
0010
0100
0001
1000
0010
0100
1000
0010
,  // measure 66
0100
0001
0010
0000
1100
0000
0101
0000
,  // measure 67
0010
1000
0001
0100
0010
1000
0100
0010
,  // measure 68
0001
0100
0010
0000
1001
0000
1001
0000
,  // measure 69
0010
1000
0001
0000
0100
0010
1000
1100
,  // measure 70
0000
0101
0000
1001
0000
1100
1001
0000
,  // measure 71
0010
1000
0001
0100
0011
0000
0011
0000
,  // measure 72
0100
0001
1000
0010
1100
0000
1100
0000
,  // measure 73
2002
0000
0000
0000
,  // measure 74
0000
0000
0000
0000
,  // measure 75
0000
0000
0000
3003
,  // measure 76
0010
1000
0001
1000
0010
1000
0001
1000
,  // measure 77
0001
0100
1000
0100
0001
0100
1000
0100
,  // measure 78
0001
0010
0100
0010
0100
0001
0010
0100
,  // measure 79
1000
0100
0010
0001
0010
0100
1000
0010
,  // measure 80
1000
0001
1001
0000
0000
0000
0000
0000
0000
0000
0000
0000
0000
0000
0000
0000
;
