#TITLE:おちゃめ機能;
#SUBTITLE:;
#ARTIST:ラマーズP feat.ろん;
#TITLETRANSLIT:Ochame Kinou;
#SUBTITLETRANSLIT:;
#ARTISTTRANSLIT:LamazeP feat.Lon;
#GENRE:Pop;
#CREDIT:;
#BANNER:;
#BACKGROUND:;
#LYRICSPATH:;
#CDTITLE:;
#MUSIC:Ochame Kinou.ogg;
#OFFSET:1.380000;
#SAMPLESTART:60.447033;
#SAMPLELENGTH:15.000000;
#LASTBEATHINT:0.859750;
#SELECTABLE:YES;
#DISPLAYBPM:150.000000;
#BPMS:0.000000=150.000000
;
#STOPS:
;
#BGCHANGES:3.000=Ochame Kinou.avi=1.000=0=0=0=StretchNoLoop====,
99999=-nosongbg-=1.000=0=0=0 // don't automatically add -songbackground-
;
#KEYSOUNDS:;
#ATTACKS:;

//---------------dance-single - ----------------
#NOTES:
     dance-single:
     :
     Beginner:
     1:
     0.196788,0.312696,0.022040,0.000000,0.000000,125.000000,123.000000,2.000000,0.000000,0.000000,0.000000,0.196788,0.312696,0.022040,0.000000,0.000000,125.000000,123.000000,2.000000,0.000000,0.000000,0.000000:
0000
0000
0000
0000
,
0000
0000
0000
0000
,
0000
0000
0000
0000
,
0000
0000
0000
0000
,
0000
0000
0000
0000
,
1000
0000
0001
0000
,
1000
0000
0001
0000
,
1000
0000
0001
0000
,
1000
0000
1000
0000
,
0001
0000
1000
0000
,
0001
0000
1000
0000
,
0001
0000
1000
0000
,
0001
0000
0001
0000
,
0001
0000
0000
0000
,
0000
0000
0000
0000
,
1000
0000
0001
0000
,
1000
1000
1000
0000
,
0001
0000
1000
0000
,
0001
0001
0001
0000
,
1000
0000
0001
0000
,
1000
1000
1000
0000
,
0001
0000
1000
0000
,
0001
0001
0001
0000
,
1000
0000
0001
0000
,
1000
1000
1000
0000
,
0001
0000
1000
0000
,
0001
0001
0001
0000
,
1000
0000
0001
0000
,
1000
0001
1000
0000
,
0001
0000
1000
0000
,
0001
1000
0001
0000
,
1000
0000
0001
0000
,
1000
0000
0001
0000
,
1000
0000
0001
0000
,
1000
0000
0001
0000
,
1000
1000
1000
0000
,
0001
0001
0001
0000
,
1000
1000
1000
0000
,
1001
0000
0000
0000
,
0001
0000
1000
0000
,
0001
0000
1000
0000
,
0001
0000
1000
0000
,
0001
0001
1000
1000
,
0001
0000
1000
0000
,
0001
0000
1000
0000
,
0001
0000
1000
0000
,
0001
0001
1000
1000
,
0001
0000
1000
0000
,
0001
0000
1000
0000
,
0001
0000
1000
0000
,
0001
0001
1000
1000
,
0001
0000
1000
0000
,
0001
0000
1000
0000
,
0001
0000
1000
0000
,
0001
0001
1000
1000
,
0001
1000
0001
1000
,
0001
1000
0001
1001
;

//---------------dance-single - ----------------
#NOTES:
     dance-single:
     :
     Easy:
     6:
     0.341624,0.375236,0.363664,0.297544,0.000000,217.000000,184.000000,33.000000,27.000000,0.000000,0.000000,0.341624,0.375236,0.363664,0.297544,0.000000,217.000000,184.000000,33.000000,27.000000,0.000000,0.000000:
0000
0000
0000
0000
,
0000
0000
0000
0000
,
0000
0000
0000
0000
,
0000
0000
0000
0000
,
0000
0000
0000
0000
,
1000
0100
0001
1001
,
0001
0100
1000
1001
,
1000
0010
0001
1001
,
0001
0010
1000
1001
,
1000
0100
0010
0110
,
0001
0010
0100
0110
,
1000
0010
0100
0110
,
0001
0100
0010
0110
,
2000
0000
3002
0000
,
2003
0000
3002
0000
,
1003
0100
0010
0001
,
1100
1100
0202
0303
,
0001
0010
0100
1000
,
0101
0101
2200
3300
,
0010
1000
0001
0100
,
1010
1010
0022
0033
,
0010
0100
0001
1000
,
0011
0011
2020
3030
,
0001
0100
0010
1000
,
1100
0101
2200
3300
,
1000
0010
0100
0001
,
0011
1010
0022
0033
,
0001
0100
0010
1000
,
1010
0001
0020
0030
,
0001
0100
0010
1000
,
0011
1000
0020
0030
,
0001
0100
1000
0100
,
0001
0010
1000
0010
,
1000
0100
0001
0100
,
1000
0010
0001
0010
,
0100
0010
1000
0001
,
0100
0010
1000
0001
,
0100
0100
0010
0010
,
2002
0000
3003
0000
,
0100
1000
0010
0001
,
0100
1000
0010
0001
,
0100
1000
0010
0001
,
0100
0010
0100
0110
,
0001
0100
1000
0010
,
0100
0001
1000
0100
,
1000
0100
0001
0010
,
0100
1000
0001
0010
,
2002
0000
0000
3003
,
0100
1000
0010
0001
,
0100
0100
0010
0010
,
1000
0001
0100
0010
,
0220
0000
0000
0330
,
0001
0100
1000
0010
,
1000
0010
0100
0001
,
0100
0010
1000
0001
,
0200
0000
0320
0000
,
0230
0000
0310
0110
;

//---------------dance-single - ----------------
#NOTES:
     dance-single:
     :
     Medium:
     8:
     0.390428,0.437775,0.264483,0.154282,0.000000,248.000000,224.000000,24.000000,14.000000,0.000000,0.000000,0.390428,0.437775,0.264483,0.154282,0.000000,248.000000,224.000000,24.000000,14.000000,0.000000,0.000000:
0000
0000
0000
0000
,
0000
0000
0000
0000
,
0000
0000
0000
0000
,
0000
0000
0000
0000
,
0000
0000
0000
0000
,
1000
0100
1000
0100
,
0001
0100
0001
0100
,
1000
0010
1000
0010
,
0001
0000
0010
0000
0001
0010
0001
0000
,
1000
0010
1000
0010
,
0001
0010
0001
0010
,
0100
1000
0100
1000
,
0100
0000
0001
0000
0100
0001
0100
0000
,
0020
0000
0230
0000
,
0302
0000
2000
3003
,
0001
1000
0010
0100
,
0001
1000
0001
1000
0001
0000
0000
0000
,
0100
0010
1000
0001
,
1000
0001
1000
0001
1000
0000
0000
0000
,
0010
0100
1000
0001
,
0010
0100
0010
0100
0010
0000
0000
0000
,
1000
0001
0100
0010
,
0100
0010
0100
0010
0100
0000
0000
0000
,
1000
0100
0010
0001
,
0010
0001
0010
0000
0011
0000
1100
0000
,
1000
0010
0100
0001
,
1000
0100
1000
0000
1100
0000
0011
0000
,
0100
0010
1000
0001
,
0100
0010
0100
0000
0110
0000
1001
0000
,
0100
0010
1000
0001
,
1000
0001
1000
0000
1001
0000
0110
0000
,
1000
0000
0100
0000
0010
0001
0010
0000
,
0100
0001
2002
3003
,
0001
0000
0100
0000
1000
0010
1000
0000
,
0100
0010
0220
0330
,
0001
0100
1000
0000
1001
0000
0000
0000
,
1000
0100
0001
0000
1001
0000
0000
0000
,
0010
1000
0001
0100
,
0010
0100
0010
0000
0220
0000
0000
0330
,
0001
0001
0100
1000
,
0010
0010
0100
0001
,
0100
0100
0010
0001
,
1000
1000
0100
0001
,
0010
0100
0001
0000
1000
0000
1001
0000
,
0100
0010
1000
0000
0100
0000
0101
0000
,
0010
1000
0001
0000
0100
0000
0110
0000
,
1000
0001
0010
0000
0100
0000
0110
0000
,
1002
0000
2003
0000
,
3010
0100
0001
0000
0100
0000
0110
0000
,
1000
0001
0100
0001
,
1000
0010
0100
0000
0001
0000
1001
0000
,
0120
0000
0230
0000
,
0301
0100
0010
0000
1000
0000
1100
0000
,
1000
0010
0001
0000
0100
0000
0110
0000
,
0001
0100
1000
0000
1000
0100
0001
0000
,
1000
0010
1000
0000
0010
0001
0010
0000
,
1000
0010
1000
0000
0010
0001
1001
0000
;

//---------------dance-single - ----------------
#NOTES:
     dance-single:
     :
     Hard:
     11:
     0.551007,0.562853,0.275503,0.044081,0.066121,350.000000,325.000000,25.000000,4.000000,0.000000,0.000000,0.551007,0.562853,0.275503,0.044081,0.066121,350.000000,325.000000,25.000000,4.000000,0.000000,0.000000:
// measure 0
0000
0000
0000
0000
,  // measure 1
0000
0000
0000
0000
,  // measure 2
0000
0000
0000
0000
,  // measure 3
0000
0000
0000
0000
,  // measure 4
0000
0000
0000
0000
,  // measure 5
1000
0000
0010
0000
0100
0000
0001
1000
0000
0000
0000
0000
0010
0000
0100
0000
,  // measure 6
0001
0000
0010
0000
1000
0000
0010
0100
0000
0000
0010
0000
1000
0000
0000
0000
,  // measure 7
0001
0000
0100
0000
0010
0000
1000
0001
0000
0000
0000
0000
0010
0000
0100
0000
,  // measure 8
1000
0000
1100
0000
0001
0100
1001
0000
,  // measure 9
0010
0000
0100
0000
0001
0000
1000
0010
0000
0000
0000
0000
0100
0000
0010
0000
,  // measure 10
0001
0000
1000
0000
0010
0000
0100
0001
0000
0000
0010
0000
0100
0000
0000
0000
,  // measure 11
1000
0000
0010
0000
0100
0000
0001
1000
0000
0000
0010
0000
0100
0000
0000
0000
,  // measure 12
0001
1000
0100
0000
0001
1000
0010
0000
,  // measure 13
0200
0010
1000
0010
,  // measure 14
0320
0000
0000
0000
0001
0000
0000
0000
0100
0000
0000
0000
0001
0000
0000
0030
,  // measure 15
0100
0000
0001
1000
0010
0000
1000
0010
,  // measure 16
0001
0100
1000
0010
0001
0000
1001
0000
,  // measure 17
0010
0000
0100
0001
0010
0000
1000
0010
,  // measure 18
0100
0001
0010
1000
0100
0000
1001
0000
,  // measure 19
0010
0000
1000
0001
0100
0000
1000
0010
,  // measure 20
0100
0001
0010
0100
1000
0000
1001
0000
,  // measure 21
0010
0000
1000
0010
0001
0000
0100
0010
,  // measure 22
1000
0001
0100
0010
1000
0100
0001
0000
,  // measure 23
1001
0000
0010
1000
0001
0000
0001
0100
,  // measure 24
1000
0010
1000
0001
1000
0000
1001
0000
,  // measure 25
0010
0000
1000
0010
0100
0000
0010
0100
,  // measure 26
0001
0100
1000
0001
1000
0000
1001
0000
,  // measure 27
0010
0000
1000
0100
0001
0000
1000
0010
,  // measure 28
0100
0001
0010
0100
1000
0000
1001
0000
,  // measure 29
0010
1000
0001
0000
0100
1000
0001
0000
,  // measure 30
0010
1000
0100
0010
0001
0100
0100
0000
,  // measure 31
0010
1000
0001
0100
0010
1000
1000
0010
,  // measure 32
0100
0001
0010
0100
0001
0001
0010
0000
,  // measure 33
1001
0010
1000
0100
0010
0100
0001
0001
,  // measure 34
0010
0100
1000
0001
1000
1000
0010
0000
,  // measure 35
1001
0010
0100
0000
1000
0010
0100
0000
,  // measure 36
1001
0100
0001
0000
0010
0100
1000
0000
,  // measure 37
0010
0100
0001
0000
0100
1000
0001
0000
,  // measure 38
0020
0000
0000
0100
0000
0000
0200
0000
0000
0000
0000
0000
0330
0000
0000
0000
,  // measure 39
0001
0100
1000
0010
0100
0000
0110
0000
,  // measure 40
1000
0010
0100
0001
1000
0000
1001
0000
,  // measure 41
0010
1000
0100
0010
0100
0001
0010
0000
,  // measure 42
0100
1000
0001
0000
1001
0000
1001
0000
,  // measure 43
0010
1000
0100
0001
0100
0000
0110
0000
,  // measure 44
0001
0100
0010
1000
0100
0000
0110
0000
,  // measure 45
1000
0010
0100
0001
1000
0000
1001
0000
,  // measure 46
0010
0100
1000
0001
0100
0010
1000
0000
,  // measure 47
1001
0000
0000
0000
0010
0000
0000
0000
1000
0000
0010
0000
0100
0010
0100
0000
,  // measure 48
0001
0010
1000
0100
0010
0000
1001
0000
,  // measure 49
0010
1000
0100
0000
0010
0100
0001
0000
,  // measure 50
0100
1000
0010
0100
0001
1000
1001
0000
,  // measure 51
0010
0100
0001
0000
0100
0010
1000
0100
,  // measure 52
0010
0000
0100
0000
0001
0010
0001
0000
0010
0000
0100
0000
1000
0100
1000
0000
,  // measure 53
0010
0100
0001
0000
1000
0010
0100
0000
,  // measure 54
0001
0100
1000
0010
0100
0001
0110
0000
,  // measure 55
1000
0000
0000
0000
0100
0000
0000
0010
0000
0000
0001
0000
1001
0000
0000
0000
,  // measure 56
0001
0000
0000
0000
0010
0000
0000
0100
0000
0000
1000
0000
1001
0000
0000
0000
;
