#TITLE:朧 (dj TAKA Remix);
#SUBTITLE:;
#ARTIST:HHH×MM×ST;
#TITLETRANSLIT:Oboro (dj TAKA Remix);
#SUBTITLETRANSLIT:;
#ARTISTTRANSLIT:;
#GENRE:DDR;
#CREDIT:;
#BANNER:;
#BACKGROUND:;
#LYRICSPATH:;
#CDTITLE:;
#MUSIC:Oboro (dj TAKA Remix).ogg;
#OFFSET:0.860000;
#SAMPLESTART:57.547005;
#SAMPLELENGTH:15.000000;
#SELECTABLE:YES;
#DISPLAYBPM:75.000000:149.000000;
#BPMS:0.000000=149.000000
,186.000000=74.500000
,218.000000=149.000000
;
#STOPS:
;
#BGCHANGES:;
#KEYSOUNDS:;
#ATTACKS:;

//---------------dance-single - ----------------
#NOTES:
     dance-single:
     :
     Beginner:
     2:
     0.110497,0.161690,0.032914,0.008228,0.000000,94.000000,90.000000,4.000000,1.000000,0.000000,0.000000,0.110497,0.161690,0.032914,0.008228,0.000000,94.000000,90.000000,4.000000,1.000000,0.000000,0.000000:
0000
0000
0000
0000
,
0000
0000
0000
0000
,
0000
0000
0000
0000
,
0000
0000
0000
0000
,
0000
0000
0000
0000
,
1000
0000
0100
0000
,
1000
0000
0100
0000
,
0001
0000
0100
0000
,
0001
0000
0100
0000
,
1001
0000
0000
0000
,
1001
0000
0000
0000
,
0100
0000
0000
0000
,
1000
0000
0100
0000
,
0010
0000
0000
0000
,
0100
0000
0010
0000
,
0001
0000
0000
0000
,
1000
0000
0100
0000
,
0010
0000
0000
0000
,
0100
0000
0010
0000
,
0001
0000
0000
0000
,
1000
0000
0100
0000
,
1000
0000
0000
0000
,
0001
0000
0100
0000
,
0001
0000
0000
0000
,
1000
0000
0010
0000
,
1000
0000
0000
0000
,
0001
0000
0010
0000
,
0001
0000
0000
0000
,
1000
0000
0100
0000
,
1000
0000
0010
0000
,
1000
0000
0000
0000
,
0100
0000
0000
0000
,
0001
0000
0010
0000
,
0001
0000
0100
0000
,
0001
0000
0010
0000
,
0100
0000
0000
0000
,
1001
0000
1000
0000
,
0000
0000
0100
0000
,
0000
0000
0010
0000
,
0000
0000
0001
0000
,
0100
0000
1000
0000
,
0000
0000
0010
0000
,
0000
0000
0001
0000
,
0000
0000
1000
0000
,
0010
0000
0001
0000
,
0100
0000
2000
0000
,
0000
0000
3001
0000
,
0100
0000
1000
0000
,
0100
0000
0001
0000
,
0010
0000
1000
0000
,
0010
0000
0100
0000
,
1000
0000
0010
0000
,
0001
0000
0100
0000
,
0010
0000
1000
0000
,
0001
0000
1001
0000
,
0000
0000
0100
0000
,
0000
0000
1000
0000
,
0000
0000
0010
0000
,
0000
0000
0100
0000
,
0000
0000
0001
0000
,
0000
0000
0010
0000
,
0000
0000
0100
0000
,
0000
0000
0010
0000
,
0000
0000
0100
0000
,
0000
0000
0001
0000
,
0000
0000
1000
0000
;

//---------------dance-single - ----------------
#NOTES:
     dance-single:
     :
     Easy:
     6:
     0.263312,0.383036,0.098742,0.156341,0.000000,224.000000,212.000000,12.000000,19.000000,0.000000,0.000000,0.263312,0.383036,0.098742,0.156341,0.000000,224.000000,212.000000,12.000000,19.000000,0.000000,0.000000:
0000
0000
0000
0000
,
0000
0000
0000
0000
,
0000
0000
0000
0000
,
0000
0000
0000
0000
,
0000
0000
0000
0000
,
1000
0100
1000
0100
,
0001
0100
0001
0100
,
1000
0010
1000
0010
,
0001
0010
0001
0010
,
1000
0100
0010
0001
,
2002
0000
0000
3003
,
0001
0100
0010
0000
,
1000
0010
0100
0000
,
1000
0100
0001
0100
,
1000
0010
0001
0010
,
1000
0010
0100
0000
,
0001
0100
0010
0000
,
1000
0010
0001
0100
,
1000
0010
0100
0001
,
0020
0000
0000
0030
,
0001
1000
0010
1000
,
0100
0001
0101
0000
,
0001
0100
0010
1000
,
0001
0010
1010
0000
,
1000
0001
0100
0010
,
1000
0100
1001
0000
,
0010
1000
0001
0100
,
0020
0000
0130
0000
,
0001
1000
0010
0100
,
1000
0010
0100
0001
,
1000
0010
0010
0001
,
1000
0001
0001
0100
,
0010
1000
0001
0100
,
0001
1000
0010
0001
,
0100
0001
0001
1000
,
0010
0100
0100
1000
,
0020
0000
1030
0001
,
0100
0000
0001
1000
,
0100
0000
1000
0010
,
0100
0001
0010
1000
,
1100
0000
0010
0001
,
0200
0000
0310
1000
,
0002
0000
0103
0010
,
1000
0001
0010
1000
,
0100
0010
0002
0000
,
2003
0000
3002
0000
,
0000
0000
1003
0100
,
1000
0010
0001
0100
,
0001
0010
2000
3100
,
0020
0130
0002
0013
,
1000
0100
0001
0000
0110
0000
1001
0000
,
0010
1000
0011
1010
,
0100
0000
0001
0000
1000
0100
0001
0000
,
0001
0100
1000
0000
0010
0000
1000
0000
,
0001
1000
0001
0000
1000
0000
0010
0000
,
0100
0000
0001
0100
,
0010
0000
1000
0100
,
0001
0010
1000
0001
,
0100
0010
2000
3001
,
0010
0000
0002
1003
,
0010
0000
1000
0010
,
0100
0001
0010
1000
,
0100
0001
0110
0000
,
1100
0000
0102
0000
,
0100
0100
2003
0000
,
3020
0000
0032
0000
,
0000
0000
0003
0000
;

//---------------dance-single - ----------------
#NOTES:
     dance-single:
     :
     Medium:
     9:
     0.343246,0.411939,0.115199,0.131656,0.000000,292.000000,278.000000,14.000000,16.000000,0.000000,0.000000,0.343246,0.411939,0.115199,0.131656,0.000000,292.000000,278.000000,14.000000,16.000000,0.000000,0.000000:
0000
0000
0000
0000
,
0000
0000
0000
0000
,
0000
0000
0000
0000
,
0000
0000
0000
0000
,
0000
0000
0000
0000
,
1000
0001
0100
0010
,
1000
0001
0100
0010
,
1000
0100
0010
0001
,
1000
0000
0100
0000
0010
0100
0001
0000
,
1000
0000
0010
0000
0100
0001
1000
0000
,
0020
0000
0000
0000
,
1030
0000
0001
0000
0100
0010
1000
0000
,
0001
0000
1000
0000
0010
0100
0001
0000
,
1000
0010
0100
0000
0001
0000
1001
0000
,
0001
0100
0010
0000
1000
0000
1001
0000
,
0010
1000
0001
0000
0100
0000
1001
0000
,
0010
1000
0001
0000
0010
0000
1001
0000
,
0010
1000
0100
0000
0010
0100
0001
0000
,
0010
0100
0001
1000
,
0020
0000
0230
0000
,
0301
1000
0010
1000
,
0001
0000
0100
0000
1001
0000
0000
0010
,
1000
0000
0001
0000
0100
0010
1000
0000
,
0001
1000
1100
0101
,
0001
0000
1000
0000
0010
1000
0001
0000
,
0100
0000
0010
0000
1001
0000
0000
0001
,
0100
0010
1000
0010
,
0100
0001
0010
1000
0100
0000
1001
0000
,
0010
0000
1000
0000
0001
0100
0010
0000
,
1000
0000
0010
0000
1000
0010
0100
0000
,
0001
0100
1000
0010
,
1000
0010
0100
0000
0001
0100
0010
0000
,
1000
0000
0001
0000
0100
0010
1000
0000
,
0001
0000
0100
0000
0010
0100
0001
0000
,
0100
1000
0010
0000
0001
0000
1000
0000
,
0020
0100
0001
0000
,
0130
0000
0001
1000
0010
0000
1001
0000
,
1001
0000
0010
1000
0001
0000
1001
0000
,
1001
0000
0010
0100
1000
0000
0010
0000
,
1000
0000
0001
0000
0100
0010
1000
0000
,
0001
0000
0011
0000
0100
0001
1000
0000
,
0010
0000
0100
0000
0001
1000
0010
0000
,
1000
0100
0010
1000
,
0001
0100
0010
0000
1000
0010
0100
0000
,
0001
1000
0020
0000
,
2030
0000
3002
0000
,
0000
0000
0000
0000
1003
0010
0100
0000
,
0001
0100
0010
0000
1000
0100
0010
0001
,
0100
0000
0010
0000
0001
0100
0010
0000
,
1000
0010
0100
0000
0001
0100
0010
1000
,
0002
0000
2003
0000
3010
0100
0001
0000
,
1000
0010
0100
0000
0001
0100
0010
0000
,
1000
0010
0100
0000
1000
0100
0001
0000
,
1000
0010
0001
0000
0100
0010
1000
0000
,
0002
0000
1003
0010
,
0100
0001
1000
0010
,
0001
1000
0010
0000
0100
0000
0001
0000
,
0010
1000
0010
0100
,
0001
1000
0010
0000
1000
0000
0001
0000
,
0100
0010
1000
0000
0001
0000
1000
0000
,
0010
0100
0001
0000
1000
0010
0100
0000
,
0001
0000
0100
0000
0001
0100
0010
1000
,
0001
0100
0020
0000
,
2030
0000
3002
0000
,
0000
1003
0010
0100
0002
0000
0000
0000
,
0203
0000
0320
0000
,
0000
0000
0000
0030
;

//---------------dance-single - ----------------
#NOTES:
     dance-single:
     :
     Hard:
     12:
     0.497236,0.793432,0.156341,0.098742,0.267426,423.000000,404.000000,19.000000,12.000000,0.000000,0.000000,0.497236,0.793432,0.156341,0.098742,0.267426,423.000000,404.000000,19.000000,12.000000,0.000000,0.000000:
// measure 0
0000
0000
0000
0000
,  // measure 1
0000
0000
0000
0000
,  // measure 2
0000
0000
0000
0000
,  // measure 3
0000
0000
0000
0000
,  // measure 4
0000
0000
0000
0000
,  // measure 5
0010
0000
0000
0000
1000
0000
0001
0100
0000
0000
0000
0000
0010
0000
1000
0000
,  // measure 6
0001
0000
0000
0000
0010
0000
0100
0001
0000
0000
0000
0000
0010
0000
1000
0000
,  // measure 7
0100
0000
0000
0000
0001
0000
0000
0100
0000
0000
0010
0000
1000
0000
0001
0000
,  // measure 8
0100
0000
0000
0000
0010
0000
0000
1000
0000
0000
0001
0000
0100
0000
0010
0000
,  // measure 9
0002
0000
0000
0000
1003
0010
0100
0001
,  // measure 10
0020
0000
0000
0000
0000
0000
0130
0001
,  // measure 11
1000
0010
1000
0100
0001
0100
1100
0000
,  // measure 12
0001
1000
0010
0100
0001
0010
0011
0000
,  // measure 13
0001
0100
1000
0000
1000
0100
0001
0000
,  // measure 14
0010
1000
0001
0100
0010
1000
1100
0000
,  // measure 15
1000
0010
0100
0001
0010
0100
0101
0000
,  // measure 16
0001
0100
0010
1000
0100
1000
1100
0000
,  // measure 17
0010
1000
0001
0000
0001
1000
0010
0000
,  // measure 18
1000
0010
0100
0001
0010
0100
1000
0000
,  // measure 19
0020
0000
0130
0001
,  // measure 20
1000
0010
0100
0000
0001
0100
0010
0000
,  // measure 21
1000
0001
0100
0010
1000
0000
1100
0000
,  // measure 22
1000
0010
0100
0000
0001
0100
0010
0000
,  // measure 23
1000
0100
0010
0001
0010
0000
0011
0000
,  // measure 24
0001
0100
0010
0000
1000
0010
0100
0000
,  // measure 25
0001
0010
1000
0100
0010
0000
0001
0000
,  // measure 26
1001
0010
1000
0010
,  // measure 27
0001
0010
1000
0100
0010
0000
1001
0000
,  // measure 28
1000
0000
0100
0000
0010
0000
0000
0100
0000
0000
0001
0000
0010
0000
0000
0000
,  // measure 29
1000
0000
0010
0000
0100
0000
0000
0001
0000
0000
0010
0000
0100
0000
0000
0000
,  // measure 30
1000
0001
0100
0000
0001
1000
0010
0000
,  // measure 31
1000
0000
0010
0000
0100
0000
0001
1000
0000
0000
0010
0000
1000
0000
0000
0000
,  // measure 32
0001
0000
1000
0000
0010
0000
0000
1000
0000
0000
0001
0000
0100
0000
0000
0000
,  // measure 33
0010
0000
1000
0000
0001
0000
0000
0010
0000
0000
1000
0000
0001
0000
0000
0000
,  // measure 34
0010
1000
0100
0001
0010
0100
1000
0000
,  // measure 35
1100
0101
2002
0000
,  // measure 36
3003
0000
0000
0000
0010
0000
1000
0000
0001
0000
0000
0000
0010
0000
1000
0001
,  // measure 37
0000
0000
0000
0000
1000
0000
0010
0000
0100
0000
0000
0000
0001
0000
0100
0010
,  // measure 38
0000
0000
0000
0000
1000
0000
0100
0000
0010
0000
0000
0000
0001
0000
0000
0100
,  // measure 39
0000
0000
0010
0000
1000
0000
0001
0000
0010
0000
0100
0000
0010
0000
1000
0001
,  // measure 40
0000
0000
0000
0000
0010
0000
1000
0000
0100
0000
0000
0000
0001
0000
0010
1000
,  // measure 41
0000
0000
0000
0000
0001
0000
0010
0000
1000
0000
0000
0000
0100
0000
0001
1000
,  // measure 42
0000
0000
0000
0000
0010
0000
1000
0000
0100
0000
0001
0000
0010
0000
0000
1000
,  // measure 43
0000
0000
0010
0000
1000
0000
0001
0000
0010
0000
0100
0000
1000
0000
0010
0100
,  // measure 44
0000
0001
0010
1000
0100
0000
1100
0000
,  // measure 45
0001
0100
0010
1000
0002
0000
0000
0000
,  // measure 46
2003
0000
0000
0000
0000
0000
0000
0000
3010
0000
0000
0100
0000
0000
0001
1000
,  // measure 47
0010
0000
0000
1000
0000
0000
0001
0000
1000
0000
0000
1001
0000
0000
0010
1000
,  // measure 48
0100
0000
0001
0000
0101
0000
1100
0000
1010
0000
0000
0001
0000
0000
1000
0010
,  // measure 49
0001
0000
0010
1000
0000
0000
0001
0100
0010
0000
1000
0000
0001
0000
0100
0000
,  // measure 50
0001
0000
0100
0000
0010
0000
1000
0000
0010
0000
0100
0000
0001
0000
0010
0000
1000
0000
0000
0000
0001
0000
1000
0001
0000
0000
0000
0000
0010
0000
1000
0000
,  // measure 51
0100
0000
0000
0000
0001
0000
0100
0010
0000
0000
0000
0000
0001
0000
0010
0000
1000
0000
0000
0000
0100
0000
0000
0001
0000
0000
0010
0000
1000
0000
0010
0000
,  // measure 52
0100
0000
0001
0000
0010
0000
1000
0010
0000
0000
0000
0000
0001
0000
0010
0000
1000
0000
0000
0000
0100
0000
1000
0001
0000
0000
0000
0000
0010
0000
1000
0000
,  // measure 53
0001
0000
0000
0000
0010
0000
0001
1000
0000
0000
0000
0000
0010
0000
1000
0000
0100
0000
0001
0000
0010
0000
0100
0010
0000
0000
0010
0000
1000
0000
0001
0000
,  // measure 54
0010
0000
0100
0000
1000
0000
0100
0001
0000
0000
0000
0000
0010
0000
1000
0000
1100
0000
0000
0000
0000
0000
0000
0000
0001
0000
0000
0000
1000
0000
0010
0000
,  // measure 55
0000
0000
0000
0000
0001
0000
1000
0000
0010
0000
0000
0000
0010
0000
1000
0001
,  // measure 56
0000
0000
0000
0000
0010
0000
0100
0000
1000
0000
0000
0000
0010
0000
0100
0001
,  // measure 57
0000
0000
0010
0000
0100
0000
1000
0000
0010
0000
1000
0000
0001
0000
0100
0001
,  // measure 58
0100
0000
0010
0000
1000
0000
0001
0000
0010
0000
0000
0000
1000
0000
0001
0010
,  // measure 59
0000
0000
0000
0000
1000
0000
0010
0000
0001
0000
0000
0000
0010
0000
1000
0010
,  // measure 60
0000
0000
0000
0000
0001
0000
0010
0000
1000
0000
0100
0000
0010
0000
0100
0001
,  // measure 61
0000
0010
1000
0100
0010
0001
0010
1000
,  // measure 62
0010
0100
0001
0010
0002
0000
0000
0000
,  // measure 63
0013
0100
0001
0100
2000
0000
0000
0000
,  // measure 64
3010
0100
0001
0010
0002
0000
0000
0000
,  // measure 65
1003
0010
0100
0001
2002
0000
0000
0000
,  // measure 66
0000
0000
3003
0000
;
