#TITLE:おばけのウケねらい;
#SUBTITLE:;
#ARTIST:ピノキオピー;
#TITLETRANSLIT:;
#SUBTITLETRANSLIT:;
#ARTISTTRANSLIT:PinocchioP;
#GENRE:Vocaloid;
#CREDIT:;
#BANNER:;
#BACKGROUND:;
#LYRICSPATH:;
#CDTITLE:;
#MUSIC:Obake no ukenerai.ogg;
#OFFSET:0.750000;
#SAMPLESTART:46.260971;
#SAMPLELENGTH:15.000000;
#SELECTABLE:YES;
#DISPLAYBPM:148.000000;
#BPMS:0.000000=148.000000
,147.000000=150.000000
,148.000000=148.000000
;
#STOPS:
;
#BGCHANGES:1.000=Obake no ukenerai.avi=1.000=0=0=0=StretchNoLoop====,
99999=-nosongbg-=1.000=0=0=0 // don't automatically add -songbackground-
;
#KEYSOUNDS:;
#ATTACKS:;

//---------------dance-single - ----------------
#NOTES:
     dance-single:
     :
     Beginner:
     4:
     0.158550,0.202838,0.080553,0.026851,0.000000,124.000000,115.000000,9.000000,3.000000,0.000000,0.000000,0.158550,0.202838,0.080553,0.026851,0.000000,124.000000,115.000000,9.000000,3.000000,0.000000,0.000000:
// measure 0
0000
0000
0000
0000
,  // measure 1
0000
0000
0000
0000
,  // measure 2
0000
0000
0000
0000
,  // measure 3
0000
0000
0000
0000
,  // measure 4
0000
0000
0000
0000
,  // measure 5
1000
0000
1000
0000
,  // measure 6
1000
0000
0100
0100
,  // measure 7
0001
0000
0001
0000
,  // measure 8
0001
0000
0100
0100
,  // measure 9
1000
0000
1000
0000
,  // measure 10
1000
0000
0100
0100
,  // measure 11
0001
0000
0001
0000
,  // measure 12
0001
0000
1000
0000
,  // measure 13
0001
0000
0100
0000
,  // measure 14
1000
0000
0000
0000
,  // measure 15
1000
0000
0010
0000
,  // measure 16
0001
0000
0000
0000
,  // measure 17
0001
0000
0100
0000
,  // measure 18
0001
0000
0010
0000
,  // measure 19
0001
0000
0100
0000
,  // measure 20
0001
0000
0010
0000
,  // measure 21
1000
0000
0100
0000
,  // measure 22
1000
0000
0100
0000
,  // measure 23
0010
0000
0001
0000
,  // measure 24
0010
0000
0001
0000
,  // measure 25
1000
0000
0100
0000
,  // measure 26
0010
0000
0001
0000
,  // measure 27
1000
0000
0001
0000
,  // measure 28
2002
0000
0000
3003
,  // measure 29
0000
1000
0000
1000
,  // measure 30
0000
1000
0000
0100
,  // measure 31
0000
0001
0000
0001
,  // measure 32
0000
0001
0000
0100
,  // measure 33
0000
1000
0000
1000
,  // measure 34
0000
1000
0000
0010
,  // measure 35
0000
0001
0000
0001
,  // measure 36
0000
0010
0100
0000
,  // measure 37
1001
0000
0000
0100
,  // measure 38
1001
0000
0000
0000
,  // measure 39
0100
0000
1000
0000
,  // measure 40
0100
0000
0001
0000
,  // measure 41
1001
0000
0000
0010
,  // measure 42
1001
0000
0000
0000
,  // measure 43
0001
0000
0010
0000
,  // measure 44
1000
0000
0010
0000
,  // measure 45
0110
0000
0000
0001
,  // measure 46
0110
0000
0000
0000
,  // measure 47
0001
0000
1000
0000
,  // measure 48
0010
0000
0100
0000
,  // measure 49
1000
0000
0100
0000
,  // measure 50
0010
0000
0001
0000
,  // measure 51
1000
0000
0001
0000
,  // measure 52
0110
0000
0000
0000
,  // measure 53
0001
0000
0001
0000
,  // measure 54
0001
0000
0010
0010
,  // measure 55
1000
0000
1000
0000
,  // measure 56
1000
0000
0010
0010
,  // measure 57
0001
0000
0001
0000
,  // measure 58
0001
0000
0010
0010
,  // measure 59
1000
0000
1000
0000
,  // measure 60
0010
0010
0010
0010
,  // measure 61
0020
0000
0000
0000
,  // measure 62
0000
0000
0000
0000
,  // measure 63
0030
0000
0000
0000
,  // measure 64
0000
0000
0000
1001
;

//---------------dance-single - ----------------
#NOTES:
     dance-single:
     :
     Easy:
     7:
     0.363130,0.471685,0.295363,0.026851,0.000000,284.000000,251.000000,33.000000,3.000000,0.000000,0.000000,0.363130,0.471685,0.295363,0.026851,0.000000,284.000000,251.000000,33.000000,3.000000,0.000000,0.000000:
0000
0000
0000
0000
,
0000
0000
0000
0000
,
0000
0000
0000
0000
,
0000
0000
0000
0000
,
0000
0000
0000
0000
,
1000
0100
1000
0100
,
0010
0000
0100
0000
0010
0010
0001
0000
,
0010
0100
0010
0100
,
0001
0000
1000
0000
0001
1000
1000
0000
,
0010
1000
0100
0010
,
0100
0000
0001
0000
0010
0100
0100
0000
,
1000
0010
0100
0001
,
1000
0000
0010
0000
0100
0010
0100
0010
,
0100
1000
0010
1001
,
0010
0100
0001
1001
,
0001
0100
1000
1001
,
1000
0010
0001
1001
,
0100
1000
0100
0010
,
0001
0010
0001
0100
,
1000
0100
0010
0110
,
0001
0010
0100
0110
,
1000
0000
0100
0000
0010
0100
0010
0000
,
0001
0000
0010
0000
0100
0010
0100
0000
,
1000
0000
0100
0000
0001
0100
0001
0000
,
0001
0000
0010
0000
1000
0100
1000
0000
,
0010
0100
0001
1000
,
1000
0010
0100
0001
,
0001
0010
0100
1000
,
1000
0010
0100
0001
,
1001
0100
1000
0100
,
0001
0000
0010
0000
0100
0100
0010
0000
,
1000
0010
0100
0001
,
0001
0000
0100
0000
0010
0010
0100
0000
,
0001
1000
0100
0001
,
0010
1000
0010
1001
,
0100
0010
1000
0001
,
0100
0010
0100
0010
0100
0000
0000
0000
,
1001
1001
1001
0010
,
1001
1001
1001
0000
,
1000
0100
0010
0001
,
0100
0010
0110
0001
,
1001
1001
1001
0100
,
1001
1001
1001
0000
,
0001
0100
0010
1000
,
1001
0000
0110
0000
1001
0000
0010
1000
,
0001
0000
1000
0000
1001
0000
0001
0100
,
0010
0000
1000
0000
1010
0000
1000
0010
,
0100
0000
0001
0000
0011
0000
0001
0100
,
1000
0000
1001
0000
1001
0000
1000
0010
,
0100
0000
0001
0000
1001
0000
0001
0010
,
1000
0000
0001
0000
1001
0000
0000
1000
,
0100
0001
1000
0010
,
0100
0010
0100
0000
0001
1000
0001
0000
,
1001
1000
0100
0010
,
0001
0000
1000
0000
0010
0100
0010
0000
,
1000
0010
0100
0001
,
1000
0000
0010
0000
0010
0100
0010
0000
,
1000
0001
0100
0010
,
1000
0000
0001
0000
1000
0001
1000
0000
,
0010
1000
0100
0001
,
0010
0100
0010
0100
0010
0100
0010
0100
,
0020
0000
0000
0000
,
0000
0000
0000
0000
,
0030
0000
0000
0000
,
0000
0000
0000
2002
,
0000
0000
0000
0000
0000
0000
0000
3003
;

//---------------dance-single - ----------------
#NOTES:
     dance-single:
     :
     Medium:
     10:
     0.494829,0.530646,0.456470,0.017901,0.017901,387.000000,336.000000,51.000000,2.000000,0.000000,0.000000,0.494829,0.530646,0.456470,0.017901,0.017901,387.000000,336.000000,51.000000,2.000000,0.000000,0.000000:
0000
0000
0000
0000
,
0000
0000
0000
0000
,
0000
0000
0000
0000
,
0000
0000
0000
0000
,
0000
0000
0000
0000
,
1000
0000
0010
0000
1000
0001
0100
0010
,
1000
0001
1001
1001
,
0001
0100
0010
0000
1000
0000
1001
0000
,
1000
0010
0100
0000
1001
0000
1001
0000
,
0010
0000
1000
0000
0001
0100
0010
1000
,
0001
1000
1001
1001
,
1000
0010
0001
0000
0100
0000
0110
0000
,
0001
0010
0100
1000
0001
0100
0010
1000
,
0001
0100
0010
1000
0100
0000
1100
0000
,
1000
0010
0100
0001
0010
0000
0011
0000
,
0001
0100
1000
0100
0001
0100
1000
0000
,
1000
0010
0001
0010
1000
0010
0001
0000
,
1000
0010
0100
0001
1000
0000
1001
0000
,
0001
0100
0010
1000
0001
0000
1001
0000
,
1000
0100
0001
0000
0001
0100
1000
0000
,
1000
0010
0001
0000
0001
0010
1000
0000
,
1000
0010
0100
0001
1000
0001
1001
0000
,
0001
0100
0010
1000
0001
1000
1001
0000
,
1000
0100
0001
0100
1000
0100
0101
0000
,
0001
0010
1000
0010
0001
0010
1010
0000
,
1000
0100
0001
0100
1000
0100
0001
0100
,
1000
0010
0001
0010
1000
0010
0001
0010
,
1000
0010
0001
0000
1000
0100
0001
0000
,
1000
0001
1000
1001
,
1000
0100
0001
0000
1001
0000
0010
0000
,
1000
0001
0010
0000
1001
0000
0010
0000
,
1000
0001
0100
0000
0001
0100
1000
0000
,
1000
0010
0100
0001
1000
0000
1001
0000
,
0001
0100
1000
0000
0010
0000
0110
0000
,
1000
0010
0100
0001
1000
0000
1001
0000
,
0001
0100
1000
0000
1000
0100
0001
0000
,
0100
0010
1000
0001
1000
0000
1000
0000
,
1001
0000
1001
0000
1100
0000
0001
1000
,
1001
0000
1001
0000
0011
0000
0000
0001
,
0100
0000
1000
0000
0010
1000
0001
0000
,
1000
0010
0100
0001
1000
0000
1001
0000
,
0110
0000
0110
0000
1001
0000
0010
1000
,
1001
0000
1001
0000
0110
0000
0000
0001
,
0100
0000
1000
0100
0001
0000
0100
1000
,
0010
0100
0001
1000
0010
0000
1000
0001
,
0011
0000
0011
0000
1001
0000
0001
0100
,
1100
0000
1100
0000
1001
0000
0001
0100
,
1100
0000
0101
0000
1100
0000
0001
0010
,
1010
0000
0011
0000
1010
0000
0001
1000
,
0010
0000
1000
0000
1001
0000
1000
0001
,
0100
0000
1000
0000
1001
0000
0000
1000
,
0010
0000
0000
0010
1000
0000
0000
1000
0001
0000
0000
0000
1001
0000
0000
0000
,
0010
0100
0100
0001
1000
0010
0010
0000
,
1000
0001
0100
0010
1000
0001
0100
0000
,
0001
1000
0010
0100
0001
1000
0010
0000
,
1000
0100
0001
0100
1000
0100
0001
0000
,
0001
0010
1000
0010
0001
0010
1000
0000
,
1000
0010
0100
0010
1000
0010
0100
0000
,
0001
0100
0010
0100
0001
0100
0010
0000
,
1000
0100
0001
0000
1000
0010
0001
0000
,
1000
0000
0010
0000
0100
0000
0001
0000
1000
0000
0010
0000
0100
0010
0100
0010
,
0100
0000
0000
0000
,
0000
0000
0000
0000
,
0000
0000
0000
0000
,
0000
0000
0000
0022
,
0000
0000
0000
0000
0000
0000
0000
0033
;

//---------------dance-single - ----------------
#NOTES:
     dance-single:
     :
     Hard:
     13:
     0.613741,0.648567,0.393817,0.116355,0.264036,480.000000,436.000000,44.000000,13.000000,0.000000,0.000000,0.613741,0.648567,0.393817,0.116355,0.264036,480.000000,436.000000,44.000000,13.000000,0.000000,0.000000:
0000
0000
0000
0000
,
0000
0000
0000
0000
,
0000
0000
0000
0000
,
0000
0000
0000
0000
,
0000
0000
0000
0000
,
1000
0000
0010
0000
0100
0000
0001
1000
0000
1000
0001
0000
0010
0000
1000
0000
,
0100
0010
0001
0100
0110
0000
0110
0000
,
1000
0000
0010
0000
0100
0000
0001
1000
0000
1000
0001
0000
0010
0000
1000
0000
,
0100
0010
0001
0100
1001
0000
1001
0000
,
0010
0000
0100
0000
0001
0000
0010
0100
0000
0100
0010
0000
0001
0000
0100
0000
,
0010
1000
0001
0100
1001
0000
1001
0000
,
0010
0000
1000
0000
0001
0000
0100
0010
0000
0010
0100
0000
0001
0000
0010
0000
,
0100
0000
1000
0000
0010
0000
0100
0000
0001
1000
0001
1000
0010
0100
0010
0100
,
0001
0010
0100
1000
0010
1000
1001
0000
,
1000
0010
0100
0001
1000
0001
1001
0000
,
0100
1000
0100
0001
0100
1000
1010
0000
,
0010
0001
0010
1000
0010
0001
0101
0000
,
0010
1000
0100
0001
0100
0000
1100
0000
,
0001
0100
0010
1000
0001
0000
0011
0000
,
0001
0100
1000
0100
0001
1000
1001
0000
,
1000
0010
0001
0010
1000
0001
1001
0000
,
0100
0000
0001
0000
0010
0000
0100
0000
2000
0100
3000
0100
1000
0000
0000
0000
,
0010
0000
1000
0000
0100
0000
0010
0000
0002
0010
0003
0010
0001
0000
0000
0000
,
1000
0000
0100
0000
0010
0000
0001
0000
2000
0001
3000
0001
1000
0000
0000
0000
,
0001
0000
0010
0000
0100
0000
1000
0000
0200
0010
0300
0010
0100
0000
0000
0000
,
0010
0000
1000
0000
0001
0010
0100
1000
0000
0000
0001
0000
1000
0000
0010
0000
,
0001
0000
0100
0000
0010
1000
0001
0100
0000
0000
0010
0000
1000
0000
0001
0000
,
1000
0000
0010
0000
1000
0010
0100
0001
0000
0000
0010
0000
1000
0000
0100
0000
,
0002
1000
0100
0013
,
0001
0000
0100
0000
0010
0000
1000
0010
1000
0000
0001
0000
0010
0000
1000
0001
,
1000
0010
1000
0100
0010
1000
1001
0000
,
0010
0000
1000
0000
0100
0000
0001
0100
0001
0000
1000
0000
0010
0000
1000
0001
,
1000
0010
1000
0100
0010
1000
1001
0000
,
0001
0100
1000
0100
0001
0010
1000
0010
,
0001
1000
0100
0001
0100
1000
1001
0000
,
0001
0100
0010
1000
0001
0100
0010
1000
,
1000
0100
0010
0001
1001
0000
1000
0100
,
1100
0000
0101
0000
1100
0000
0001
0010
,
1010
0000
0011
0000
1010
0000
0001
1000
,
0010
0100
0001
1000
0010
0100
0001
0001
,
1000
0010
0100
0001
1001
0000
0001
1000
,
1100
0000
0101
0000
1100
0000
0001
1000
,
1010
0000
0011
0000
0011
0000
0010
1000
,
0001
0000
0000
0000
0001
0000
0000
1000
0010
0000
1000
0000
0001
0000
0010
0000
,
0100
0000
1000
0000
0010
0000
1000
0000
0001
0000
0000
0000
0001
1000
0001
1000
,
0001
0000
0001
0100
0001
0000
1000
0100
1000
0000
0000
0000
0010
0000
0100
0000
,
0110
0000
0001
0010
0001
0000
1000
0010
1000
0000
0000
0000
0001
0000
1000
0000
,
1001
0000
1000
0100
1000
0000
0001
0010
0001
0000
0000
0000
0100
0000
0010
0000
,
0110
0000
0001
0100
0001
0000
1000
0010
1000
0000
0000
0000
0001
0000
0010
0000
,
1100
0000
0100
0010
0001
0000
0001
0010
1000
0000
0000
0000
1000
0000
0100
0000
,
0011
0000
0010
0100
1000
0000
1000
0010
0002
0000
0000
0000
0003
0000
0001
0000
,
0010
0000
0000
0010
0100
0000
0000
0001
1000
0000
0001
0000
0010
0000
1000
0000
,
0100
0001
0010
0100
1000
0000
1001
0000
,
0010
0000
1000
0000
0100
0000
0020
0100
0030
0100
0010
0000
0001
0000
0010
0000
,
1000
0100
0010
1000
1001
0001
1001
0000
,
0010
0000
1000
0000
0100
0000
2000
0100
3000
0100
1000
0000
0001
0000
0100
0000
,
0010
1000
0001
1000
0110
0010
0110
0000
,
1000
0000
0010
0000
0100
0000
0002
0010
0003
0010
0001
0000
0010
0000
1000
0000
,
0100
0001
0010
0100
1100
1000
1100
0000
,
0010
0000
1000
0000
0010
0000
0200
0010
0300
0010
0100
0000
0001
0000
1000
0000
,
0010
0000
0010
0000
0100
0000
0100
0000
0001
1000
0001
0100
0010
0100
0001
1000
,
0020
0000
0000
0000
,
0000
0000
0000
0000
,
0030
0000
0000
0000
,
0000
0000
0000
2002
,
0000
0000
0000
0000
0000
0000
0000
3003
;

//---------------dance-single - ----------------
#NOTES:
     dance-single:
     :
     Challenge:
     14:
     0.740325,0.738407,0.277462,0.026851,0.631002,579.000000,548.000000,31.000000,3.000000,0.000000,0.000000,0.740325,0.738407,0.277462,0.026851,0.631002,579.000000,548.000000,31.000000,3.000000,0.000000,0.000000:
0000
0000
0000
0000
,
0000
0000
0000
0000
,
0000
0000
0000
0000
,
0000
0000
0000
0000
,
0000
0000
0000
0000
,
1000
0000
0010
0000
0100
0000
0001
1000
0000
1000
0001
1000
0001
0000
1000
0000
,
0010
0100
0001
1000
1001
0000
1001
0000
,
0001
0000
1000
0000
0010
0000
0100
0010
0000
0010
0100
0010
0100
0000
0001
0000
,
1000
0010
0100
0001
1001
0000
1001
0000
,
0010
0000
1000
0000
0100
0000
0001
1000
0000
1000
0001
1000
0001
0000
0010
0000
,
0100
1000
0010
0100
0110
0000
0110
0000
,
0001
0000
1000
0000
0010
0000
0100
0010
0000
0010
0100
0010
0100
0000
0010
0000
,
1000
0000
0001
0000
0100
0000
0010
0000
1000
0001
1000
0010
0001
0010
0100
1000
,
0010
0001
0010
0100
0010
0100
0001
0010
,
0100
0000
1000
0000
0010
0100
0001
0000
1000
0000
0000
0000
1001
0000
0000
0000
,
0100
1000
0100
0010
0100
0010
1000
0100
,
0010
0000
0001
0000
0100
0010
1000
0000
0001
0000
0000
0000
1001
0000
0000
0000
,
1000
0000
0010
0000
0100
0000
0001
1000
0001
0000
0100
0000
1010
0000
0000
0000
,
0001
0000
0100
0000
0010
0000
1000
0001
1000
0000
0010
0000
0101
0000
0000
0000
,
0001
0000
1000
0000
0010
0000
0100
0001
1000
0000
0000
0000
1001
0000
0000
0000
,
0010
0000
1000
0000
0001
0100
0001
0100
0000
0010
1000
0010
1000
0000
1001
0000
,
0001
0000
0010
0000
0100
0010
0100
0010
0100
0010
0000
0010
1000
0000
0000
0000
,
1000
0000
0100
0000
0010
0100
0010
0100
0010
0100
0000
0100
0001
0000
0000
0000
,
0100
0000
0010
0000
0001
1000
0001
1000
0001
1000
0000
1000
0100
0000
0000
0000
,
0010
0000
0100
0000
1000
0001
1000
0001
1000
0001
0000
0001
0010
0000
0000
0000
,
0001
0000
1000
0000
0010
0100
0001
1000
0000
0000
0001
1000
0010
0100
0010
0000
,
1000
0000
0001
0000
0100
0010
1000
0001
0000
0000
1000
0001
0100
0010
0100
0000
,
0001
0100
0000
0010
1000
0000
0100
0010
0000
0001
0100
0010
1000
0000
0001
0000
,
2000
0001
0001
3001
,
0001
0000
0100
0000
1000
0000
0010
0100
0010
0000
1000
0000
0001
0000
1000
0001
,
1000
0000
0010
0100
0010
0000
1000
0001
1000
0000
0010
0000
1001
0000
0000
0000
,
1000
0000
0010
0000
0001
0000
0100
0010
0100
0000
0001
0000
1000
0000
0001
1000
,
0001
0000
0100
0010
0100
0000
0001
1000
0001
0000
0100
0000
1001
0000
0000
0000
,
0001
0000
1000
0000
0010
0000
0100
0001
1000
0000
0010
0000
1000
0000
0010
0100
,
0010
1000
0001
0100
1100
0000
0101
0000
,
0001
0000
1000
0001
0100
0000
0010
0000
0001
1000
0100
0000
0001
0000
1000
0000
,
0010
1000
0000
1000
0010
0100
0001
0000
1001
0000
0000
0000
0001
0100
0010
1000
,
0001
0000
1000
0001
1000
0000
0010
0100
0010
0000
0000
0000
0001
0000
1000
0000
,
0010
0000
0100
0010
0100
0000
0001
1000
0001
0000
0000
0000
1000
0000
0010
0000
,
0100
0000
0001
0010
0100
0000
1000
0100
0010
0000
0100
0000
0001
0000
0010
0000
,
0100
0000
1000
0000
0010
0000
1000
0000
1001
0000
0000
0000
1000
0010
0100
0001
,
1000
0000
0001
1000
0001
0000
0100
0010
0100
0000
0000
0000
1000
0000
0001
0000
,
0100
0000
0010
0100
0010
0000
1000
0001
1000
0000
0000
0000
0001
0000
0100
0000
,
0010
0000
1000
0100
0010
0000
0001
0010
0100
0000
0010
0000
1000
0000
0100
0000
,
0010
0000
0001
0000
0100
0000
0001
0000
1001
0000
0000
0000
1000
0100
0010
0001
,
0010
0000
1000
0100
0010
0000
0001
0010
0100
0000
0000
0000
1000
0000
0001
0000
,
0100
0000
1000
0010
0100
0000
0001
0100
0010
0000
0000
0000
0001
0010
0100
1000
,
0100
0000
0001
0010
0100
0000
1000
0100
0010
0000
0000
0000
0001
0000
1000
0000
,
0010
0000
0001
0100
0010
0000
1000
0010
0100
0000
0000
0000
0010
0000
0100
0010
,
1000
0000
0010
0100
0001
0000
0001
0100
1000
0000
0010
0100
0001
0000
1000
0100
,
0010
0000
1000
0010
0100
0000
0001
0100
0010
0000
1000
0010
0001
0000
0001
0000
,
1100
0000
0000
1000
0100
0000
0000
0100
0001
0000
0010
0000
1000
0000
0010
0000
,
0100
0001
1000
0010
1000
0001
1001
0000
,
0100
0001
0100
0001
0100
0000
0010
0100
0000
0100
0010
0000
1000
0000
0001
0000
,
1000
0001
1000
0001
1000
0000
0001
0000
1001
0000
0000
0000
1001
0000
0000
0000
,
0010
1000
0010
1000
0010
0000
0100
0010
0000
0010
0100
0000
0001
0000
1000
0000
,
0001
1000
0001
1000
0001
0000
1000
0000
1001
0000
0000
0000
1001
0000
0000
0000
,
1000
0100
1000
0100
0001
0000
0100
0010
0000
1000
0010
0100
0001
0000
0100
0000
,
0010
1000
0010
1000
0001
0000
0100
0000
1001
0000
0000
0000
0110
0000
0000
0000
,
0001
0010
0001
0010
1000
0000
0010
0100
0000
0001
0100
0010
1000
0000
0010
0000
,
0100
0000
0100
0000
0010
0000
0010
0000
0001
0010
1000
0100
0010
0100
0001
1000
,
0010
0000
1000
0000
0010
0000
1000
0010
0000
0010
1000
0000
0010
0000
0000
0000
,
0001
0000
1000
0000
0001
0000
1000
0001
0000
0001
1000
0000
0001
0000
0000
0000
,
0001
0000
0100
0000
0001
0000
0100
0001
0000
0001
0100
0000
0001
0000
0100
0000
,
0101
1100
1001
0220
,
0000
0000
0000
0000
,
0330
0000
0000
0000
;
