#TITLE:にゃんのパレードマーチ♪;
#SUBTITLE:;
#ARTIST:DJ TOTTO feat.にゃん;
#TITLETRANSLIT:Nyan no parade march;
#SUBTITLETRANSLIT:;
#ARTISTTRANSLIT:DJ TOTTO feat.Nyan;
#GENRE:BeatStream;
#CREDIT:;
#BANNER:;
#BACKGROUND:;
#LYRICSPATH:;
#CDTITLE:;
#MUSIC:Nyan no parade march.ogg;
#OFFSET:0.970000;
#SAMPLESTART:87.368721;
#SAMPLELENGTH:15.000000;
#SELECTABLE:YES;
#DISPLAYBPM:162.000000;
#BPMS:0.000000=161.999954
;
#STOPS:
;
#BGCHANGES:3.000=Nyan no parade march.avi=1.000=0=0=0=StretchNoLoop====,
99999=-nosongbg-=1.000=0=0=0 // don't automatically add -songbackground-
;
#KEYSOUNDS:;
#ATTACKS:;

//---------------dance-single - ----------------
#NOTES:
     dance-single:
     :
     Beginner:
     2:
     0.136201,0.132515,0.034987,0.000000,0.000000,105.000000,4.000000,0.000000,0.000000,0.000000,0.000000,0.136201,0.132515,0.034987,0.000000,0.000000,105.000000,4.000000,0.000000,0.000000,0.000000,0.000000:
0000
0000
0000
0000
,
0000
0000
0000
0000
,
0000
0000
0000
0000
,
0000
0000
0000
0000
,
0000
0000
0000
0000
,
0000
0000
0000
0000
,
1000
0000
1000
0000
,
0001
0000
0001
0000
,
1000
0000
1000
0000
,
0001
0000
0001
0000
,
1001
0000
0000
0000
,
1001
0000
0000
0000
,
0001
0000
0001
0000
,
1000
0000
1000
0000
,
0100
0000
0000
0000
,
1000
0000
0010
0000
,
0001
0000
0000
0000
,
1000
0000
0100
0000
,
0001
0000
0000
0000
,
0001
0000
0010
0000
,
1000
0000
0000
0000
,
0001
0000
0100
0000
,
1000
0000
0000
0000
,
1000
0000
0100
0000
,
1000
0000
0000
0000
,
0001
0000
0100
0000
,
0001
0000
0000
0000
,
1000
0000
0010
0000
,
1000
0000
0000
0000
,
0001
0000
0010
0000
,
0001
0000
0000
0000
,
0100
0000
0000
0000
,
1000
0000
0000
0000
,
0010
0000
0000
0000
,
0001
0000
0000
0000
,
0100
0000
0000
0000
,
1000
0000
0000
0000
,
0010
0000
0000
0000
,
0001
0000
0000
0000
,
0100
0000
0000
0000
,
1000
0000
0000
0000
,
0100
0000
0000
0000
,
0010
0000
0000
0000
,
0001
0000
0000
0000
,
0010
0000
0000
0000
,
1000
0000
0000
0000
,
0100
0000
1000
0000
,
0100
0000
0000
0000
,
0100
0000
0001
0000
,
0100
0000
0000
0000
,
0010
0000
1000
0000
,
0010
0000
0000
0000
,
0010
0000
0001
0000
,
0010
0000
0000
0000
,
1000
0000
0100
0000
,
1000
0000
0000
0000
,
0001
0000
0100
0000
,
0001
0000
0000
0000
,
1000
0000
0010
0000
,
1000
0000
0001
0000
,
1000
0000
0100
0000
,
1000
0000
0100
0000
,
1000
0000
0001
0000
,
1000
0000
0001
0000
,
0010
0000
0001
0000
,
0010
0000
0001
0000
,
1000
0000
0001
0000
,
1000
0000
0000
0000
,
0010
0000
0100
0000
,
0010
0000
0100
0000
,
1000
0000
0001
0000
,
1000
0000
0001
0000
,
0010
0000
0100
0000
,
0010
0000
0100
0000
,
1001
0000
0000
0000
,
0000
0000
0000
1001
;

//---------------dance-single - ----------------
#NOTES:
     dance-single:
     :
     Easy:
     6:
     0.391109,0.430673,0.253658,0.306139,0.000000,249.000000,29.000000,35.000000,0.000000,0.000000,0.000000,0.391109,0.430673,0.253658,0.306139,0.000000,249.000000,29.000000,35.000000,0.000000,0.000000,0.000000:
// measure 0
0000
0000
0000
0000
,  // measure 1
0000
0000
0000
0000
,  // measure 2
0000
0000
0000
0000
,  // measure 3
0000
0000
0000
0000
,  // measure 4
0000
0000
0000
0000
,  // measure 5
0000
0000
0000
0000
,  // measure 6
1000
0100
1000
0100
,  // measure 7
0001
0100
0001
0100
,  // measure 8
1000
0100
1000
0100
,  // measure 9
0001
0100
0001
0100
,  // measure 10
1001
0000
0110
0000
,  // measure 11
1100
0000
0101
0000
,  // measure 12
0001
1000
0010
0100
,  // measure 13
0001
0001
1001
0000
,  // measure 14
1000
0010
0100
0001
,  // measure 15
1000
0010
0200
0301
,  // measure 16
0010
1000
0001
0100
,  // measure 17
0010
1000
0002
0103
,  // measure 18
0010
1000
0100
0010
,  // measure 19
0001
0100
0020
0130
,  // measure 20
1000
0010
0100
0001
,  // measure 21
2000
0001
3001
0000
,  // measure 22
0020
0100
0130
0001
,  // measure 23
1000
0010
0100
0001
,  // measure 24
2000
0001
3001
0010
,  // measure 25
1000
0100
0001
0010
,  // measure 26
0002
0100
0103
0010
,  // measure 27
1000
0001
0100
0001
,  // measure 28
2000
0010
3010
0100
,  // measure 29
0001
1000
0010
0000
,  // measure 30
1000
1100
0001
0100
,  // measure 31
0010
0011
0100
0001
,  // measure 32
1000
1001
0010
1000
,  // measure 33
0001
1001
0010
1000
,  // measure 34
0100
0110
0001
1000
,  // measure 35
0010
0110
1000
0010
,  // measure 36
0001
0011
0100
1000
,  // measure 37
1100
0101
1002
0000
,  // measure 38
0100
0003
2000
0000
,  // measure 39
0010
3000
0002
0000
,  // measure 40
0100
0003
2000
0000
,  // measure 41
0010
3000
0020
0000
,  // measure 42
0001
0030
0200
0000
,  // measure 43
1000
0300
0020
0000
,  // measure 44
0001
0030
2000
3002
,  // measure 45
0203
0320
2000
0030
,  // measure 46
3010
0100
0001
0100
,  // measure 47
0010
1000
1001
0000
,  // measure 48
0100
0010
1000
0010
,  // measure 49
0100
0001
1001
0000
,  // measure 50
1000
0100
0010
0001
,  // measure 51
0010
0100
1000
0000
,  // measure 52
0001
0010
0100
1000
,  // measure 53
0100
0010
0001
0000
,  // measure 54
1100
0000
1100
0000
,  // measure 55
1100
0100
0010
0001
,  // measure 56
0011
0000
0011
0000
,  // measure 57
0011
0010
0100
1000
,  // measure 58
1001
1000
0001
1000
,  // measure 59
1001
1001
2002
3003
,  // measure 60
2000
0100
0010
3100
,  // measure 61
0002
0010
0100
0013
,  // measure 62
2000
0100
0010
3100
,  // measure 63
0002
0010
0100
0013
,  // measure 64
0001
0100
2000
3010
,  // measure 65
1000
0010
0002
0103
,  // measure 66
0010
1000
0001
0100
,  // measure 67
0020
0100
0130
0000
,  // measure 68
2000
0010
0100
3010
,  // measure 69
0002
0100
0010
0103
,  // measure 70
2000
0010
0100
3010
,  // measure 71
0002
0100
0010
0103
,  // measure 72
0001
0100
0010
2000
,  // measure 73
3010
0001
0100
0020
,  // measure 74
1030
0001
0100
0010
,  // measure 75
1000
0001
1000
0000
1001
0000
1001
0000
;

//---------------dance-single - ----------------
#NOTES:
     dance-single:
     :
     Medium:
     9:
     0.429845,0.463801,0.201177,0.174937,0.008747,301.000000,23.000000,20.000000,0.000000,0.000000,0.000000,0.429845,0.463801,0.201177,0.174937,0.008747,301.000000,23.000000,20.000000,0.000000,0.000000,0.000000:
// measure 0
0000
0000
0000
0000
,  // measure 1
0000
0000
0000
0000
,  // measure 2
0000
0000
0000
0000
,  // measure 3
0000
0000
0000
0000
,  // measure 4
0000
0000
0000
0000
,  // measure 5
0000
0000
0000
0000
,  // measure 6
1000
0100
0010
0001
,  // measure 7
1000
0100
0010
0001
,  // measure 8
0100
0010
1000
0001
,  // measure 9
0100
0010
1000
0001
,  // measure 10
1001
0000
0000
1000
0100
0000
0000
0100
,  // measure 11
0010
0000
0000
0010
0001
0000
0000
0001
,  // measure 12
1000
1000
0001
0001
,  // measure 13
1000
0000
0000
0001
0000
0000
1000
0000
0001
0000
0000
0000
0000
0000
0000
0000
,  // measure 14
0010
0000
1000
0000
0001
0000
0100
0010
,  // measure 15
1000
0001
0100
0000
1001
0000
0010
0000
,  // measure 16
1000
0000
0001
0000
0100
0000
0010
0100
,  // measure 17
0001
1000
0010
0000
0110
0000
0001
0000
,  // measure 18
1000
0000
0010
0000
0100
0000
0001
0100
,  // measure 19
0010
1000
0001
0000
1001
0000
0010
0000
,  // measure 20
1000
0100
0010
0001
,  // measure 21
0010
0001
0010
0000
0100
0000
1000
0000
,  // measure 22
1000
0000
0010
0000
0100
0000
0010
0100
,  // measure 23
0001
1000
0010
0000
1100
0000
1000
0000
,  // measure 24
0010
0000
0100
0000
0001
0000
0100
0010
,  // measure 25
1000
0001
0100
0000
0011
0000
0100
0000
,  // measure 26
0001
0000
1000
0000
0010
0000
0100
0001
,  // measure 27
0100
0010
1000
0000
1100
0000
0000
0000
,  // measure 28
1000
0100
0010
0000
0100
0010
0001
0000
,  // measure 29
0001
0010
0100
0000
0010
0100
1000
0000
,  // measure 30
1000
1100
1000
0101
,  // measure 31
0001
0011
0010
1010
,  // measure 32
0001
1001
0010
0100
,  // measure 33
0001
0000
1000
0000
0001
1000
1001
0000
,  // measure 34
0010
1000
0001
1000
,  // measure 35
0001
0010
0100
0010
,  // measure 36
1000
0100
0001
0010
,  // measure 37
0001
0010
0100
1000
0010
0000
0100
0000
,  // measure 38
0002
0100
0100
0000
,  // measure 39
2003
0010
0010
0000
,  // measure 40
3020
0100
0100
0000
,  // measure 41
0230
0001
0001
0000
,  // measure 42
0310
1000
0002
0000
,  // measure 43
0103
0010
2000
0000
,  // measure 44
3010
0100
0001
0010
,  // measure 45
1000
0010
0100
0001
1000
0000
0000
0000
,  // measure 46
0002
0100
0010
0100
,  // measure 47
2003
0010
0100
3010
,  // measure 48
0002
0100
0010
0100
,  // measure 49
2003
0010
0100
0010
,  // measure 50
3001
0010
0200
0310
,  // measure 51
1000
0001
0020
0130
,  // measure 52
0001
1000
0010
0100
,  // measure 53
0001
0100
0010
1000
0001
0000
0000
0000
,  // measure 54
1100
0000
1100
0000
,  // measure 55
1100
0010
0100
0010
,  // measure 56
0011
0000
0011
0000
,  // measure 57
0011
0010
0100
0010
,  // measure 58
1000
0100
0010
0001
,  // measure 59
0001
0000
0000
1000
0000
0000
0001
0000
1000
0000
0000
0000
0000
0000
0000
0000
,  // measure 60
1001
1001
0010
1000
,  // measure 61
0001
0100
0010
0000
2000
0000
3010
0000
,  // measure 62
0001
1000
0010
0100
,  // measure 63
0001
1000
0010
0000
0002
0000
0103
0000
,  // measure 64
0010
1000
0100
0001
,  // measure 65
1000
0010
0200
0000
0310
0000
0001
0000
,  // measure 66
1000
0010
0100
0001
,  // measure 67
0001
0100
0020
0000
1030
0000
0001
0000
,  // measure 68
0200
1000
0001
1300
,  // measure 69
0020
1000
0001
1030
,  // measure 70
0200
0001
1000
0301
,  // measure 71
0020
1000
0001
1030
,  // measure 72
0001
0100
0010
0000
1000
0000
0001
0000
,  // measure 73
1000
0010
0100
0000
0001
0000
1000
0000
,  // measure 74
0001
0100
0010
1000
0001
0000
1001
0000
,  // measure 75
0100
0010
1000
0001
0100
0000
0110
0000
;

//---------------dance-single - ----------------
#NOTES:
     dance-single:
     :
     Hard:
     12:
     0.569794,0.563187,0.419848,0.236165,0.078722,381.000000,48.000000,27.000000,0.000000,0.000000,0.000000,0.569794,0.563187,0.419848,0.236165,0.078722,381.000000,48.000000,27.000000,0.000000,0.000000,0.000000:
// measure 0
0000
0000
0000
0000
,  // measure 1
0000
0000
0000
0000
,  // measure 2
0000
0000
0000
0000
,  // measure 3
0000
0000
0000
0000
,  // measure 4
0000
0000
0000
0000
,  // measure 5
0000
0000
0000
0000
,  // measure 6
1000
0000
0100
0000
0010
0000
0001
0100
,  // measure 7
0001
0100
0010
0000
1000
0000
0001
0000
,  // measure 8
0100
0000
0010
1000
0010
1000
0010
0000
,  // measure 9
0100
0001
1001
0000
,  // measure 10
0110
0000
0000
0000
0000
0000
1000
0010
1000
0000
0000
0000
0000
0000
0001
0100
,  // measure 11
0001
0000
0000
0000
0000
0000
0001
1000
0001
0000
0000
0000
0000
0000
0000
0000
,  // measure 12
0001
0000
0010
0000
0100
0010
0100
0000
,  // measure 13
1000
0001
0000
1000
0001
0000
1000
0000
0001
0000
0000
0000
0000
0000
0000
0000
,  // measure 14
1001
0000
1010
0000
1001
0000
0001
0100
,  // measure 15
0010
1000
0001
0000
1001
0000
0010
0000
,  // measure 16
1001
0000
0101
0000
1001
0000
0010
0100
,  // measure 17
0001
1000
0010
0000
0110
0000
0001
1000
,  // measure 18
0010
0000
1100
0000
0101
0000
0001
1000
,  // measure 19
0010
0100
0001
0000
0011
0000
0001
0100
,  // measure 20
0010
0000
0010
0100
1000
0010
0100
0001
,  // measure 21
0010
0100
1000
0001
1001
0000
0000
0000
,  // measure 22
1000
0000
0010
0000
0100
0000
0001
0100
,  // measure 23
0010
1000
0001
0000
1001
0000
1000
0010
,  // measure 24
0100
0001
1000
0010
,  // measure 25
1000
0010
0100
0001
1000
0000
1001
0000
,  // measure 26
0010
1000
0100
0000
0010
0100
0001
0000
,  // measure 27
0001
0010
0100
1000
0010
0000
0110
0000
,  // measure 28
1000
0010
0100
0000
0010
0100
0001
0000
,  // measure 29
0001
0010
0100
1000
0010
0000
0101
0000
,  // measure 30
0200
0310
0020
0031
,  // measure 31
0002
1003
2000
3010
,  // measure 32
0020
0032
0203
0320
,  // measure 33
2030
0000
3002
0000
0203
0001
0301
0000
,  // measure 34
0020
1030
2000
3100
,  // measure 35
0200
0301
0002
0013
,  // measure 36
0020
0230
0302
1003
,  // measure 37
0001
1000
0000
0001
1000
0000
0001
0000
0100
0000
0010
0000
1000
0000
0001
0000
,  // measure 38
0100
0000
1100
0000
0101
0000
0001
1000
,  // measure 39
0010
0100
0001
0000
0011
0000
0001
1000
,  // measure 40
0010
0000
0010
1000
0001
0000
0001
0100
,  // measure 41
1000
0100
0010
0001
1001
0000
0010
1000
,  // measure 42
0100
0000
0010
0000
1001
0000
0010
1000
,  // measure 43
0001
0100
0010
0000
0110
0000
0001
0010
,  // measure 44
0100
0000
0010
0100
1000
0000
1000
0100
,  // measure 45
0010
0000
0100
0010
0001
0000
0100
0000
,  // measure 46
0020
1000
0100
0031
,  // measure 47
0200
0001
0010
1300
,  // measure 48
0002
1000
0100
0013
,  // measure 49
2000
0001
0010
3100
,  // measure 50
0020
0100
0001
0130
,  // measure 51
0200
0010
1000
0310
,  // measure 52
0001
0100
0010
1000
,  // measure 53
0010
1000
0001
0100
0010
0000
1000
0000
,  // measure 54
1100
0000
0101
0000
,  // measure 55
1100
0101
1100
0101
,  // measure 56
0011
0000
1010
0000
,  // measure 57
0011
1010
0011
1010
,  // measure 58
0001
1000
0010
0000
0010
1000
0001
0000
,  // measure 59
0001
1000
0000
0001
1000
0000
0001
0000
0010
0000
1000
0000
0001
0000
0100
0000
,  // measure 60
0010
0000
1100
0000
0101
0000
0001
1000
,  // measure 61
0010
0000
0100
0010
0100
0000
0001
0000
1000
0000
0000
0000
0010
0000
1000
0000
,  // measure 62
0001
0000
0001
1000
0010
0000
1000
0010
,  // measure 63
0100
0000
0001
0100
0001
0000
0010
0000
0100
0000
0000
0000
1000
0000
0010
0000
,  // measure 64
0100
0000
1100
0000
0101
0000
0001
1000
,  // measure 65
0010
0000
1000
0001
1000
0000
0010
0000
0000
0000
0000
0000
0001
0000
1000
0000
,  // measure 66
0010
0000
1000
0010
0100
0001
0010
0100
,  // measure 67
1000
0000
0010
0100
0010
0000
0100
0000
2002
0000
0000
0000
3003
0000
0000
0000
,  // measure 68
1100
0000
0101
0000
1000
0000
0001
1000
,  // measure 69
0010
0000
0100
0001
1000
0000
0010
0000
0100
0000
0000
0000
0001
0000
1000
0000
,  // measure 70
0010
0000
0010
1000
0001
0000
0001
0100
,  // measure 71
0010
0000
1000
0010
0100
0000
0001
0000
0010
0000
0000
0000
1000
0000
0001
0000
,  // measure 72
0011
0000
0110
0000
1001
0000
0010
0100
,  // measure 73
0001
0000
0001
0100
0010
0000
0001
0000
0020
0000
0000
0000
0000
0000
0031
0100
,  // measure 74
1000
0000
0010
0000
1000
0000
0100
0000
0010
0000
0100
1000
0001
0000
0010
0000
,  // measure 75
1000
0010
0100
0001
1001
0000
0110
0000
;
