#TITLE:廿;
#SUBTITLE:;
#ARTIST:DJ TECHNORCH;
#TITLETRANSLIT:Nijuu;
#SUBTITLETRANSLIT:;
#ARTISTTRANSLIT:;
#GENRE:beatmania IIDX;
#CREDIT:;
#BANNER:;
#BACKGROUND:;
#LYRICSPATH:;
#CDTITLE:;
#MUSIC:Nijuu.ogg;
#OFFSET:1.450000;
#SAMPLESTART:23.529739;
#SAMPLELENGTH:15.000000;
#LASTBEATHINT:0.830272;
#SELECTABLE:YES;
#DISPLAYBPM:120.000000:160.000000;
#BPMS:0.000000=120.000000
,26.000000=160.000000
;
#STOPS:
;
#BGCHANGES:;
#KEYSOUNDS:;
#ATTACKS:;

//---------------dance-single - ----------------
#NOTES:
     dance-single:
     :
     Beginner:
     3:
     0.137125,0.281664,0.039995,0.015998,0.000000,120.000000,115.000000,5.000000,2.000000,0.000000,0.000000,0.137125,0.281664,0.039995,0.015998,0.000000,120.000000,115.000000,5.000000,2.000000,0.000000,0.000000:
0000
0000
0000
0000
,
1001
0000
0000
0000
,
0110
0000
0000
0000
,
1001
0000
0000
0000
,
0110
0000
0000
0000
,
2002
0000
0000
0000
,
3003
0000
0100
0000
,
0000
0000
0100
0000
,
0000
0000
0010
0000
,
0000
0000
0010
0000
,
0000
0000
0100
0000
,
0000
0000
0100
0000
,
0000
0000
0010
0000
,
0000
0000
0010
0000
,
0000
0000
1000
0000
,
0000
0000
0100
0000
,
0000
0000
1000
0000
,
0000
0000
0010
0000
,
0010
0000
0001
0000
,
0000
0000
0100
0000
,
0000
0000
0001
0000
,
0000
0000
0010
0000
,
0010
0000
0100
0000
,
0000
0000
1000
0000
,
0000
0000
0100
0000
,
0000
0000
0001
0001
,
0001
0000
0010
0000
,
0000
0000
0001
0000
,
0000
0000
0010
0000
,
0000
0000
1000
1000
,
1000
0000
0100
0000
,
0100
0000
0010
0000
,
0010
0000
1000
0000
,
1000
0000
0001
0000
,
0001
0000
1000
0000
,
1000
0000
0010
0000
,
0010
0000
0100
0000
,
0100
0000
0001
0001
,
0001
0000
1000
0000
,
1000
0000
0100
0000
,
0000
0000
0001
0000
,
0001
0000
0100
0000
,
0000
0000
1000
0000
,
1000
0000
0010
0000
,
0000
0000
0001
0000
,
0001
0000
0010
0000
,
0000
0000
0100
0000
,
0100
0000
1000
0000
,
0000
0000
0010
0000
,
0010
0000
0001
0000
,
0000
0000
0100
0000
,
0100
0000
0010
0000
,
0000
0000
0001
0000
,
0000
0000
1000
0000
,
0000
0000
0001
0000
,
0000
0000
1000
0000
,
0000
0000
0010
0000
,
0000
0000
0100
0000
,
0000
0000
1000
0000
,
0000
0000
0100
0000
,
0000
0000
0010
0000
,
0000
0000
0001
0000
,
0001
0000
0001
0000
,
0000
0000
0010
0000
,
0000
0000
0100
0000
,
0000
0000
1000
0000
,
1000
0000
1000
0000
,
0000
0000
0010
0000
,
0000
0000
0100
0000
,
0000
0000
0001
0000
,
0001
0000
0001
0000
,
0000
0000
0100
0000
,
0000
0000
0010
0000
,
0000
0000
1000
0000
,
1000
0000
0100
0100
,
0100
0100
0100
0100
,
0100
0100
0100
0100
,
0100
0100
0100
0100
,
0100
0100
0000
0000
;

//---------------dance-single - ----------------
#NOTES:
     dance-single:
     :
     Easy:
     7:
     0.341671,0.407498,0.175977,0.143982,0.000000,299.000000,277.000000,22.000000,18.000000,0.000000,0.000000,0.341671,0.407498,0.175977,0.143982,0.000000,299.000000,277.000000,22.000000,18.000000,0.000000,0.000000:
0000
0000
0000
0000
,
1001
0000
0000
0010
,
0110
0000
0000
0000
,
1001
0000
0000
0100
,
0110
0000
0000
0000
,
2002
0000
0000
0000
,
3003
0000
0100
0100
,
0100
0010
1000
1000
,
1000
0001
0010
0010
,
0010
0100
1000
1000
,
1000
0001
0100
1000
,
0010
0001
0100
1000
,
0010
0001
0100
0010
,
1000
0001
0220
0330
,
2002
3003
0001
0100
,
1000
0010
1000
0100
,
0001
0010
0100
1000
,
0001
0010
1000
1000
,
0001
0001
1000
0010
,
0100
0001
0001
0100
,
0010
1000
1000
0100
,
0010
0001
0100
0010
,
1000
1001
0010
1000
,
0100
0001
0010
0100
,
0001
1000
0100
0010
,
0001
1000
0100
0100
,
0010
0010
0001
1000
,
0100
0010
0001
0100
,
0010
1000
0001
0001
,
1000
1000
0010
0100
,
0220
0330
2000
0000
,
3001
0000
0020
0000
,
0130
0000
0002
0000
,
0013
0000
2000
0000
,
3100
0000
0020
0000
,
0130
0000
2000
0000
,
3001
0000
0002
0000
,
0013
0000
0100
0100
,
0100
0010
1000
0100
,
0010
0001
0100
0010
,
1000
0001
0010
0010
,
0100
0100
0001
0001
,
1000
1000
0100
0010
,
1000
0001
0010
0100
,
1000
0001
0100
0100
,
0010
0010
1000
0001
,
1000
0001
0100
1000
,
0010
0001
0100
0010
,
1000
0001
0011
0010
,
0110
0100
1100
1000
,
1001
0010
1000
0100
,
0010
0001
0100
0010
,
1000
0001
0011
0010
,
0110
0100
1100
1000
,
1001
0100
0010
0010
,
0010
0010
0010
0010
,
0010
0000
0010
0000
0010
0100
0010
0100
,
0010
0100
0010
0100
0020
0000
0000
0000
,
0000
0000
1030
0000
,
1000
0100
0010
0000
,
0001
0010
0100
0000
,
0100
0001
1000
1000
,
0010
0100
0001
0000
,
0100
0001
0010
0000
,
1000
0010
0100
0000
,
0001
0100
1000
1000
,
0010
0100
0001
0100
,
1000
0110
0001
1000
,
0010
0011
0001
0100
,
0010
1100
1000
0100
,
0010
0100
0001
0010
,
1000
1001
1000
0010
,
0001
1001
0100
1000
,
0010
0001
0100
1000
,
0001
0010
0200
0010
,
1000
0310
0020
0100
,
0001
0130
1000
0001
,
0100
0000
0010
0000
1000
0001
1000
0001
,
0010
0100
0010
0100
0000
0000
0000
0000
;

//---------------dance-single - ----------------
#NOTES:
     dance-single:
     :
     Medium:
     9:
     0.429659,0.532882,0.135983,0.039995,0.007999,376.000000,359.000000,17.000000,5.000000,0.000000,0.000000,0.429659,0.532882,0.135983,0.039995,0.007999,376.000000,359.000000,17.000000,5.000000,0.000000,0.000000:
// measure 0
0000
0000
0000
0000
,  // measure 1
1100
0000
0000
0000
0000
0000
0000
0000
0000
0000
0100
0000
,  // measure 2
0110
0000
0000
0000
,  // measure 3
0011
0000
0000
0000
0000
0000
0000
0000
0000
0000
0001
0000
,  // measure 4
1001
0000
0000
0000
,  // measure 5
0220
0000
0000
0000
,  // measure 6
0330
0000
1000
1000
,  // measure 7
1000
0100
0010
0000
0001
0000
0001
0000
,  // measure 8
0001
0010
0100
0000
1000
0000
1000
0000
,  // measure 9
1000
0100
0010
0000
0001
0000
0001
0000
,  // measure 10
0001
0010
0100
0000
1000
0000
1000
0000
,  // measure 11
1000
0001
0010
0000
0001
0000
0001
0000
,  // measure 12
0001
1000
0100
0000
0010
0100
0010
0000
,  // measure 13
1000
0001
1000
0000
0200
0000
0000
0000
,  // measure 14
0310
0000
0001
0010
,  // measure 15
1000
0100
1000
0000
0010
0000
1000
0000
,  // measure 16
0100
0010
1000
0100
,  // measure 17
0001
0010
0001
0000
0001
0000
0100
0000
,  // measure 18
0010
1000
1000
1000
,  // measure 19
0010
0100
0010
0000
0001
0000
0001
0000
,  // measure 20
0100
0010
0100
0000
1000
0000
0010
0000
,  // measure 21
0100
0001
0200
0010
,  // measure 22
0010
1300
0010
1000
,  // measure 23
0010
1001
0010
0001
,  // measure 24
0010
1001
0100
1000
,  // measure 25
0010
0001
0011
0010
,  // measure 26
0110
0100
1100
1000
,  // measure 27
0010
1000
0001
0000
0100
0000
0010
0000
,  // measure 28
0001
1000
0010
0000
1000
0000
0100
0000
,  // measure 29
0001
0000
0010
0000
1000
0001
1000
0000
,  // measure 30
0010
0100
0010
0000
0001
0000
0001
0000
,  // measure 31
1000
0001
1000
0000
1000
0000
1000
0000
,  // measure 32
0001
1000
0001
0000
0100
0000
0100
0000
,  // measure 33
0100
0010
0100
0000
0100
0000
1000
0000
,  // measure 34
0010
0001
0010
0010
,  // measure 35
0100
0010
0100
0000
0001
0000
0001
0000
,  // measure 36
1000
0001
1000
0000
0100
0000
1000
0000
,  // measure 37
0010
0100
0010
0000
0001
0000
0010
0000
,  // measure 38
0001
1000
0001
0000
0100
0000
1000
0000
,  // measure 39
0100
0010
0001
0010
,  // measure 40
0100
0010
1000
1000
,  // measure 41
0001
0010
0001
0001
,  // measure 42
1000
0100
1000
0010
,  // measure 43
0100
0001
0010
0100
,  // measure 44
0001
1000
0010
1000
,  // measure 45
0001
0010
0001
0000
0100
0000
1000
0000
,  // measure 46
0010
0100
0010
0000
1000
0000
0100
0000
,  // measure 47
0001
0010
0001
0100
,  // measure 48
0010
1000
0100
0001
,  // measure 49
0010
0100
0010
0000
1000
0000
0010
0000
,  // measure 50
0001
1000
0001
0000
1000
0000
0100
0000
,  // measure 51
0010
0001
0100
0010
,  // measure 52
1000
0000
0001
0000
0100
1000
0100
0000
,  // measure 53
0010
0000
0100
0000
0001
0010
0001
0000
,  // measure 54
1000
0010
0001
0100
,  // measure 55
1000
0010
0001
0100
,  // measure 56
1000
0000
0010
0000
0010
0100
0010
0100
,  // measure 57
0001
1000
0001
1000
0020
0000
0100
0000
,  // measure 58
0001
0000
0130
0000
0001
0100
1000
0000
,  // measure 59
0010
0000
1001
0000
1000
0100
0001
0000
,  // measure 60
0010
0000
1001
0000
0100
1000
0001
0000
,  // measure 61
0010
0000
0101
0000
0100
0010
1000
0000
,  // measure 62
0100
0000
1010
0000
0100
1000
0001
0000
,  // measure 63
0010
0000
1001
0000
0010
1000
0100
0000
,  // measure 64
0001
0000
0011
0000
0001
0100
1000
0000
,  // measure 65
0010
0000
1001
0000
1000
0100
0010
0001
,  // measure 66
0010
0100
1000
0001
0010
0000
1000
0000
,  // measure 67
0010
0100
0001
0000
1000
0000
0001
0000
,  // measure 68
0100
1000
0010
0000
0100
0000
0001
0000
,  // measure 69
0010
1000
0100
0000
0010
0000
0001
0000
,  // measure 70
0100
0010
0001
0010
0100
0000
1000
0000
,  // measure 71
0010
0100
0001
0000
1000
0000
0010
0000
,  // measure 72
1000
0010
0100
0000
0001
0000
0010
0000
,  // measure 73
1000
0100
0010
0000
0001
0000
0100
0000
,  // measure 74
1000
0100
0010
0100
1000
0000
0010
0000
,  // measure 75
1000
0010
1000
0010
0001
0000
0010
0000
,  // measure 76
0001
0010
0001
0010
1000
0010
1000
0010
,  // measure 77
0001
0010
0001
0010
1000
0100
1000
0100
,  // measure 78
0001
0100
0001
0100
0000
0000
0000
0000
;

//---------------dance-single - ----------------
#NOTES:
     dance-single:
     :
     Hard:
     13:
     0.619349,0.784275,0.151981,0.039995,0.103987,542.000000,523.000000,19.000000,5.000000,0.000000,0.000000,0.619349,0.784275,0.151981,0.039995,0.103987,542.000000,523.000000,19.000000,5.000000,0.000000,0.000000:
// measure 0
0000
0000
0000
0000
,  // measure 1
0011
0000
0000
0000
0000
0000
0000
0000
0000
0000
0010
0100
,  // measure 2
0110
0000
0000
0000
,  // measure 3
1100
0000
0000
0000
0000
0000
0000
0000
0000
0000
1000
0001
,  // measure 4
1001
0000
0000
0000
,  // measure 5
0022
0000
0000
0000
,  // measure 6
0000
0000
0033
0000
0010
0100
0010
0100
,  // measure 7
0001
1000
0001
1000
0010
1000
0001
0100
,  // measure 8
0010
0000
0101
0000
0010
0100
0010
0100
,  // measure 9
0001
1000
0001
1000
0001
1000
0100
0010
,  // measure 10
0001
0000
1001
0000
1000
0010
1000
0001
,  // measure 11
1000
0010
1000
0001
0100
0010
1000
0001
,  // measure 12
0100
0000
1100
0000
1000
0010
0100
0010
,  // measure 13
1000
0010
0100
0010
0002
0000
0000
0000
,  // measure 14
0203
0000
0000
0000
0310
1000
0010
1000
,  // measure 15
0010
1000
0100
0100
0001
0100
0001
0100
,  // measure 16
0001
0100
0010
0010
1000
0010
1000
0010
,  // measure 17
1000
0010
0100
0100
0001
0100
0001
0100
,  // measure 18
0001
0100
0010
0010
0001
0100
1000
0100
,  // measure 19
0001
0100
1000
1000
0010
0001
0010
1000
,  // measure 20
0010
0001
0010
0010
1000
0100
0010
0001
,  // measure 21
0010
0100
1000
1000
0001
0010
0100
1000
,  // measure 22
0100
0010
0001
0001
0010
0100
1000
0000
,  // measure 23
0010
0100
0001
0000
0100
0010
0001
0000
,  // measure 24
1000
0010
0100
0001
0010
0100
1000
0000
,  // measure 25
0001
0100
0010
0000
1000
0010
0100
0000
,  // measure 26
0001
0100
1000
0010
0001
1000
0100
0000
,  // measure 27
0010
0100
0001
0000
1000
0010
0100
0000
,  // measure 28
0001
0100
1000
0010
0001
1000
1000
0010
,  // measure 29
0001
0100
0100
0010
0001
1000
1000
0010
,  // measure 30
0100
0000
0001
0000
0001
0000
0010
0000
0100
0000
0000
0100
0000
0000
0100
0000
,  // measure 31
0010
0000
0000
0000
0101
0000
0000
0000
0010
0000
0000
0010
0000
0000
0010
0000
,  // measure 32
0100
0000
0000
0000
1001
0000
0000
0000
1000
0000
0000
1000
0000
0000
1000
0000
,  // measure 33
0001
0000
1010
0000
1000
0100
0010
0001
,  // measure 34
0010
0000
0100
0000
1000
0000
0000
0000
0001
0000
0000
0001
0000
0000
1000
0000
,  // measure 35
0010
0000
0000
0000
1100
0000
0000
0000
0100
0000
0000
0100
0000
0000
0010
0000
,  // measure 36
1000
0000
0000
0000
0011
0000
0000
0000
1000
0000
0000
1000
0000
0000
0001
0000
,  // measure 37
0100
0000
0110
0000
1000
0100
0010
0001
,  // measure 38
0010
0100
1000
0000
0010
0100
0010
0100
,  // measure 39
0001
1000
0001
1000
0001
0010
1000
0000
,  // measure 40
1000
0100
0001
0000
0100
0010
0100
0010
,  // measure 41
0001
1000
0001
1000
0001
0010
1000
0000
,  // measure 42
1000
0100
0001
0000
0100
1000
0010
0001
,  // measure 43
0010
0100
1000
0000
0010
0001
0100
1000
,  // measure 44
0010
0001
0100
0000
1000
0100
0100
1000
,  // measure 45
0100
0100
0010
0001
0010
0010
0001
0010
,  // measure 46
0010
0001
0100
0000
1000
0100
0010
0100
,  // measure 47
0001
0010
0100
0000
0001
0100
0010
0100
,  // measure 48
1000
0100
0010
0000
1000
0100
0001
0001
,  // measure 49
0010
0100
1000
1000
0001
0100
0010
0010
,  // measure 50
0100
0001
0100
0100
0010
1000
0100
0010
,  // measure 51
0001
0010
0100
0000
0001
1000
0010
0100
,  // measure 52
0001
0010
1000
0000
1000
0010
0100
0001
,  // measure 53
0010
0100
1000
0010
1000
0100
0010
0001
,  // measure 54
0010
0100
1000
0010
0100
0100
0010
0010
,  // measure 55
1000
1000
0001
0001
0100
0100
0010
0010
,  // measure 56
1000
0000
1000
0000
0001
0000
0001
0000
1000
0001
1000
0001
1000
0001
1000
0001
,  // measure 57
1000
0001
1000
0001
1000
0001
1000
0001
2000
0000
0000
0000
0000
0000
0000
0000
,  // measure 58
0000
0000
3001
0001
,  // measure 59
0100
0010
1000
0000
0100
0000
0100
0000
,  // measure 60
0010
0100
0001
1000
0100
0000
0100
0000
,  // measure 61
1000
0001
0010
0000
1000
1000
0010
0100
,  // measure 62
0001
0001
0010
0100
1000
0000
1001
0000
,  // measure 63
0010
1000
0100
0000
0001
0000
0110
0000
,  // measure 64
0001
0100
1000
0000
0010
0000
1001
0000
,  // measure 65
1000
0100
0010
0000
0001
0001
0100
0010
,  // measure 66
1000
1000
0010
0100
0001
0001
0100
1000
,  // measure 67
0010
0100
0001
1000
0010
0010
1000
0100
,  // measure 68
0010
0001
0010
0100
1000
1000
0010
0100
,  // measure 69
0001
1000
0010
0001
0100
0100
0010
1000
,  // measure 70
0010
0100
0001
0010
0100
1000
0010
0100
,  // measure 71
0001
1000
1001
0000
0001
0100
0010
1000
,  // measure 72
0100
0001
0110
0000
0001
0010
0100
1000
,  // measure 73
0010
0010
0100
0100
0001
1000
0010
0100
,  // measure 74
0001
0001
1000
1000
0010
0100
0001
1000
,  // measure 75
0010
0100
0001
1000
0010
0100
1000
0100
,  // measure 76
0001
0010
1000
0100
0001
0010
0100
1000
,  // measure 77
0010
0000
0100
0000
0001
0000
1000
0000
0010
0001
0010
0001
0010
0001
0010
0001
,  // measure 78
0010
0001
0010
0001
0010
0001
0010
0001
0000
0000
0000
0000
0000
0000
0000
0000
;

//---------------dance-single - ----------------
#NOTES:
     dance-single:
     :
     Challenge:
     16:
     0.876459,1.035243,0.199974,0.039995,0.783900,767.000000,742.000000,25.000000,5.000000,0.000000,0.000000,0.876459,1.035243,0.199974,0.039995,0.783900,767.000000,742.000000,25.000000,5.000000,0.000000,0.000000:
// measure 0
0000
0000
0000
0000
,  // measure 1
1010
0000
0000
0000
0000
0000
0000
0000
0000
0000
0100
0110
,  // measure 2
1100
0000
0000
0000
,  // measure 3
0101
0000
0000
0000
0000
0000
0000
0000
0000
0000
1000
1001
,  // measure 4
0011
0000
0000
0000
,  // measure 5
0012
0000
0000
0010
0000
0000
0000
0000
0010
0000
0000
0010
0000
0000
0000
0000
0000
0000
0000
0100
0000
0000
0100
0000
,  // measure 6
0000
0100
0000
0000
0000
0000
1003
0000
0000
0000
0000
0000
0100
0000
0000
0010
0000
0000
1000
0000
0000
0010
0000
0000
,  // measure 7
0100
0000
0001
0000
0010
0000
0100
0000
1000
0000
0010
0000
1000
0001
1000
0001
,  // measure 8
1000
0000
0110
0000
0001
1000
0010
1000
,  // measure 9
0100
0000
0010
0000
0001
0000
0010
0000
0100
0000
1000
0000
0010
0100
0010
0100
,  // measure 10
0010
0000
1000
0001
1001
0000
0000
0000
0010
0000
1000
0000
0100
0000
0010
0000
,  // measure 11
0001
0000
0010
0000
0100
0000
1000
0000
0010
0000
0100
0000
0001
0010
0001
0010
,  // measure 12
0001
0000
1010
0000
0001
0100
0010
1000
,  // measure 13
0010
0100
0010
0100
0001
1000
0001
1000
0020
0000
0000
0000
0000
0000
0000
0000
,  // measure 14
0230
0000
0000
0000
0000
0000
0000
0300
0001
0100
0001
0000
0010
0000
0100
0000
,  // measure 15
1000
0000
0100
0000
0010
0000
0100
0000
1000
0100
1000
0000
0010
0000
0100
0000
,  // measure 16
0001
0000
1000
0000
0010
0000
0100
0000
0010
0100
0010
0000
0001
0000
0010
0000
,  // measure 17
1000
0000
0100
0000
0010
0000
0001
0000
1000
0001
1000
0000
0010
0000
1000
0000
,  // measure 18
0100
0000
0010
0000
0001
0000
0010
0000
0100
0010
0100
0000
0001
0000
0010
0000
,  // measure 19
0100
0000
1000
0000
0010
0000
0100
0000
0001
0010
0001
0000
0010
0000
0100
0000
,  // measure 20
0010
0000
1000
0000
0001
0000
0010
0000
1000
0100
1000
0000
0010
0000
1000
0000
,  // measure 21
0001
0000
0100
0000
0010
0000
1000
0000
0010
0100
0010
0000
0001
0000
1000
0000
,  // measure 22
0001
1000
0001
0000
0010
0000
0100
0000
0010
0100
0010
0100
0010
0000
0001
0000
,  // measure 23
1000
0000
0010
0000
0100
0000
0001
0000
1000
0001
1000
0001
1000
0000
0010
0000
,  // measure 24
1000
0000
0100
0000
0010
0000
0001
0000
0010
0001
0010
0001
0010
0000
0100
0000
,  // measure 25
0010
0000
1000
0000
0001
0000
0100
0000
1000
0100
1000
0100
1000
0000
0010
0000
,  // measure 26
0100
0000
0001
0000
1000
0000
0010
0000
0100
0010
0100
0010
1000
0000
0001
0000
,  // measure 27
1000
0000
0010
0000
0100
0000
0001
0000
1000
0001
1000
0001
0100
0000
0010
0000
,  // measure 28
1000
0000
0100
0000
0010
0000
0001
0000
1000
0100
1000
0100
0001
0000
0010
0000
,  // measure 29
0001
0010
0001
0010
1000
0000
0100
0000
0010
1000
0010
0100
0001
0010
1000
0100
,  // measure 30
0010
0100
0010
1000
0001
0100
0010
1000
0100
0000
0000
1100
0000
0000
0101
0000
,  // measure 31
0100
0010
1000
0010
0000
0000
0000
0000
0001
0000
0000
0101
0000
0000
1100
0000
,  // measure 32
0010
0001
0010
0100
0000
0000
0000
0000
0001
0000
0000
1001
0000
0000
0110
0000
,  // measure 33
0001
0000
1000
0000
0010
0000
0100
0000
0001
0100
0001
0100
0010
0100
0010
0100
,  // measure 34
0010
1000
0010
1000
0010
1000
0001
1000
0001
0000
0000
1010
0000
0000
1001
0000
,  // measure 35
0010
0100
0010
0100
0001
0000
0000
0000
1000
0000
0000
0101
0000
0000
1001
0000
,  // measure 36
0100
0010
0100
0010
1000
0000
0000
0000
0010
0000
0000
0110
0000
0000
1001
0000
,  // measure 37
1000
0100
0010
0001
1000
0000
0000
0000
0001
0100
0010
1000
0001
0100
0010
0100
,  // measure 38
0010
1000
0001
0100
0010
1000
0010
0100
0001
0000
0100
0000
0010
0000
0100
0000
,  // measure 39
1000
0010
1000
0100
0010
0100
0001
0010
,  // measure 40
0100
0000
1000
0000
0010
0000
0100
0000
0001
0100
0001
0100
0001
0000
0010
0000
,  // measure 41
1000
0100
1000
0100
1000
0000
0010
0000
0001
0100
0001
0100
0001
0000
0010
0000
,  // measure 42
1000
0100
1000
0100
1000
0000
0010
0000
0001
0000
0010
0000
0100
0000
1000
0000
,  // measure 43
0100
0010
1000
0001
0010
1000
0100
0010
,  // measure 44
1000
0000
0001
0000
0100
0000
0010
0000
0001
0010
0001
0010
0001
0000
0100
0000
,  // measure 45
1000
0010
1000
0010
1000
0000
0100
0000
0001
0010
0001
0010
0001
0000
0100
0000
,  // measure 46
1000
0010
1000
0010
1000
0000
0100
0000
0001
0000
0010
0000
1000
0000
0100
0000
,  // measure 47
0010
0001
0100
0010
1000
0100
0001
0010
,  // measure 48
0100
0000
0010
0000
1000
0000
0010
0000
1000
0010
1000
0010
1000
0000
0010
0000
,  // measure 49
0100
0010
0100
0010
0100
0000
0010
0000
1000
0010
1000
0010
1000
0000
0010
0000
,  // measure 50
0100
0010
0100
0010
0100
0000
0010
0000
1000
0000
0100
0000
0001
0000
0010
0000
,  // measure 51
0100
1000
0010
0100
0001
0010
1000
0100
,  // measure 52
0010
0000
0100
0000
0001
0000
0100
0000
0001
0100
0001
0100
0001
0000
0100
0000
,  // measure 53
0010
0100
0010
0100
0010
0000
0100
0000
0001
0100
0001
0100
0001
0000
0100
0000
,  // measure 54
0010
0100
0010
0100
0010
0000
0100
0000
0001
0000
0001
0000
0100
0000
0100
0000
,  // measure 55
0010
0000
0010
0000
1000
0000
1000
0000
0001
1000
0001
0000
0010
0000
1000
0000
,  // measure 56
0100
0010
0100
0000
0001
0000
0100
0000
0001
0010
0100
1000
0010
1000
0100
0010
,  // measure 57
0001
0100
0010
0100
1000
0001
0100
0010
0220
0000
0000
0000
0000
0000
0000
0000
,  // measure 58
0000
0000
0330
0000
0010
1000
0001
0100
,  // measure 59
0010
1000
0100
0010
0001
0100
0010
1000
,  // measure 60
0001
0100
0110
0001
0100
0010
1000
0100
,  // measure 61
0010
0000
0001
0000
0100
0000
0010
0000
1000
0010
1000
0010
1000
0010
1000
0010
,  // measure 62
1000
0001
1000
0001
1000
0001
1000
0001
1000
0000
0010
0000
1000
0000
0100
0000
,  // measure 63
0010
0100
0001
0010
0100
1000
0010
0100
,  // measure 64
0010
1000
1001
0010
1000
0100
0010
0001
,  // measure 65
0010
0000
1000
0000
0100
0000
0010
0000
0001
0100
0001
0100
0001
0100
0001
0100
,  // measure 66
0001
1000
0001
1000
0001
1000
0001
1000
0001
0000
0010
0000
1000
0000
0100
0000
,  // measure 67
0010
0000
0001
0000
0100
0010
0100
0000
0001
0000
1000
0000
0010
0000
1000
0000
,  // measure 68
0100
0000
0001
0000
1000
0001
1000
0000
0010
0000
1000
0000
0100
0000
0010
0000
,  // measure 69
0001
0000
0100
0000
0010
0100
0010
0000
0001
0100
0001
0100
0001
0100
0001
0100
,  // measure 70
0010
0100
0010
0100
0010
0100
0010
0100
0001
0000
1000
0000
0010
0000
0001
0000
,  // measure 71
0010
0000
0001
0000
0100
0000
0010
1000
0001
0000
0100
0000
0010
0000
1000
0000
,  // measure 72
0001
0000
0100
0000
1000
0000
0001
1000
0010
0100
0010
0100
0010
0100
0010
0100
,  // measure 73
0001
1000
0001
1000
0001
1000
0001
1000
0010
1000
0010
1000
0010
1000
0010
1000
,  // measure 74
0001
0100
0001
0100
0001
0100
0001
0100
0001
0000
1000
0100
1000
0000
0100
0010
,  // measure 75
0100
0000
0001
1000
0001
0000
0001
0010
0001
0000
1000
0100
0010
0000
0001
0010
,  // measure 76
0100
0000
0001
0100
0010
0000
1000
0010
0100
0001
0100
0010
1000
0010
0100
0001
,  // measure 77
0010
0001
1000
0010
0100
0010
0001
0100
1000
0100
0001
0010
1000
0100
0010
0100
,  // measure 78
0001
0010
0100
0010
1000
0100
0010
0001
0000
0000
0000
0000
0000
0000
0000
0000
;
