#TITLE:Newsong;
#SUBTITLE:;
#ARTIST:タシカ;
#TITLETRANSLIT:;
#SUBTITLETRANSLIT:;
#ARTISTTRANSLIT:Tashika;
#GENRE:Anime/Game;
#CREDIT:;
#BANNER:;
#BACKGROUND:;
#LYRICSPATH:;
#CDTITLE:;
#MUSIC:Newsong.ogg;
#OFFSET:1.280000;
#SAMPLESTART:53.800987;
#SAMPLELENGTH:15.000000;
#LASTBEATHINT:0.467617;
#SELECTABLE:YES;
#BPMS:0.000000=128.050003
;
#STOPS:
;
#BGCHANGES:3.000=Newsong.mp4=1.000=0=0=0=StretchNoLoop====,
99999=-nosongbg-=1.000=0=0=0 // don't automatically add -songbackground-
;
#KEYSOUNDS:;
#ATTACKS:;

//---------------dance-single - ----------------
#NOTES:
     dance-single:
     :
     Hard:
     10:
     0.443709,0.532294,0.065851,0.087801,0.060363,283.000000,277.000000,6.000000,8.000000,0.000000,0.000000,0.443709,0.532294,0.065851,0.087801,0.060363,283.000000,277.000000,6.000000,8.000000,0.000000,0.000000:
// measure 0
0000
0000
0000
0000
,  // measure 1
0000
0000
0000
0000
,  // measure 2
0000
0000
0000
0000
,  // measure 3
1000
0100
1000
0000
0100
0001
0100
0000
,  // measure 4
0001
0000
0000
0010
0000
0000
0100
0000
0000
1000
0000
0000
0100
0000
0000
0000
,  // measure 5
1000
0000
1000
0100
0001
0000
0001
0100
,  // measure 6
1000
0000
1000
0010
0001
0000
0010
1000
,  // measure 7
0010
1000
0010
0100
0010
0100
0010
0001
,  // measure 8
0010
0001
1000
0001
1000
0000
0001
0100
,  // measure 9
1000
0100
0001
0100
1000
0000
1000
0010
,  // measure 10
0001
0010
1000
0010
0001
0000
1000
0100
,  // measure 11
1000
0100
0001
0100
0001
0100
0001
0010
,  // measure 12
0001
0010
1000
0010
1000
0010
1000
0001
,  // measure 13
0010
0000
0001
1000
0100
0000
1000
0001
,  // measure 14
0100
0000
0001
0100
1000
0000
0010
1000
,  // measure 15
0001
0000
0010
1000
0100
0000
0010
0100
,  // measure 16
0001
0000
0001
0100
1000
0000
1000
0100
,  // measure 17
1000
0100
0001
0100
0001
0100
0001
0010
,  // measure 18
0001
0010
1000
0010
1000
0010
1000
0000
,  // measure 19
0001
0000
0100
1000
0001
0000
0001
0000
,  // measure 20
0010
0000
1000
0001
0100
0000
0020
0000
,  // measure 21
0000
0000
1030
0100
0001
0000
0200
0000
,  // measure 22
0000
0000
0301
0010
1000
0000
0020
0000
,  // measure 23
0000
0000
1030
0010
0001
0000
0100
0010
,  // measure 24
1000
0000
0010
0100
0001
0000
1000
0100
,  // measure 25
0001
0000
0100
0000
0110
0000
0001
0100
,  // measure 26
1000
0000
0010
0000
0110
0000
1000
0100
,  // measure 27
0001
0100
0010
0000
0010
0000
1000
0010
,  // measure 28
0001
0000
0010
0000
0100
0000
0000
0000
0100
0000
0000
0000
0002
0000
0000
1000
,  // measure 29
0000
1000
2000
0000
0003
0000
3010
0000
,  // measure 30
0010
0000
0001
1000
0010
0000
0010
0000
,  // measure 31
0010
0000
1000
0001
0100
0000
0100
1000
,  // measure 32
0100
0000
0001
0100
0001
0000
1000
0010
,  // measure 33
1000
0000
0001
0010
0001
0000
1000
0100
,  // measure 34
0001
0010
0001
0100
1000
0000
0001
0010
,  // measure 35
1000
0100
1000
0010
0001
0000
1000
0100
,  // measure 36
0001
0100
1000
0010
1000
0010
1000
0001
,  // measure 37
0010
0100
0000
0100
0000
0100
1000
0010
,  // measure 38
0100
0001
0000
0001
0000
0001
0100
0010
,  // measure 39
1000
0001
0000
0010
0000
0010
1000
0100
,  // measure 40
0001
0010
0000
1000
0000
1000
0100
0010
,  // measure 41
0100
1000
0100
0010
0100
1000
0100
0010
,  // measure 42
0001
0010
0100
0010
0001
0010
0200
0000
,  // measure 43
0010
0310
0001
1000
,  // measure 44
0011
0000
0000
0001
0010
0001
0010
0000
0001
0000
0100
0000
1000
0000
0000
0000
,  // measure 45
1100
0000
0000
1000
0100
1000
0100
0000
1000
0000
0100
0000
0001
0000
0000
0000
,  // measure 46
0110
0000
0000
0001
1000
0001
1000
0000
0100
0000
0010
0000
0001
0000
0000
0100
,  // measure 47
0000
0000
1000
0000
0000
0010
0000
0000
2002
0000
0000
0000
0000
0000
0000
0000
,  // measure 48
0000
0000
3003
0000
;

//---------------dance-single - ----------------
#NOTES:
     dance-single:
     :
     Medium:
     7:
     0.321415,0.399221,0.043901,0.175602,0.000000,205.000000,201.000000,4.000000,16.000000,0.000000,0.000000,0.321415,0.399221,0.043901,0.175602,0.000000,205.000000,201.000000,4.000000,16.000000,0.000000,0.000000:
// measure 0
0000
0000
0000
0000
,  // measure 1
0000
0000
0000
0000
,  // measure 2
0000
0000
0000
0000
,  // measure 3
1000
1000
0001
0001
,  // measure 4
0200
0000
0000
0320
0000
0000
1030
0000
,  // measure 5
1000
0000
0001
0010
0001
0000
0001
0000
,  // measure 6
0001
0100
0010
1000
,  // measure 7
1000
0000
0010
1000
0010
0000
0001
0000
,  // measure 8
0001
1000
0010
0100
,  // measure 9
0001
0000
0100
1000
0100
0000
1000
0000
,  // measure 10
0010
0100
0001
1000
,  // measure 11
0100
0000
0001
0010
0001
0000
0100
1000
,  // measure 12
0100
0001
0100
1000
0100
0000
0010
0000
,  // measure 13
0010
0000
1000
0100
0001
0000
0010
0000
,  // measure 14
0010
0000
0001
0100
1000
0000
0100
0000
,  // measure 15
0100
0000
0001
1000
0100
0000
0010
0000
,  // measure 16
0010
0000
1000
0001
0100
0000
0010
0000
,  // measure 17
1000
0000
0001
0100
1000
0000
0100
0000
,  // measure 18
0001
0000
1000
0100
0001
0000
0010
0000
,  // measure 19
1000
0000
0100
0010
0100
0000
0001
0010
,  // measure 20
1000
0010
0001
0010
1000
0010
0002
0000
,  // measure 21
0000
1003
0010
0200
,  // measure 22
0000
0301
1000
0020
,  // measure 23
0000
1030
0100
0002
,  // measure 24
0000
1003
0010
0200
,  // measure 25
0000
0310
1000
0200
,  // measure 26
0000
0301
1000
0020
,  // measure 27
0000
0031
0100
0020
,  // measure 28
0000
0230
0000
0302
,  // measure 29
0000
0000
1003
0000
0000
0000
1000
0100
,  // measure 30
1000
0000
0001
0100
0001
0000
1000
0000
,  // measure 31
0001
0000
0010
0100
0010
0000
0001
0010
,  // measure 32
0001
0000
1000
0010
1000
0000
0001
0000
,  // measure 33
0100
0000
1000
0010
1000
0000
1000
0100
,  // measure 34
0001
0000
0110
0000
0110
0000
0001
0100
,  // measure 35
1000
0000
0110
0000
0110
0000
1000
0100
,  // measure 36
0000
0010
0000
0010
0000
0100
0001
0100
,  // measure 37
0000
0100
0000
0100
0000
1000
0001
1000
,  // measure 38
0000
1000
0000
1000
0000
1000
0010
0100
,  // measure 39
0000
0100
0000
0100
0000
0100
0010
0001
,  // measure 40
0000
0001
0000
0001
0000
0001
1000
0010
,  // measure 41
0000
0010
0000
0010
0000
0010
0100
1000
,  // measure 42
0000
1000
0000
1000
0000
1000
0200
0000
,  // measure 43
0000
0310
0010
0001
,  // measure 44
0001
0000
0100
1000
0100
0000
1000
0000
,  // measure 45
1000
0000
0001
0100
0001
0000
0010
0000
,  // measure 46
0010
0000
0100
0010
0100
0000
0020
0000
,  // measure 47
0000
0230
0000
0000
0302
0000
0000
0000
,  // measure 48
0000
0000
0003
0000
;

//---------------dance-single - ----------------
#NOTES:
     dance-single:
     :
     Easy:
     4:
     0.172467,0.266147,0.032925,0.175602,0.000000,110.000000,107.000000,3.000000,16.000000,0.000000,0.000000,0.172467,0.266147,0.032925,0.175602,0.000000,110.000000,107.000000,3.000000,16.000000,0.000000,0.000000:
0000
0000
0000
0000
,
0000
0000
0000
0000
,
0000
0000
0000
0000
,
2000
0000
3000
0000
,
0002
0000
0003
0100
,
0000
0100
0000
0010
,
0000
0010
0000
1000
,
0000
1000
0000
0001
,
0000
0001
0000
0100
,
0000
1000
0000
0010
,
0000
0001
0000
0100
,
0000
0001
0000
0010
,
0000
1000
0000
0100
,
1000
0000
1000
0100
,
0001
0000
0001
0010
,
1000
0000
1000
0010
,
0001
0000
0001
0100
,
1000
0000
1000
0100
,
0001
0000
0001
0010
,
1000
0000
1000
0010
,
0001
0000
0010
0200
,
0000
0310
0000
0002
,
0000
1003
0000
0200
,
0000
1300
0000
0002
,
0000
0013
0000
2000
,
0000
3001
0000
0020
,
0000
0130
0000
1000
,
0100
0001
0100
2000
,
0000
3010
0000
0002
,
0000
0013
0000
1000
,
0100
1000
0100
0001
,
0000
0001
0000
0001
,
0100
0001
0100
1000
,
0000
1000
0000
1000
,
0100
0101
0000
0001
,
0100
1100
0000
1000
,
0010
0011
0001
0200
,
0301
0000
0001
1000
,
0010
0000
0010
1000
,
0100
0000
0100
0010
,
0001
0000
0001
0100
,
1000
0000
1000
1000
,
0100
0000
0100
0020
,
0000
0000
0000
0030
,
0000
0000
0000
0200
,
0000
0000
0300
0020
,
0000
0000
0030
0200
,
0000
0000
0020
0000
,
0000
0000
0330
0000
;

//---------------dance-single - ----------------
#NOTES:
     dance-single:
     :
     Beginner:
     1:
     0.084665,0.130330,0.010975,0.000000,0.000000,54.000000,53.000000,1.000000,0.000000,0.000000,0.000000,0.084665,0.130330,0.010975,0.000000,0.000000,54.000000,53.000000,1.000000,0.000000,0.000000,0.000000:
0000
0000
0000
0000
,
0000
0000
0000
0000
,
0000
0000
0000
0000
,
0000
0000
0000
0000
,
0000
0000
0000
0010
,
0000
0000
0000
0010
,
0000
0000
0000
0100
,
0000
0000
0000
0100
,
0000
0000
0000
1000
,
0000
0000
0000
1000
,
0000
0000
0000
0001
,
0000
0000
0000
0001
,
0000
0000
0000
1000
,
0000
0000
0000
0100
,
0000
0000
0000
0001
,
0000
0000
0000
0010
,
0000
0000
0000
1000
,
0000
0000
0000
0100
,
0000
0000
0000
0001
,
0000
0000
0000
0010
,
0000
0000
0000
1000
,
0000
0100
0000
1000
,
0000
0000
0000
0001
,
0000
0100
0000
0001
,
0000
0000
0000
1000
,
0000
0010
0000
1000
,
0000
0000
0000
0001
,
0000
0010
0000
0001
,
0000
0000
0000
0000
,
0000
0000
0000
1000
,
0000
0100
0000
0100
,
0000
0000
0000
0001
,
0000
0100
0000
0100
,
0000
0000
0000
1000
,
0000
0010
0000
0010
,
0000
0000
0000
0001
,
0000
0010
0000
0010
,
0000
0000
0000
1000
,
0000
0100
0000
0001
,
0000
0000
0000
0001
,
0000
0010
0000
1000
,
0000
0000
0000
0010
,
0000
0100
0000
0010
,
0000
0000
0000
1001
,
0000
0000
0000
0000
,
0000
0000
0000
0100
,
0000
0000
0000
0010
,
0000
0000
0100
0000
;

//---------------dance-single - ----------------
#NOTES:
     dance-single:
     :
     Challenge:
     11:
     0.501721,0.625583,0.153652,0.000000,0.181090,320.000000,306.000000,14.000000,0.000000,68.000000,0.000000,0.501721,0.625583,0.153652,0.000000,0.181090,320.000000,306.000000,14.000000,0.000000,68.000000,0.000000:
// measure 0
0000
0000
0000
0000
,  // measure 1
0000
0000
0000
0000
,  // measure 2
0000
0000
0000
0000
,  // measure 3
1100
0000
1000
0000
0001
0000
0000
0001
0100
0001
0100
0000
0010
0000
1000
0000
,  // measure 4
0001
0010
0000
0010
0100
0000
0100
1000
0000
1000
0001
0000
1001
0000
0010
0000
,  // measure 5
0000
0000
0010
1000
0000
0000
0100
0000
0000
0000
0001
0000
0000
0000
0100
0000
,  // measure 6
0000
0000
0001
0010
0000
0000
1000
0000
0000
0000
0010
0000
0000
0000
1000
0000
,  // measure 7
0000
0000
0001
0100
0000
0000
0010
0000
0000
0000
1000
0000
0000
0000
0001
0000
,  // measure 8
0000
0000
1000
0100
0000
0000
0001
0000
0100
0000
0010
0000
1000
0000
0001
0000
,  // measure 9
0000
MMMM
0000
0001
0010
1000
0100
0001
,  // measure 10
0000
MMMM
0000
0001
1000
0001
0100
1000
,  // measure 11
0000
MMMM
0000
0001
0010
1000
0001
0100
,  // measure 12
0000
MMMM
0000
0001
0010
1000
MMMM
0010
,  // measure 13
1000
0100
0001
0100
0010
1000
MMMM
0010
,  // measure 14
1000
0100
0001
0000
1001
0000
MMMM
1000
,  // measure 15
0010
0100
0001
1000
0010
0100
MMMM
0010
,  // measure 16
1000
0001
0100
0010
1000
0000
0100
0001
,  // measure 17
0100
0001
0000
0010
0000
0010
1000
0100
,  // measure 18
1000
0100
0000
0100
0000
0100
0001
0100
,  // measure 19
1000
0100
0001
0010
1000
0010
0001
1000
,  // measure 20
0100
0010
1000
0001
1000
0000
MMMM
0000
,  // measure 21
MMMM
0010
1000
0100
0001
0000
MMMM
0000
,  // measure 22
MMMM
0001
0100
0010
1000
0000
MMMM
0000
,  // measure 23
MMMM
1000
0010
0100
0001
0010
0100
0100
,  // measure 24
0010
0010
1000
0001
1000
0000
0001
1000
,  // measure 25
0010
1000
0100
0000
MMMM
0000
0001
1000
,  // measure 26
0010
0100
0001
0000
MMMM
0000
0001
0010
,  // measure 27
1000
0010
0100
0001
0010
0100
1000
0000
,  // measure 28
0010
0000
1000
0000
0100
0000
0001
0000
0100
0000
0000
0000
0001
0100
0000
0001
,  // measure 29
0100
0000
1000
0100
0001
0000
0100
0000
0100
0000
0000
0000
1010
0000
0010
0000
,  // measure 30
0000
0000
0001
0100
0000
0000
0001
0000
1000
0000
0010
0000
0100
0000
0001
0000
,  // measure 31
0000
0000
1000
0100
0000
0000
0010
0000
1000
0000
0100
0000
0001
0000
0010
0000
,  // measure 32
0000
0000
0001
1000
0000
0000
0010
0000
1000
0000
0100
0000
0001
0000
0010
0000
,  // measure 33
0000
0000
0010
1000
0000
0000
0001
0000
0010
0000
1000
0000
0001
0000
0100
0000
,  // measure 34
0001
0100
0000
1010
0000
1010
0001
1000
,  // measure 35
0100
0001
0000
0101
0000
0101
0010
0100
,  // measure 36
1000
0000
0010
0000
1000
0000
0001
1000
0001
1000
0001
1000
0001
0000
0010
0000
,  // measure 37
1000
0010
1000
0010
1000
0010
0100
0001
,  // measure 38
0100
0001
0100
0001
0100
0001
1000
0100
,  // measure 39
0001
0100
1000
0100
0001
0100
1000
0010
,  // measure 40
0001
0010
1000
0010
0001
0010
1000
0010
,  // measure 41
1000
0010
0100
0001
0100
0001
0010
0001
,  // measure 42
0010
1000
0010
1000
0010
1000
0100
0010
,  // measure 43
1000
0100
0001
0100
1000
0100
1100
0000
,  // measure 44
1100
0000
0000
0001
0100
0001
0100
0001
0100
0000
0010
0000
0011
0000
0000
0000
,  // measure 45
0011
0000
0000
1000
0010
1000
0010
1000
0010
0000
0001
0000
1001
0000
0000
0000
,  // measure 46
1001
0000
0000
0100
0010
0100
0010
0100
0010
0000
0100
0000
1000
0100
0000
0100
,  // measure 47
0010
0000
0010
0001
0000
0001
0010
0000
MMMM
0000
0000
0000
0000
0000
0000
0000
;
