#TITLE:ネガポジ*コンティニューズ;
#SUBTITLE:;
#ARTIST:ささくれ.UK feat. 初音ミク;
#TITLETRANSLIT:NegaPosi*Continues;
#SUBTITLETRANSLIT:;
#ARTISTTRANSLIT:sasakure.UK feat. Hatsune Miku;
#GENRE:Pop;
#CREDIT:;
#BANNER:;
#BACKGROUND:;
#LYRICSPATH:;
#CDTITLE:;
#MUSIC:NegaPosi Continues.ogg;
#OFFSET:0.579999;
#SAMPLESTART:36.519890;
#SAMPLELENGTH:15.000000;
#SELECTABLE:YES;
#BPMS:0.000000=220.000000
;
#STOPS:
;
#BGCHANGES:;
#KEYSOUNDS:;
#ATTACKS:;

//---------------dance-single - ----------------
#NOTES:
     dance-single:
     :
     Hard:
     14:
     0.682464,0.810427,0.705213,0.212322,0.015166,630.000000,537.000000,93.000000,28.000000,0.000000,0.000000,0.682464,0.810427,0.705213,0.212322,0.015166,630.000000,537.000000,93.000000,28.000000,0.000000,0.000000:
// measure 0
0000
0000
0000
0000
,  // measure 1
0000
0000
0000
0000
,  // measure 2
0000
0000
0000
0000
,  // measure 3
0000
0000
0000
0000
,  // measure 4
0000
0000
0000
0000
,  // measure 5
2200
3300
0220
0330
,  // measure 6
0022
0033
2002
3003
,  // measure 7
1000
0100
0010
0000
0100
0010
0001
0000
,  // measure 8
1000
0100
0001
0000
0001
0010
1000
0000
,  // measure 9
0000
0010
0100
0010
0100
0000
0010
0000
,  // measure 10
1001
0000
0010
0000
1000
0100
0010
0000
,  // measure 11
1000
0000
0001
0000
0100
0001
0100
0000
,  // measure 12
0010
0000
1000
0000
0001
0010
0100
0000
,  // measure 13
0010
0000
1000
0000
0010
1000
0010
0000
,  // measure 14
0100
0000
0010
0000
1000
0001
0100
0000
,  // measure 15
0010
0000
1000
0000
0001
0010
1000
0000
,  // measure 16
0010
0100
0010
0100
0000
0000
1001
0000
,  // measure 17
0000
0010
0100
0110
,  // measure 18
0000
1000
0100
0010
0000
0100
0010
0001
,  // measure 19
0000
1001
1001
1001
,  // measure 20
0000
0001
0100
1000
0000
0001
0010
1000
,  // measure 21
0000
1001
1001
1001
,  // measure 22
0000
0100
0010
0100
0000
0010
0100
0010
,  // measure 23
0000
1001
1001
1001
,  // measure 24
0100
0000
1000
0010
0000
0010
0100
0000
,  // measure 25
0001
1000
0010
0100
,  // measure 26
0002
0000
0100
0000
,  // measure 27
0100
0000
0103
0010
,  // measure 28
2000
0000
0010
0000
,  // measure 29
0010
0000
3010
0100
,  // measure 30
0000
0000
0010
0000
1000
0010
0100
0001
,  // measure 31
0000
1000
0001
1001
,  // measure 32
0001
0100
1000
0000
0001
0100
1000
0001
,  // measure 33
0010
1000
0010
0100
0001
0010
1000
0000
,  // measure 34
1001
0000
1000
0000
0010
0100
0001
1000
,  // measure 35
0000
0001
1000
0100
0010
0000
0110
0000
,  // measure 36
0001
0000
1000
0010
0100
0000
0010
0100
,  // measure 37
0000
0001
0100
0010
1000
0100
0001
0000
,  // measure 38
1001
0000
0001
0100
1000
0000
1000
0010
,  // measure 39
0000
0010
1000
0001
0100
0001
1000
0000
,  // measure 40
1001
0000
0001
0100
0000
0100
1000
0000
,  // measure 41
1000
0001
0000
0000
1001
0000
1010
0000
,  // measure 42
0011
0000
0010
1000
0001
0000
0100
0010
,  // measure 43
0000
0010
1000
0100
0001
0000
0001
1000
,  // measure 44
0010
0000
0100
0001
0010
0000
1000
0010
,  // measure 45
0000
0010
1000
0010
0100
0001
0010
0000
,  // measure 46
1001
0000
0010
0100
0001
0000
0001
0100
,  // measure 47
0000
1000
0010
0100
0001
0000
1000
0000
,  // measure 48
0010
1000
0010
1000
0000
0100
0010
0100
,  // measure 49
0010
0100
0000
0001
0100
0001
0100
0001
,  // measure 50
0000
0001
1000
0010
0100
0010
0000
0110
,  // measure 51
0000
1001
0000
0110
0000
0000
1000
0000
,  // measure 52
0000
1100
0000
0000
0101
0000
0000
1001
,  // measure 53
0000
0000
0001
0100
0010
0000
1000
0000
,  // measure 54
0000
0000
0000
1010
0000
0000
0000
0000
0000
0000
0000
0000
0010
0000
0000
0000
1000
0000
0000
0000
0001
0000
0000
0000
,  // measure 55
0100
0000
0000
1001
0000
0000
0110
0000
,  // measure 56
0000
1001
0000
0000
0010
0000
0000
1000
,  // measure 57
0000
0000
0100
0010
0001
0000
0001
0010
,  // measure 58
0100
1000
0000
0001
0010
0100
1000
0100
,  // measure 59
0000
0010
0000
0220
0000
0000
0000
0000
,  // measure 60
0330
0000
0000
2002
0000
0000
0000
0000
,  // measure 61
0000
0000
3003
0000
0001
0000
0001
0100
,  // measure 62
2000
0000
3000
0000
1000
0000
1000
0100
,  // measure 63
0002
0000
0003
0000
0010
0100
0010
0100
,  // measure 64
0010
0000
2001
0000
0000
3002
0000
1003
,  // measure 65
0000
1001
0000
0000
0010
0000
0100
0010
,  // measure 66
2000
0000
3000
0000
0100
0000
0010
0100
,  // measure 67
0002
0000
0003
0000
0010
0100
0010
0100
,  // measure 68
0001
1000
0001
1000
0010
0100
0001
0010
,  // measure 69
1000
0000
1001
0000
0010
1000
0010
1000
,  // measure 70
0000
0001
1001
0000
0001
0100
0001
0100
,  // measure 71
0000
0001
1001
0000
0001
1000
0010
0100
,  // measure 72
0000
0000
0000
0110
0000
0000
1100
0000
0000
0000
0101
0000
,  // measure 73
0000
0000
2002
0000
0000
0000
0000
0000
0000
0000
0000
0000
,  // measure 74
0000
0000
0000
0000
,  // measure 75
0000
3003
0012
0000
,  // measure 76
0010
0003
2100
0000
,  // measure 77
0100
3000
2002
0000
,  // measure 78
0000
0000
3003
0000
0001
0100
0010
0000
,  // measure 79
1000
0010
0100
0001
0000
0000
1001
0000
,  // measure 80
1001
0000
0110
0000
0001
0010
0100
0000
,  // measure 81
0010
1000
0001
0010
0000
0000
0110
0000
,  // measure 82
0110
0000
1001
0000
0010
0100
0001
0000
,  // measure 83
0001
1000
0100
0010
0000
0000
0110
0000
,  // measure 84
0110
0000
1001
0000
1100
0000
0100
0001
,  // measure 85
0000
0001
1000
0000
1000
0010
0000
0000
,  // measure 86
1001
0000
1001
0000
0001
0100
0010
1000
,  // measure 87
0010
0000
0100
0010
0000
0010
1000
0001
,  // measure 88
0100
0000
0101
0000
0001
0100
0010
1000
,  // measure 89
0001
0000
1000
0010
0000
0010
1000
0001
,  // measure 90
0100
0000
1100
0000
0001
0100
0010
1000
,  // measure 91
0001
0000
0001
1000
0000
0001
1000
0100
,  // measure 92
0010
0000
0011
0000
1000
0100
0010
0100
,  // measure 93
0000
0010
0100
0001
0010
0100
0000
0010
,  // measure 94
0100
0001
1001
0000
0001
1000
0100
1000
,  // measure 95
0100
0000
0001
0100
0000
0001
0100
1000
,  // measure 96
0001
0000
0011
0000
1000
0010
0001
0010
,  // measure 97
0001
0000
0100
0010
0000
0100
0010
1000
,  // measure 98
0001
0000
1100
0000
0100
0010
1000
0100
,  // measure 99
0001
0000
0010
0100
0000
0001
0010
0100
,  // measure 100
1000
0000
1001
0000
1000
0000
1000
1100
,  // measure 101
0000
0100
0110
0000
0010
0011
0000
0001
,  // measure 102
1001
0100
0010
0100
0110
0000
0001
0010
,  // measure 103
0100
0000
0010
0100
0000
1000
0001
0000
,  // measure 104
0110
1001
1010
0011
,  // measure 105
1100
0000
0000
0010
1001
0000
0100
1001
,  // measure 106
0000
0000
0100
0000
0010
1000
0010
0000
,  // measure 107
0100
0000
0001
0010
0000
0100
1000
0100
,  // measure 108
0000
0010
0100
0000
0010
0100
0010
0001
,  // measure 109
1000
0001
0100
0010
0100
1000
0001
1000
,  // measure 110
0010
0100
0010
0001
1000
0001
0100
0010
,  // measure 111
0100
0010
0000
1001
0000
1001
0000
1001
,  // measure 112
0000
0000
0010
0100
0010
0100
0000
1001
,  // measure 113
0000
1001
0000
1001
0000
0000
0100
0010
,  // measure 114
0100
0010
0000
1001
0000
1001
0000
1001
,  // measure 115
0000
0000
0010
0100
0010
0100
0000
1001
,  // measure 116
0000
1001
0000
1001
0000
0000
0220
0000
,  // measure 117
0000
0000
0000
0000
,  // measure 118
0000
0000
0000
0330
;

//---------------dance-single - ----------------
#NOTES:
     dance-single:
     :
     Challenge:
     17:
     0.914286,1.125592,0.963033,0.090995,0.170616,844.000000,717.000000,127.000000,12.000000,0.000000,0.000000,0.914286,1.125592,0.963033,0.090995,0.170616,844.000000,717.000000,127.000000,12.000000,0.000000,0.000000:
0000
0000
0000
0000
,
0000
0000
0000
0000
,
0000
0000
0000
0000
,
0000
0000
0000
0000
,
0000
0000
0000
0000
,
1010
0010
1000
0000
0101
0100
0001
0000
,
1001
0001
1000
0000
0110
0010
0100
0000
,
0010
1000
0010
0100
0001
0010
0100
1000
,
0010
0100
0010
1000
0001
0010
0100
1000
,
0010
0100
0010
0100
0010
0001
1000
0010
,
0100
0001
0010
0100
0000
1000
0000
1100
,
0000
1000
0010
0100
0001
0010
0100
1000
,
0000
0001
0010
1000
0000
0010
1000
0001
,
0000
0001
1000
0000
0110
0000
0100
0010
,
0000
1000
0010
0100
0000
0001
0000
1001
,
0000
0010
1000
0100
0010
0001
0100
0010
,
0100
0010
1000
0001
0100
0000
1001
0000
,
0001
0100
0010
1000
0001
0000
1001
0000
,
1000
0100
0010
0100
0010
0100
0001
0010
,
0000
0001
0010
0100
0010
0100
0010
1000
,
0100
0010
0100
0001
1000
0001
0010
0100
,
0000
0110
0000
0001
1000
0010
0100
0001
,
0000
1000
0100
0001
0000
0001
0010
1000
,
0000
0001
0010
1000
0100
0010
0100
0010
,
0110
0010
1000
1001
0000
0001
0101
0000
,
1100
1100
0101
0101
,
0010
0000
1000
0010
0100
0000
0010
0100
,
0001
0000
0001
0100
0010
0000
1000
0000
,
1001
0000
0010
0100
0001
0000
0001
1000
,
0100
0000
0010
1000
0010
0000
2002
0000
,
3003
0000
0101
0000
1000
0010
0100
0001
,
1000
1001
0011
1010
,
1200
0000
0301
0000
0100
0010
1000
0001
,
1001
0000
0000
0000
1001
0000
0000
0000
0010
0100
0010
0100
0010
0000
0100
0000
,
0010
0000
1000
0001
0010
0000
1000
1001
,
0000
0010
1000
0100
0010
0100
0001
0010
,
0100
0000
0010
1000
0100
0000
0010
0110
,
0000
0001
0010
0100
1000
0010
0100
0001
,
0010
0000
1000
0010
0110
0000
0001
0011
,
0000
0001
0010
0100
1000
0010
0100
0001
,
1000
0001
0001
1000
0000
0100
0010
0100
,
0100
0010
0000
0001
1000
0010
0110
0000
,
0001
0100
0001
1000
0010
0000
1000
1200
,
0000
1300
0001
0100
0001
0000
1001
1001
,
1001
0000
0100
0000
0010
0000
0100
1001
,
0000
0010
0100
0010
1000
0001
0110
0000
,
0110
0000
0001
0010
1000
0000
1000
1100
,
0000
0001
0101
1000
1001
0000
0010
0100
,
0101
0001
0100
0010
1000
0100
1100
1000
,
0010
0100
0001
0010
0110
0100
1000
0001
,
0010
0100
1001
1000
0001
1001
0000
0110
,
0000
1001
0000
0110
0000
0000
1000
0100
,
0010
0100
0001
0010
0100
1000
0010
0100
,
0001
0000
1000
0000
0001
1000
0001
0000
1000
0000
0000
0000
0010
0000
0100
0000
,
1000
0000
0000
0010
0000
0000
0100
0000
0000
0001
0000
0000
0011
0000
0000
0000
0110
0000
0000
0000
1100
0000
0000
0000
,
1001
0000
0001
0100
0000
0100
0010
1000
,
0010
0100
0001
0010
0100
1000
0010
0100
,
0001
0000
1000
0000
0100
0010
0100
0000
1001
0000
0000
0000
1000
0000
0100
0000
,
0010
0011
0000
0010
0100
0001
1000
1001
,
0000
0110
0000
2002
0000
0000
0000
0000
,
3003
0000
0000
0220
0000
0000
0000
0000
,
0000
0000
0330
0000
0001
0000
0100
0010
,
1000
0001
0000
1000
0001
0010
0100
0000
,
1001
0000
0110
0000
1000
0000
0100
0010
,
0100
0001
0010
0100
0000
1100
0000
0101
,
0000
1100
0000
0001
0100
0010
1000
0001
,
0100
0010
0000
0010
1010
0000
0001
1000
,
0010
0100
0001
0000
1000
0010
0100
0001
,
0010
0100
1000
0100
0010
0010
0001
0001
,
1000
1000
0100
0100
1000
0100
0010
0001
,
0000
0001
0011
0000
0001
0100
0010
1000
,
0000
1000
1100
0000
0010
0100
0001
1000
,
0010
0000
0000
0100
0000
0000
1100
0000
0000
0000
0101
0000
,
0000
0000
1001
0000
0000
0000
1000
0100
0010
0001
0010
0100
,
1000
0100
0010
0001
0010
0100
1000
0010
0100
0001
0100
0010
,
1000
0010
0100
0001
0100
0010
1000
0100
0001
0100
1000
0100
,
0001
0100
1000
0100
0001
0100
1000
0010
0001
0010
1000
0010
,
0001
0010
1000
0010
0001
0010
2000
0000
0000
0000
0000
0000
,
3001
1000
0001
1000
0001
0000
0000
0000
1000
0000
0010
0000
0100
0000
0000
0000
,
0001
0010
0100
1000
0000
0001
1000
0010
,
0100
0000
1001
0000
0010
0100
1000
0000
,
0010
1000
0100
0010
0000
0010
0100
0001
,
0010
0100
1000
0001
1000
0000
0001
0100
,
0010
0000
1000
0010
0000
1000
0001
0010
,
0100
0000
0010
0000
1100
0100
0010
0100
,
0000
0001
0011
0010
0100
0010
0000
0100
,
0110
0000
1001
0000
0010
0100
0010
0000
,
1000
0010
0100
0001
0000
0001
0100
1000
,
0010
0000
1001
0000
0010
1000
0100
0010
,
0100
0001
0010
0100
0000
0010
1000
0100
,
0010
0100
0001
0010
0100
0000
1000
0100
,
0010
0000
0010
0100
0000
0100
0010
1000
,
0001
0100
0010
1000
0001
0001
1000
1000
,
0000
0010
0010
0100
0100
0001
0000
0001
,
1000
0010
0100
0000
1001
0000
0010
1000
,
0100
0000
0010
0110
0000
0001
0010
0100
,
1000
0010
0100
0001
1001
0000
1100
0000
,
0101
0000
0001
1000
0110
0000
0100
0110
,
0000
0010
0010
1000
0001
1000
0010
0100
,
0001
0000
0010
0100
0000
1000
0010
0100
,
0001
0010
2000
0000
3001
0001
0000
1000
,
1000
0000
0010
0010
0000
0100
0100
0110
,
0000
0000
1000
0001
1000
0001
1000
0001
1000
0000
0100
0000
0001
0000
0010
0000
,
0100
1000
0010
0100
0000
1000
0100
0010
,
0100
0001
0010
0100
1001
0000
0101
0000
,
1100
0000
0100
0010
0110
0000
1000
1001
,
0000
0001
1000
0010
0100
0001
0010
0100
,
1100
0000
0100
0101
0000
0100
0001
1000
,
1010
0000
0100
0010
0011
0001
0010
0110
,
0010
0100
1100
0100
1000
1001
0001
1000
,
1010
0010
1000
0101
0100
0001
0011
0011
,
0011
0011
0000
0110
0000
1001
0000
0110
,
0000
0000
1100
1100
1100
1100
0000
0110
,
0000
1001
0000
0110
0000
0000
1001
0110
,
1001
0110
0000
1010
0000
0101
0000
1001
,
0000
0000
1100
0011
1100
0011
0000
1100
,
0000
0011
0000
1001
0000
0000
0220
0000
,
0000
0000
0000
0000
,
0000
0000
0000
0330
;

//---------------dance-single - ----------------
#NOTES:
     dance-single:
     :
     Medium:
     11:
     0.601219,0.720379,0.644550,0.174408,0.015166,555.000000,470.000000,85.000000,23.000000,0.000000,0.000000,0.601219,0.720379,0.644550,0.174408,0.015166,555.000000,470.000000,85.000000,23.000000,0.000000,0.000000:
0000
0000
0000
0000
,
0000
0000
0000
0000
,
0000
0000
0000
0000
,
0000
0000
0000
0000
,
0000
0000
0000
0000
,
2001
0000
3001
0000
,
0120
0000
0130
0000
,
1100
0000
1100
0000
,
0011
0000
0011
0000
,
2002
0000
0000
3003
,
0001
0000
0100
0000
0010
0100
0010
1000
,
0000
0010
0100
0010
,
1000
0000
0001
0000
0100
0010
0100
0001
,
0000
0010
0100
1000
,
0001
0000
0010
0000
0100
0010
1000
0001
,
0000
0010
0100
0001
,
1000
0000
0100
0000
0010
0100
0001
1000
,
0000
0100
1000
1100
,
1000
0000
0010
0100
0000
0100
0010
0000
,
0001
1000
0001
1001
,
0001
0000
0100
0010
0000
0010
0100
0000
,
0001
1000
0001
1001
,
1000
0100
0010
0000
0100
0000
1001
0000
,
0001
0010
0100
0000
0010
0000
1001
0000
,
0010
0000
0100
0010
0000
0010
0100
0000
,
0001
1000
0010
0100
,
0012
0000
0100
0000
,
0010
0000
0103
0010
,
2100
0000
0010
0000
,
3100
0000
0020
0200
,
0330
0000
1001
0000
0010
0000
0100
1000
,
0000
1000
0100
0000
0010
0000
1000
0000
,
1001
0000
0001
0000
0100
0010
0100
0010
,
0000
1001
0000
0110
,
0001
0000
0100
0000
0010
0000
1000
0100
,
0000
0001
0010
0100
1000
0000
0001
0000
,
1001
0000
0001
0000
0010
0000
0001
0010
,
0000
1000
0100
0010
0001
0000
1000
0000
,
1001
0000
1000
0000
0100
0000
0010
1000
,
0000
1000
0010
0100
0001
0000
1000
0000
,
1001
0000
0000
1100
0000
0000
0101
0000
,
0000
1100
0000
0000
1001
0000
0110
0000
,
0001
0000
0100
0010
1000
0000
1000
0010
,
0000
0010
0100
0001
1000
0000
1001
0000
,
0001
0000
0100
0001
0010
0000
0010
1000
,
0000
1000
0100
0010
0100
0001
0010
0000
,
0101
0000
0010
0100
1000
0000
0010
1000
,
0000
0001
0010
0100
1000
0000
1001
0000
,
0001
0000
0010
0100
0000
0100
0010
0000
,
0010
1000
0000
1000
0001
0000
0001
0100
,
0000
0100
0010
0100
0010
0100
0000
1001
,
0000
1001
0000
1001
0000
0000
0011
0000
,
0000
1000
0000
0000
1010
0000
0000
0001
,
0000
0000
0001
1000
0001
1000
1001
0000
,
0000
0000
0000
0100
0000
0000
0000
0000
0000
0000
0000
0000
0001
0000
0000
0000
0010
0000
0000
0000
0100
0000
0000
0000
,
1000
0000
0000
1001
0000
0000
1001
0000
,
0000
0010
0000
0000
1000
0000
0000
0010
,
0000
0000
0100
0001
1000
0000
0010
0100
,
0010
0100
0000
0001
1000
0001
1000
0001
,
0000
0010
0000
0220
0000
0000
0000
0000
,
0330
0000
0000
2002
0000
0000
0000
0000
,
0000
3003
0010
1000
,
1001
0000
0000
0010
0100
0000
0001
0000
,
1001
0000
0000
0001
1000
0000
0100
0000
,
0010
0000
0001
0000
0100
1000
0000
0001
,
0000
1001
0000
0000
0010
0000
1000
0000
,
1001
0000
0000
0010
0100
0000
0001
0000
,
1001
0000
0000
0010
0100
0000
0001
0000
,
0010
0000
1000
0000
0010
0100
0010
0100
,
0001
1000
0001
0000
0010
0000
0100
1000
,
0000
1000
0100
0000
0100
0010
0000
0010
,
0001
0000
0001
0000
1001
0000
0001
0010
,
0000
0000
0000
0010
0000
0000
0100
0000
0000
0000
0000
0000
0100
0000
0000
0000
0000
0000
0000
0000
1100
0000
0000
0000
,
0000
0000
0101
0000
0000
0000
1002
0000
0000
0000
0000
0000
,
1000
0000
1000
0000
,
0103
0000
0200
0000
,
0010
0000
0320
0000
,
1000
0000
0002
0000
,
0033
0000
0000
0000
0001
0010
0100
0000
,
1000
0000
0001
1000
0000
1000
0010
0000
,
0001
1000
1010
0000
0010
0000
1000
0010
,
0100
0000
0010
0001
0000
0010
0100
0000
,
0110
0000
1001
0000
0010
0000
0100
0001
,
0010
0000
1000
0100
0000
0100
0001
0000
,
0101
0000
1100
0000
1001
0000
0000
1010
,
0000
0000
1001
0000
0000
0011
0000
0000
,
1001
0000
1001
0000
0010
0100
0010
0000
,
1000
0000
0001
1000
0000
1000
0010
0000
,
0100
0000
1001
0000
0001
0010
0100
0000
,
0100
0000
0010
0100
0000
0100
0001
0000
,
1000
0000
1001
0000
0001
0100
1000
0000
,
0010
0100
0001
1000
0000
0010
0100
0000
,
0110
0000
1001
0000
0010
0000
1000
0100
,
0000
0100
0010
0000
0010
0001
0000
0001
,
1001
1001
0010
0100
,
1000
0000
0100
0010
0000
0010
0100
0010
,
1000
0001
0100
1100
,
0101
0000
0000
0010
0100
0000
0100
0010
,
0000
1001
0010
1000
,
0100
0000
0010
0100
0000
1000
0100
0000
,
0010
0000
1000
0000
1100
0000
0000
0101
,
0000
0000
0001
0000
0000
0011
0000
0000
,
1001
0010
0200
0010
,
1000
0010
0320
0100
,
0001
0000
0100
0030
0002
0000
0100
0000
,
0010
0103
0010
0100
,
1000
0010
0100
0000
0002
0000
1000
0000
,
0010
0103
2000
0001
,
0100
0000
3010
0000
0100
0000
0010
0100
,
0000
0100
0010
0000
0010
1000
0000
1000
,
0001
0000
0001
0010
0000
0010
0100
0010
,
0100
0010
0000
1001
0000
1001
0000
1001
,
0000
0000
0010
0100
0010
0100
0000
1001
,
0000
1001
0000
1001
0000
0000
0010
0010
,
0010
0010
0000
1001
0000
1001
0000
1001
,
0000
0000
0100
0100
0100
0100
0000
0110
,
0000
0110
0000
0110
0000
0000
2002
0000
,
0000
0000
0000
0000
,
0000
0000
0000
3003
;

//---------------dance-single - ----------------
#NOTES:
     dance-single:
     :
     Easy:
     8:
     0.462559,0.630332,0.561137,0.341232,0.007583,427.000000,353.000000,74.000000,45.000000,0.000000,0.000000,0.462559,0.630332,0.561137,0.341232,0.007583,427.000000,353.000000,74.000000,45.000000,0.000000,0.000000:
0000
0000
0000
0000
,
0000
0000
0000
0000
,
0000
0000
0000
0000
,
0000
0000
0000
0000
,
0000
0000
0000
0000
,
0011
0000
0000
0000
,
1100
0000
0000
0000
,
2002
0000
3003
0000
,
0220
0000
0330
0000
,
0001
1000
0001
1000
,
0010
0100
0010
1000
,
0001
0100
0010
1000
,
0010
0100
0010
0001
,
1000
0010
0100
0001
,
1000
0010
0110
0000
,
0001
0010
0110
0000
,
1000
0010
0100
0001
,
0010
0000
0100
0000
0010
0100
0010
0000
,
1000
0001
0100
0010
,
1000
0001
1001
0000
,
0001
0100
0010
1000
,
0100
0010
2002
3003
,
0010
0100
1000
0010
,
0100
0001
0110
0000
,
0001
0000
0000
0100
0000
0000
1000
0000
,
0010
0100
0010
0100
,
0020
0000
1000
0000
,
0100
0000
0001
0000
,
0230
0000
0001
0000
,
0010
0000
1000
0000
,
0300
0000
0010
0000
1000
0000
0001
1000
,
0000
1000
0010
0000
0100
0000
0001
0000
,
2002
0000
3003
0010
,
0100
0010
0110
0000
,
0001
0000
0100
0000
1000
0000
1000
0100
,
0000
0100
1000
0000
0010
0000
0110
0000
,
1000
0000
0010
0000
0001
0000
0100
0001
,
0000
0001
0100
0000
0001
0000
1001
0000
,
0001
0100
0010
1000
,
0001
1000
0010
0100
,
0002
0000
0000
0103
0000
0000
2000
0000
,
0000
3100
0000
0000
0110
0000
0110
0000
,
0001
0000
0100
0000
0010
0000
1000
0010
,
0000
0010
1000
0000
0001
0000
0101
0000
,
0001
0000
1000
0000
0010
0000
0100
0010
,
0000
0010
0100
0000
1000
0000
1100
0000
,
1000
0000
0010
0000
0100
0000
0001
1000
,
0000
1000
0001
0000
0010
0000
0100
0000
,
2000
0000
0000
3100
0000
0000
0020
0000
,
0000
0130
0000
0000
0002
0000
0000
0013
,
0000
0000
1000
0001
1000
0001
0000
1000
,
0000
0001
0000
1001
0000
0000
0010
0000
,
0000
0100
0000
0000
0010
0000
0000
0100
,
0000
1001
1001
0100
,
0000
0010
0000
0000
0200
0000
0000
0000
,
0310
0000
0000
0010
0000
0000
0110
0000
,
0000
0001
0000
0000
1000
0000
0000
0001
,
0000
1001
0000
0100
,
0000
1000
0000
0000
0010
0000
0000
0001
,
0000
0100
0000
0220
0000
0000
0000
0000
,
0330
0000
0000
2002
0000
0000
0000
0000
,
0000
3003
0000
0000
0001
0000
0100
0000
,
2000
3000
0001
0010
,
2000
3000
1000
0100
,
0002
0000
0003
0000
0000
0110
0000
0110
,
0000
0110
0000
0000
0001
0000
0010
0000
,
2000
3000
0001
0100
,
2000
3000
1000
0010
,
0002
0003
1000
0100
,
0002
0000
0003
0000
1000
0000
0000
1100
,
0000
0000
0001
0000
0000
0101
0000
0000
,
0001
0000
0000
0011
0000
0000
1000
0000
,
0000
0000
0000
1010
0000
0000
0000
0000
0000
0000
0000
0000
1001
0000
0000
0000
0000
0000
0000
0000
1001
0000
0000
0000
,
0000
0000
1001
0000
0000
0000
0020
0000
0000
0000
0000
0000
,
0000
0000
0100
0000
,
0000
0000
0230
0000
,
0000
0000
0010
0000
,
0000
0000
0310
0000
,
0000
0000
0001
0100
,
0010
0000
1000
0010
0000
0010
1000
0000
,
1001
0000
1000
0010
,
0100
0000
0001
0010
0000
0010
0001
0000
,
1001
0000
0001
0100
,
0010
0000
1000
0010
0000
0010
1000
0000
,
1001
0000
0000
0000
1000
0000
0000
0100
,
0000
0000
0010
0000
0000
0001
0000
0000
,
1001
1001
0001
0100
,
0010
0000
1000
0100
0000
0100
0001
0000
,
1001
0000
0001
0100
,
0010
0000
1000
0001
0000
0010
0100
0000
,
1010
0000
1000
0010
,
0100
0000
0001
1000
0000
1000
0001
0000
,
0110
0000
0000
0000
1100
0000
0000
0101
,
0000
0000
1100
0000
0000
0101
0000
0000
,
0010
0010
0200
0010
,
0000
0310
1000
0010
,
0100
0001
2000
0001
,
0000
3001
0010
1000
,
0010
0100
0002
1000
,
0000
1003
0010
0100
,
1000
0000
0001
0000
0011
0000
0000
1100
,
0000
0000
1001
0000
0000
0110
0000
0000
,
0020
0000
0130
0001
,
1000
0100
0010
0100
,
0001
1000
0200
0000
,
0310
1000
0002
0000
,
1003
0010
1000
0100
,
0010
0001
1000
0010
,
0101
0000
0000
0000
1100
0000
0000
0101
,
0000
0000
1100
0000
0000
0101
0000
0000
,
0011
0000
0000
1010
0000
0000
0022
0000
,
0000
0033
0000
1001
0000
1001
0000
1001
,
0000
0000
2002
0000
0000
3003
0000
0110
,
0000
0110
0000
0110
0000
0000
2200
0000
,
0000
3300
0000
1001
0000
1001
0000
1001
,
0000
0000
0220
0000
0000
0330
0000
0110
,
0000
0110
0000
0110
0000
0000
2002
0000
,
0000
0000
0000
0000
,
0000
0000
0000
3003
;

//---------------dance-single - ----------------
#NOTES:
     dance-single:
     :
     Beginner:
     4:
     0.173324,0.309858,0.060664,0.053081,0.000000,160.000000,152.000000,8.000000,7.000000,0.000000,0.000000,0.173324,0.309858,0.060664,0.053081,0.000000,160.000000,152.000000,8.000000,7.000000,0.000000,0.000000:
0000
0000
0000
0000
,
0000
0000
0000
0000
,
0000
0000
0000
0000
,
0000
0000
0000
0000
,
0000
0000
0000
0000
,
0001
0000
0000
0000
,
1000
0000
0000
0000
,
0001
0000
0000
0000
,
1000
0000
0000
0000
,
0000
0000
0000
0000
,
0100
0000
1000
0000
,
0100
0000
0000
0000
,
0010
0000
0001
0000
,
0010
0000
0000
0000
,
1000
0000
0001
0000
,
1000
0000
0000
0000
,
0010
0000
0100
0000
,
0010
0000
0000
0000
,
1000
0000
0100
0000
,
0020
0000
0030
0000
,
0001
0000
0010
0000
,
0200
0000
0300
0000
,
1000
0000
0100
0000
,
0002
0000
0003
0000
,
0001
0000
0010
0000
,
2000
0000
3000
0000
,
1000
0000
0000
0000
,
0100
0000
0000
0000
,
0010
0000
0000
0000
,
0001
0000
0000
0000
,
0010
0000
0000
0000
,
0100
0000
0000
0000
,
1000
0000
0000
0000
,
0001
0000
1000
0000
,
0001
0000
0000
0000
,
0100
0000
0000
0000
,
0010
0000
0000
0000
,
1000
0000
0000
0000
,
1000
0000
0000
0000
,
0010
0000
0000
0000
,
0100
0000
0000
0000
,
0001
0000
0000
0000
,
1001
0000
0010
0000
,
0100
0000
0000
0000
,
1001
0000
0100
0000
,
0010
0000
0000
0000
,
0001
0000
1000
0000
,
0001
0000
0000
0000
,
1000
0000
0000
0100
,
0000
0000
0010
0000
,
0000
0000
0002
0000
0000
0000
0000
1000
,
0000
1000
0000
1003
0000
0000
0010
0000
,
0000
0000
0100
0000
,
0000
0010
0000
1000
,
0000
0000
0001
0000
,
0000
0000
0000
0001
,
0000
0000
1000
0000
,
0000
0001
0000
0100
,
0000
0000
0010
0000
,
0000
0000
0000
0110
0000
0000
0000
0000
,
0000
0000
0000
1001
0000
0000
0000
0000
,
0000
0000
0000
0000
0000
0100
0000
0000
,
0100
0000
1000
0000
,
1000
0000
0002
0000
,
0000
0000
0000
0000
,
0000
0003
0000
0000
0001
0000
0000
0000
,
0001
0000
0010
0000
,
0010
0000
0200
0000
,
0000
0000
0000
0000
,
0300
0000
1000
0000
,
0100
0000
0010
0000
,
0001
0000
1000
0000
,
0010
0000
0100
0000
,
0001
0000
1001
0000
,
0000
0000
0000
0000
,
0000
0000
1001
0000
,
0000
0000
0110
0000
,
0000
0000
0000
0000
,
0000
0000
1000
0000
,
0100
0000
0010
0000
,
0000
0000
0100
0000
,
0010
0000
0001
0000
,
0000
0000
0001
0000
,
0010
0000
0100
0000
,
0000
0000
0010
0000
,
0100
0000
1000
0000
,
0000
0000
1000
0000
,
0100
0000
0001
0000
,
0000
0000
1000
0000
,
0010
0000
0001
0000
,
0000
0000
0001
0000
,
0010
0000
1000
0000
,
0000
0000
0001
0000
,
0100
0000
1000
0000
,
0000
0000
0010
0000
,
0000
0000
0100
0000
,
0000
0000
0010
0000
,
0000
0000
0100
0000
,
0000
0000
1000
0000
,
0000
0000
0001
0000
,
0000
0000
1000
0000
,
0000
0000
0001
0000
,
0000
0000
0100
0000
,
0000
0000
0010
0000
,
0000
0000
0100
0000
,
0000
0000
0010
0000
,
0000
0000
1000
0000
,
0000
0000
0001
0000
,
0000
0000
1000
0000
,
0000
0001
0000
0000
,
0100
0000
0000
0010
,
0000
0000
0000
0010
0000
0010
0000
0010
,
0000
0000
0100
0000
0000
0000
0000
0100
,
0000
0100
0000
0100
0000
0000
1000
0000
,
0000
0000
0000
1000
0000
1000
0000
1000
,
0000
0000
0001
0000
0000
0000
0000
0001
,
0000
0001
0000
0001
0000
0000
1001
0000
;
