#TITLE:ねぇねぇねぇ。;
#SUBTITLE:;
#ARTIST:ピノキオピー;
#TITLETRANSLIT:;
#SUBTITLETRANSLIT:;
#ARTISTTRANSLIT:;
#GENRE:Vocaloid;
#CREDIT:;
#BANNER:;
#BACKGROUND:;
#LYRICSPATH:;
#CDTITLE:;
#MUSIC:Nee Nee Nee.ogg;
#OFFSET:-0.837000;
#SAMPLESTART:55.436020;
#SAMPLELENGTH:15.000000;
#SELECTABLE:YES;
#BPMS:0.000000=145.000000
;
#STOPS:
;
#BGCHANGES:2.500=Nee Nee Nee.avi=1.000=0=0=0=StretchNoLoop====,
99999=-nosongbg-=1.000=0=0=0 // don't automatically add -songbackground-
;
#KEYSOUNDS:;
#ATTACKS:;

//---------------dance-single - ----------------
#NOTES:
     dance-single:
     :
     Beginner:
     1:
     0.085606,0.113763,0.000000,0.000000,0.000000,64.000000,64.000000,0.000000,0.000000,0.000000,0.000000,0.085606,0.113763,0.000000,0.000000,0.000000,64.000000,64.000000,0.000000,0.000000,0.000000,0.000000:
0000
0000
0000
0000
,
0000
0000
0000
0000
,
0000
0000
0000
0000
,
0000
0000
0000
0000
,
0000
0000
0000
0000
,
1000
0000
0000
0000
,
0001
0000
0000
0000
,
1000
0000
0000
0000
,
0001
0000
0000
0000
,
0100
0000
0000
0000
,
1000
0000
0000
0000
,
0100
0000
0000
0000
,
1000
0000
0000
0000
,
0100
0000
0000
0000
,
0001
0000
0000
0000
,
0100
0000
0000
0000
,
0001
0000
0000
0000
,
0010
0000
0000
0000
,
0010
0000
0000
0000
,
0100
0000
0000
0000
,
0100
0000
0000
0000
,
1000
0000
0000
0000
,
1000
0000
0000
0000
,
0001
0000
0000
0000
,
0001
0000
0000
0000
,
1000
0000
0000
0000
,
0100
0000
0000
0000
,
0010
0000
0000
0000
,
0001
0000
0000
0000
,
0001
0000
0000
0000
,
0010
0000
0000
0000
,
0100
0000
0000
0000
,
1000
0000
0000
0000
,
1000
0000
0100
0000
,
1000
0000
0000
0000
,
0001
0000
0000
0000
,
0001
0000
0000
0000
,
0001
0000
0010
0000
,
0001
0000
0000
0000
,
1000
0000
0000
0000
,
1000
0000
0000
0000
,
1000
0000
0100
0000
,
1000
0000
0000
0000
,
0010
0000
0000
0000
,
0010
0000
0000
0000
,
0001
0000
0010
0000
,
0001
0000
0000
0000
,
0100
0000
0000
0000
,
0100
0000
0000
0000
,
1000
0000
0001
0000
,
1000
0000
0000
0000
,
0001
0000
1000
0000
,
0001
0000
0000
0000
,
1000
0000
0000
0000
,
0010
0000
0000
0000
,
0100
0000
0000
0000
,
0001
0000
0000
0000
,
0001
0000
0000
0000
,
0100
0000
0000
0000
,
0010
0000
0000
0000
,
1000
0000
0001
0001
;

//---------------dance-single - ----------------
#NOTES:
     dance-single:
     :
     Easy:
     5:
     0.271533,0.341289,0.112358,0.383892,0.000000,203.000000,191.000000,12.000000,41.000000,0.000000,0.000000,0.271533,0.341289,0.112358,0.383892,0.000000,203.000000,191.000000,12.000000,41.000000,0.000000,0.000000:
0000
0000
0000
0000
,
0000
0000
0000
0000
,
0000
0000
0000
0000
,
0000
0000
0000
0000
,
0000
0000
0000
0000
,
1000
0000
0100
0000
,
1000
0000
0000
0000
,
0001
0000
0010
0000
,
0001
0000
0000
0000
,
1000
0100
2000
3000
,
0001
0100
0002
0003
,
1000
0010
2000
3000
,
0001
0010
0002
0003
,
1000
0100
0020
0030
,
0001
0010
0200
0300
,
1000
0100
0001
0010
,
2000
0001
0002
3003
,
0100
1000
0100
0010
,
0001
0010
0200
0000
,
0301
0010
0100
1000
,
0100
0010
0002
0000
,
0103
0001
1000
0100
,
0001
0010
0020
0000
,
0130
0001
0100
1000
,
0020
0100
0200
0330
,
0001
0100
1000
0100
,
1000
0010
0001
0010
,
1000
0010
0100
0010
,
0001
0100
0220
0330
,
0001
0100
1000
0010
,
1000
0010
0001
0100
,
0002
0003
2000
3000
,
0020
0100
0200
0330
,
0100
1000
0100
0010
,
0001
0010
0220
0330
,
0001
0010
0100
1000
,
0020
0100
0200
0330
,
1000
0100
0001
0010
,
0001
1000
2002
3003
,
0200
1000
0001
1300
,
0020
0001
1000
0031
,
0100
1000
0210
0301
,
0010
1000
0001
1001
,
0010
0001
0120
1030
,
0100
1000
2002
3003
,
0100
1000
0100
0001
,
0010
1000
0001
0100
,
0020
0100
0001
0130
,
2000
0001
0002
3003
,
0200
0010
1000
0310
,
0002
1000
2000
3003
,
0200
1000
0010
0001
,
0320
0001
0100
1030
,
0001
0100
1000
1100
,
1000
0010
0001
0011
,
0001
0100
0010
1010
,
1000
0010
0100
0101
,
0100
1000
0001
0010
,
1000
0100
0001
0010
,
0200
0000
0320
0000
,
1030
0001
1000
1001
;

//---------------dance-single - ----------------
#NOTES:
     dance-single:
     :
     Medium:
     8:
     0.369178,0.398170,0.168538,0.262170,0.000000,276.000000,258.000000,18.000000,28.000000,0.000000,0.000000,0.369178,0.398170,0.168538,0.262170,0.000000,276.000000,258.000000,18.000000,28.000000,0.000000,0.000000:
0000
0000
0000
0000
,
0000
0000
0000
0000
,
0000
0000
0000
0000
,
0000
0000
0000
0000
,
0000
0000
0000
0000
,
0001
0010
0001
0100
,
1000
0010
1000
0100
,
0010
0100
0001
1000
,
0020
0000
0100
0000
0100
0000
0130
0001
,
0100
0000
0100
1000
0100
0000
0010
0000
,
0100
0000
0001
1000
0010
0000
0100
0000
,
0001
0000
1000
0010
1000
0000
0001
0100
,
0001
0010
0200
0310
,
0001
0000
0100
1000
0100
0000
0010
0000
,
0100
0000
0010
0001
0010
0000
0100
0000
,
0010
1000
0010
0000
0100
0001
0100
0000
,
0020
0100
0200
0330
,
0001
0100
1000
0100
,
0001
0010
0001
0020
0000
0000
0000
0000
,
1030
0100
0001
0100
,
1000
0100
1000
0200
0000
0000
0000
0000
,
0310
1000
0010
0001
,
0100
0010
0100
0020
0000
0000
0000
0000
,
0130
0001
0100
1000
,
0020
0100
0200
0330
,
0001
0100
1000
0000
0010
0000
1001
0000
,
1000
0010
0001
0000
0100
0000
1001
0000
,
0100
0001
1000
0000
0010
0000
0001
0000
,
0010
0001
1000
0000
0100
0000
1000
0000
,
0020
0000
1000
0030
0200
0000
0001
0300
,
0010
0000
0001
0000
1000
0010
0100
0000
,
0002
0103
2000
3100
,
0020
0100
0200
0330
,
1000
0000
1010
0000
0011
0000
1000
0100
,
0010
0000
0001
0010
0100
0000
1000
0001
,
0100
0000
0001
1000
0010
0000
0100
0000
,
0210
0010
0020
0330
,
0001
0010
1000
0000
0100
0000
1100
0000
,
1000
0100
0001
0000
0010
0000
0011
0000
,
0002
1000
0100
0013
,
2000
0001
0010
3100
,
0001
0000
0101
0000
1100
0000
1000
0010
,
0100
0000
0001
0100
0010
0000
0100
0001
,
1000
0000
0010
1000
0001
0000
0100
0000
,
0210
0010
0020
0330
,
0001
0100
1000
0000
0100
0000
1100
0000
,
1000
0010
0001
0000
0001
0000
0011
0000
,
0002
0103
2000
3100
,
0020
0000
0100
0000
0100
0000
0130
0001
,
0100
0000
0100
1000
0100
0000
0100
0001
,
0200
0000
0010
0000
0010
0000
0310
1000
,
0010
0000
0010
0001
0010
0000
0010
1000
,
0020
0000
0100
0000
0100
0030
0001
0100
,
1000
0000
1100
0000
0100
0000
0001
1000
,
0010
0000
0001
0000
1000
0000
1000
0010
,
0001
0000
0011
0000
0010
0000
0100
0001
,
1000
0000
0010
1000
0001
0000
0200
0000
,
0310
0000
1000
0001
0100
0000
0010
0000
,
0110
0000
0001
0100
1000
0000
0010
0000
,
0110
1000
0110
0001
,
0020
0100
0130
1001
;

//---------------dance-single - ----------------
#NOTES:
     dance-single:
     :
     Hard:
     12:
     0.548416,0.625696,0.224717,0.102995,0.224717,410.000000,386.000000,24.000000,11.000000,0.000000,0.000000,0.548416,0.625696,0.224717,0.102995,0.224717,410.000000,386.000000,24.000000,11.000000,0.000000,0.000000:
// measure 0
0000
0000
0000
0000
,  // measure 1
0000
0000
0000
0000
,  // measure 2
0000
0000
0000
0000
,  // measure 3
0000
0000
0000
0000
,  // measure 4
0000
0000
0000
0000
0000
0000
1000
0100
,  // measure 5
1000
0000
0001
0100
0001
0000
1000
0010
,  // measure 6
1000
0000
0001
0010
0001
0000
1000
0001
,  // measure 7
0100
0000
0001
1000
0010
0000
0100
0010
,  // measure 8
0220
0000
0000
0000
0330
0000
0001
0100
,  // measure 9
1000
0000
1000
0100
0001
0000
1000
0010
,  // measure 10
0001
0000
0000
0001
0010
0000
0001
0000
0100
0000
0000
0000
0001
0000
0100
0000
,  // measure 11
0010
0000
1000
0010
0100
0000
0001
1000
,  // measure 12
0010
0000
1000
0001
0100
0010
1000
0001
,  // measure 13
0010
0000
1000
0100
0001
0000
0001
0010
,  // measure 14
0100
0000
0000
1000
0100
0000
0010
0000
0001
0000
0000
0000
0100
0000
0010
0000
,  // measure 15
1000
0000
0000
0001
0100
0000
0010
0000
1000
0000
0000
0010
0100
0000
0001
0000
,  // measure 16
2000
0000
0000
0001
0000
0000
0001
0000
3001
0000
0000
0000
1001
0000
0000
0000
,  // measure 17
0100
1000
0010
0100
0001
0100
0010
1000
,  // measure 18
0001
0010
0100
1000
0020
0000
0130
0000
,  // measure 19
1000
0100
0001
0010
1000
0100
0001
0100
,  // measure 20
0010
1000
0001
0010
2000
0000
3001
0000
,  // measure 21
0001
0100
1000
0100
0001
0010
1000
0100
,  // measure 22
0001
0010
0100
1000
0020
0000
0130
0000
,  // measure 23
0001
0100
1000
0100
0001
0100
1000
0100
,  // measure 24
0001
0010
1000
0010
0001
0000
1001
0000
,  // measure 25
1000
0010
0000
1000
0010
0000
1000
0010
1000
0000
0001
0000
0100
0000
0000
0000
,  // measure 26
0001
0100
0000
0001
0100
0000
0001
0100
0001
0000
1000
0000
0100
0000
0000
0000
,  // measure 27
0010
0100
0000
0010
0100
0000
0010
0100
0010
0000
0001
0000
1000
0000
0000
0000
,  // measure 28
1000
0001
0000
1000
0001
0000
1000
0001
1000
0000
0001
0000
0100
0000
0000
0000
,  // measure 29
1000
0000
0000
0100
0000
0000
1100
0000
0001
0000
0000
0100
0000
0000
0101
0000
,  // measure 30
1000
0000
0000
0010
0000
0000
1010
0000
0001
0000
0010
0000
0110
0000
0000
0000
,  // measure 31
0001
0010
0100
1000
0100
0010
0001
1000
,  // measure 32
0020
0100
0130
1001
,  // measure 33
1100
0000
0101
0000
1100
0000
0001
0100
,  // measure 34
0010
0000
0000
1000
0010
0000
0100
0000
0001
0000
0000
0000
0001
0000
0010
0000
,  // measure 35
0100
0000
0000
1000
0010
0000
0100
0000
0001
0000
0010
0100
0010
0000
1000
0000
,  // measure 36
0002
0000
1000
0000
1003
0000
0001
1000
,  // measure 37
0010
0000
0000
1000
0001
0000
0100
0000
0010
0000
1000
0000
0001
0000
0010
0000
,  // measure 38
0100
0000
0000
0010
0100
0000
0001
0000
1000
0000
0000
0000
0010
0000
1000
0000
,  // measure 39
0100
0000
0000
0010
0100
0000
0001
0000
0010
0000
0000
1000
0010
0000
0100
0000
,  // measure 40
0002
0000
1000
0000
1000
1000
1003
0000
,  // measure 41
0011
0000
1010
0000
0011
0000
0010
1000
,  // measure 42
0001
0000
0000
0100
0010
0000
1000
0000
0001
0000
0000
0000
0001
0000
0010
0000
,  // measure 43
0100
0000
0000
0001
1000
0000
0100
0000
0010
0000
1000
0001
1000
0000
0010
0000
,  // measure 44
0200
0000
0010
0000
0310
0000
0001
0010
,  // measure 45
0100
0000
0000
1000
0100
0000
0001
0000
0100
0000
0010
0100
0010
0000
0001
0000
,  // measure 46
0010
0000
0000
0100
0001
0000
1000
0000
0010
0000
0000
0000
0001
0000
1000
0000
,  // measure 47
0010
0000
0000
1000
0100
0000
0001
0000
0010
0000
0000
0001
0010
0000
1000
0000
,  // measure 48
0100
0000
0010
0000
0100
0010
0100
0001
,  // measure 49
0010
0000
0000
1000
0100
0000
0001
0000
0010
0000
0000
0100
0001
0000
0010
0000
,  // measure 50
1000
0000
0010
0000
1000
0001
1000
0001
,  // measure 51
1001
0000
0000
0100
0010
0000
0100
0000
0010
0000
1000
0001
1000
0000
0001
0000
,  // measure 52
1001
0010
0100
0010
0110
0000
1000
0100
,  // measure 53
0001
0000
0000
1000
0001
0000
0010
0000
1000
0000
0000
0000
1000
0000
0001
0000
,  // measure 54
0010
0000
0000
1000
0001
0000
0100
0000
0010
0000
0000
0000
1000
0000
0100
0000
,  // measure 55
0001
0000
0000
0010
0100
0000
1000
0000
0001
0000
0000
0100
0010
0000
1000
0000
,  // measure 56
0002
0000
0100
0000
0103
0001
1000
0010
,  // measure 57
0100
0000
0000
1000
0010
0000
0100
0000
0001
0000
0000
0000
0010
0000
0100
0000
,  // measure 58
0001
0000
0000
0001
0010
0000
0100
0000
1000
0000
0000
0000
0010
0000
1000
0000
,  // measure 59
1010
0000
0000
1000
0001
0000
1000
0000
1001
0000
0000
0001
0100
0000
0001
0000
,  // measure 60
0101
0000
0000
1100
0000
0000
0101
0000
1100
0000
0000
0000
1001
0000
0000
0000
;
