#TITLE:夏祭り;
#SUBTITLE:;
#ARTIST:鬱P & パンドリストP;
#TITLETRANSLIT:Natsu Matsuri;
#SUBTITLETRANSLIT:;
#ARTISTTRANSLIT:UtsuP & MinatsukitokaP;
#GENRE:Anime/Game;
#CREDIT:;
#BANNER:;
#BACKGROUND:;
#LYRICSPATH:;
#CDTITLE:;
#MUSIC:Natsu Matsuri.ogg;
#OFFSET:1.640000;
#SAMPLESTART:71.659637;
#SAMPLELENGTH:15.000000;
#LASTBEATHINT:0.757428;
#SELECTABLE:YES;
#DISPLAYBPM:75.000000:142.000000;
#BPMS:0.000000=75.099983
,44.000000=70.000000
,45.000000=64.000000
,46.000000=54.000000
,47.000000=40.000000
,48.000000=142.059998
;
#STOPS:
;
#BGCHANGES:;
#KEYSOUNDS:;
#ATTACKS:;

//---------------dance-single - ----------------
#NOTES:
     dance-single:
     :
     Beginner:
     2:
     0.107924,0.152467,0.013736,0.000000,0.000000,110.000000,108.000000,2.000000,0.000000,0.000000,0.000000,0.107924,0.152467,0.013736,0.000000,0.000000,110.000000,108.000000,2.000000,0.000000,0.000000,0.000000:
0000
0000
0000
0000
,
0000
0000
0000
0000
,
0000
0000
0000
0000
,
0000
0000
0000
0000
,
0000
0000
0000
0000
,
1000
0000
0001
0000
,
0100
0000
0000
0000
,
0001
0000
1000
0000
,
0010
0000
0000
0000
,
1000
0000
0100
0000
,
0001
0000
0000
0000
,
0001
0000
0010
0000
,
1001
0000
0000
0000
,
0100
0000
0000
0000
,
0010
0000
0000
0000
,
0100
0000
0000
0000
,
0001
0000
0001
0000
,
1000
0000
0000
0000
,
1000
0000
1000
0000
,
0001
0000
0000
0000
,
0010
0000
0010
0000
,
0100
0000
0000
0000
,
0100
0000
0100
0000
,
0010
0000
0000
0000
,
0001
0000
0001
0000
,
0010
0000
0000
0000
,
1000
0000
1000
0000
,
0100
0000
0000
0000
,
0010
0000
0010
0000
,
0001
0000
0000
0000
,
0100
0000
0100
0000
,
1000
0000
0000
0000
,
0100
0000
1000
0000
,
0100
0000
0001
0000
,
0100
0000
1000
0000
,
0100
0000
0100
0000
,
0010
0000
0001
0000
,
0010
0000
1000
0000
,
0010
0000
0001
0000
,
0010
0000
0000
0000
,
0100
0000
0000
0000
,
0010
0000
0000
0000
,
0100
0000
0000
0000
,
1000
0000
1000
0000
,
0010
0000
0000
0000
,
0001
0000
0001
0000
,
0100
0000
0000
0000
,
0010
0000
0010
0000
,
1000
0000
0000
0000
,
0100
0000
0100
0000
,
0001
0000
0000
0000
,
1000
0000
0100
0000
,
0010
0000
0000
0000
,
0001
0000
0010
0000
,
0100
0000
0000
0000
,
1000
0000
0001
0000
,
0100
0000
0000
0000
,
0001
0000
1000
0000
,
0010
0000
0000
0000
,
0010
0000
1000
0000
,
0010
0000
0001
0000
,
0010
0000
1000
0000
,
0010
0000
0010
0000
,
0100
0000
0001
0000
,
0100
0000
1000
0000
,
0100
0000
0001
0000
,
0100
0000
0000
0000
,
0010
0000
0000
0000
,
1000
0000
0000
0000
,
0001
0000
0000
0000
,
1000
0000
1000
0000
,
0001
0000
0001
0000
,
1000
0000
1000
0000
,
0001
0000
0001
0000
,
1001
0000
0000
0000
;

//---------------dance-single - ----------------
#NOTES:
     dance-single:
     :
     Easy:
     6:
     0.276678,0.355757,0.260980,0.288452,0.000000,282.000000,244.000000,38.000000,42.000000,0.000000,0.000000,0.276678,0.355757,0.260980,0.288452,0.000000,282.000000,244.000000,38.000000,42.000000,0.000000,0.000000:
0000
0000
0000
0000
,
0000
0000
0000
0000
,
0000
0000
0000
0000
,
0000
0000
0000
0000
,
0000
0000
0000
0000
,
1000
0001
0100
0010
,
0010
0001
0200
0300
,
1000
0010
0100
0001
,
0020
0000
0200
0330
,
0001
0100
0010
1000
,
0100
0010
0002
0003
,
1000
0000
0010
0000
0100
0000
0001
1000
,
1001
0010
0000
0010
,
1001
0100
0000
0100
,
1001
0010
0000
0010
,
1001
0100
0000
0100
,
1000
0100
0001
0010
,
0100
0100
0220
0330
,
0010
0001
0010
1000
,
0010
0100
0220
0330
,
1000
0100
0010
0001
,
2001
0001
0002
3003
,
0001
0010
0100
1000
,
1002
1000
2000
3003
,
1000
0100
0010
0100
,
1000
1000
2002
3003
,
0001
0010
0100
0010
,
0001
0001
2002
3003
,
1000
0001
0100
0010
,
0220
0000
0330
0000
,
0001
1000
0010
0100
,
2002
0000
3003
0000
,
1000
0100
0010
0001
,
0100
0010
1000
0001
,
0001
0010
0100
1000
,
0210
0010
0020
0330
,
1000
0010
0100
0001
,
0010
0100
1000
0001
,
1000
0010
0100
0001
,
2002
0000
0000
3003
,
0110
0110
0001
1000
,
0110
0110
1000
0001
,
0110
0110
0001
1000
,
0100
0010
0001
0100
,
0010
1000
2002
3003
,
0010
1000
0010
0100
,
0001
0010
0220
0330
,
1000
0100
0010
0001
,
0022
0000
0033
0001
,
0010
0100
0010
0100
,
2200
0000
3300
1000
,
0010
0100
0001
1000
,
0010
0100
2002
3003
,
0001
0100
0010
1000
,
0010
0100
0220
0330
,
0001
0100
1000
0010
,
0001
1001
0110
0001
,
0010
1000
0100
0010
,
0001
1001
0220
0330
,
0100
1000
0010
0001
,
0100
0010
1000
0001
,
0100
0001
0010
1000
,
0210
0010
0020
0330
,
0001
0100
1000
0010
,
0100
0001
1000
0010
,
0100
0001
1000
0010
,
0210
0010
0010
0310
,
0001
0100
0010
1000
,
0120
0100
0100
0130
,
0001
1000
0100
0010
,
0001
1000
0010
1001
,
1000
0001
0100
1001
,
0100
0010
1000
0011
,
0100
0010
0001
1100
,
1001
0000
0000
0000
;

//---------------dance-single - ----------------
#NOTES:
     dance-single:
     :
     Medium:
     9:
     0.393432,0.482813,0.405206,0.144226,0.000000,401.000000,342.000000,59.000000,21.000000,0.000000,0.000000,0.393432,0.482813,0.405206,0.144226,0.000000,401.000000,342.000000,59.000000,21.000000,0.000000,0.000000:
0000
0000
0000
0000
,
0000
0000
0000
0000
,
0000
0000
0000
0000
,
0000
0000
0000
0000
,
0000
0000
0000
0000
,
0110
0000
0001
0000
1000
0000
0100
0010
,
0001
0000
0100
0000
0010
0000
1000
0100
,
0010
0000
0001
0000
1000
0000
0001
0010
,
0200
0000
0320
0000
,
1030
0000
0001
0000
0100
0000
0010
0100
,
0001
0000
0100
0000
1000
0000
0010
0100
,
0001
0000
1000
0000
0010
0000
0100
1000
,
1001
0100
1000
0010
,
0101
0010
0100
0001
,
1000
0010
0100
0001
,
0011
0000
0100
0000
0010
0000
0001
1000
,
0010
0000
1000
0010
0001
0000
0001
0100
,
1000
0000
0010
0000
0110
0000
0001
0100
,
1000
0000
1000
0010
0001
0000
1000
0010
,
0100
0000
0001
0000
0011
0000
0001
0100
,
0010
0000
1000
0000
0010
0000
1000
0001
,
0200
0000
0010
0000
1300
0000
0010
1000
,
0001
0000
0100
0000
0010
0000
1000
0010
,
0200
0000
0001
0000
1300
0000
0001
1000
,
0010
0000
0010
1000
0001
0000
0100
0001
,
1000
0000
0010
0000
1001
0000
0001
0100
,
1000
0000
1000
0100
0001
0000
0001
0100
,
0010
0000
1000
0000
1001
0000
1000
0010
,
0100
0000
0001
0100
0010
0000
1000
0010
,
0002
0000
1000
0000
1003
0000
0001
0100
,
0010
0000
1000
0010
0100
0000
0001
0100
,
2000
0001
3001
0000
,
1010
0000
0101
0000
1001
0000
0010
0100
,
0001
0000
1010
0000
1001
0000
0010
1000
,
0001
0000
1100
0000
1001
0000
0010
0100
,
0002
1000
0200
0303
,
0110
0000
0011
0000
1010
0000
0001
1000
,
0100
0000
1100
0000
0101
0000
0010
1000
,
1001
1100
0011
1001
,
0210
0010
0010
0310
,
1001
0010
1000
0010
,
0210
0010
0010
0310
,
1001
0000
0010
0000
1000
0000
0100
0010
,
0001
0000
0001
0010
0100
0000
0100
0010
,
0001
0000
1000
0000
1001
0000
1000
0100
,
0010
0000
0010
0100
1000
0000
1000
0100
,
0010
0000
0001
0000
1001
0000
1000
0100
,
0001
0000
0010
0001
0100
0000
1000
0010
,
0200
0000
0001
0000
1300
0000
0010
1000
,
0001
0000
0001
1000
0010
0000
0100
0010
,
0002
0000
0100
0000
0010
0000
1003
0010
,
0100
0000
0001
0100
0010
0000
1000
0001
,
0100
0000
0010
0000
1001
0000
0100
0001
,
1000
0000
0010
1000
0001
0000
0100
0001
,
1000
0000
0010
0000
1001
0000
1000
0100
,
0002
0000
0100
0000
0010
0003
1000
0001
,
0200
0000
0010
0000
1300
0000
0010
1000
,
0200
0000
0001
0000
0310
0000
0001
0010
,
2000
0001
3100
0000
,
0011
0000
0110
0000
1100
0000
0010
1000
,
1001
0000
1100
0000
0011
0000
0001
0100
,
0110
0000
1100
0000
0011
0000
0001
1000
,
0210
1000
0301
1001
,
0011
0000
1100
0000
1001
0000
0110
1000
,
1100
0000
0100
0000
0101
0000
0011
0010
,
1010
0000
1001
0000
0110
0000
0101
0100
,
1200
1000
1000
1300
,
0201
0001
0001
0301
,
1020
1000
1000
1030
,
0021
0001
0001
0031
,
0001
0100
0001
0100
0000
0100
0001
0000
,
1000
0100
1000
0100
0000
0100
1000
0000
,
0010
0100
0010
0100
0000
0100
0010
0000
,
1000
0001
1000
0001
0000
0001
1000
0010
,
0110
0000
0000
0000
;

//---------------dance-single - ----------------
#NOTES:
     dance-single:
     :
     Hard:
     14:
     0.592601,0.660692,0.425810,0.103018,0.367432,604.000000,542.000000,62.000000,15.000000,0.000000,0.000000,0.592601,0.660692,0.425810,0.103018,0.367432,604.000000,542.000000,62.000000,15.000000,0.000000,0.000000:
// measure 0
0000
0000
0000
0000
,  // measure 1
0000
0000
0000
0000
,  // measure 2
0000
0000
0000
0000
,  // measure 3
0000
0000
0000
0000
,  // measure 4
0000
0000
0000
0000
,  // measure 5
0011
0000
0110
0000
1100
0000
0010
0100
,  // measure 6
1001
0000
1100
0000
0101
0000
0010
1000
,  // measure 7
1100
0000
0011
0000
0110
0000
0001
0100
,  // measure 8
2001
0001
0020
3030
,  // measure 9
0101
0000
0011
0000
1001
0000
0100
0010
,  // measure 10
1100
0000
1001
0000
1010
0000
0100
0010
,  // measure 11
2001
0000
3020
0000
0230
0000
0302
0203
,  // measure 12
1300
0000
0010
0000
1000
0000
0100
1000
0000
0010
1000
0000
0001
0000
0000
0000
,  // measure 13
0001
0000
0100
0000
0001
0000
0010
0001
0000
0100
0001
0000
1000
0000
0000
0000
,  // measure 14
1000
0000
0001
0000
0100
0000
0010
1000
0000
0001
0100
0000
0010
0000
0000
0000
,  // measure 15
0001
0000
0010
0000
0100
0000
1000
0001
0000
0010
0100
0000
1000
0000
0100
0000
,  // measure 16
0010
0000
1000
0001
0100
0000
0010
0100
,  // measure 17
0001
0000
0000
1000
0100
0000
0010
0000
0101
0000
0000
0000
0001
0000
0010
0000
,  // measure 18
0100
0000
0010
0100
0001
0000
1000
0010
,  // measure 19
0100
0000
0000
0001
0010
0000
0100
0000
1100
0000
0000
0000
1000
0000
0010
0000
,  // measure 20
1001
0000
1100
0000
0101
0000
0010
0100
,  // measure 21
0201
0000
1000
0000
0301
0000
0010
1000
,  // measure 22
0011
0000
0110
0000
1100
0000
0010
1000
,  // measure 23
0102
0000
0000
0000
0010
0000
0000
0000
1000
0003
0000
0000
0001
0000
0100
0000
,  // measure 24
0100
0000
0001
1000
0010
0000
0100
0010
,  // measure 25
1000
0000
0000
0001
0010
0000
0100
0000
1010
0000
0000
0000
1000
0000
0100
0000
,  // measure 26
0010
0000
0100
0010
1000
0000
0001
0100
,  // measure 27
0010
0000
0000
1000
0100
0000
0010
0000
0011
0000
0000
0000
0001
0000
0100
0000
,  // measure 28
1001
0000
0011
0000
1010
0000
0100
0010
,  // measure 29
1020
0000
0001
0000
1030
0000
0100
0001
,  // measure 30
1100
0000
0110
0000
0011
0000
0100
0001
,  // measure 31
2010
0000
0000
0000
0100
0000
0000
0000
0001
3000
0000
0000
1000
0000
0010
0000
,  // measure 32
0010
0000
1000
0100
1000
0000
1000
0010
1000
0000
1000
0100
1000
0000
0100
0000
,  // measure 33
0001
0000
0001
0010
0001
0000
0001
0100
0001
0000
0001
0010
0001
0000
0100
0000
,  // measure 34
1000
0000
1000
0100
1000
0000
0100
1000
0100
0000
1000
0100
1000
0000
0100
0000
,  // measure 35
0001
0000
0001
0010
0001
0000
0010
0001
0010
0000
0001
0010
0001
0100
0001
0000
,  // measure 36
0010
0000
1000
0010
1000
0000
0001
0010
0001
0000
1000
0100
1000
0000
0100
0000
,  // measure 37
0001
0000
0010
0001
0010
0000
0100
1000
0100
0000
0001
0010
0001
0000
0010
0000
,  // measure 38
1000
0000
0001
1000
0010
0000
1000
0001
0100
0000
0010
1000
0001
0000
0100
0000
,  // measure 39
0010
0000
0001
0000
1000
0000
0010
0100
0000
0001
1000
0000
0010
0000
0100
0000
,  // measure 40
0001
0000
0010
0000
0100
0000
1000
0010
0000
0100
0001
0000
1000
0000
0010
0000
,  // measure 41
0100
0000
0001
0000
0010
0000
0001
0010
0000
0100
1000
0000
0010
0000
0100
0000
,  // measure 42
0001
0000
1000
0000
0010
0000
1000
0001
0000
0100
0010
0000
1000
0000
0001
0000
,  // measure 43
1100
0000
0100
0001
0101
0000
0001
0100
,  // measure 44
1000
0100
0000
1000
0100
0000
0001
0000
0101
0000
0000
0000
0001
0000
0010
0000
,  // measure 45
0011
0000
0010
1000
1010
0000
1000
0001
,  // measure 46
1000
0001
0000
1000
0100
0000
0001
0000
0110
0000
0000
0000
0100
0000
1000
0000
,  // measure 47
1100
0000
0001
0100
0110
0000
0001
0010
,  // measure 48
2010
0000
0001
0000
3100
0000
0001
1000
,  // measure 49
0110
0000
0100
0010
1001
0000
0010
0100
,  // measure 50
2100
0000
0100
0000
3001
0000
0010
0100
,  // measure 51
0011
0000
0010
1000
1010
0000
1000
0010
,  // measure 52
0001
0010
0000
0001
0010
0000
1000
0000
1010
0000
0000
0000
1000
0000
0100
0000
,  // measure 53
1100
0000
0100
0001
0101
0000
0001
1000
,  // measure 54
0001
1000
0000
0001
0010
0000
1000
0000
0110
0000
0000
0000
0010
0000
0001
0000
,  // measure 55
0011
0000
1000
0010
0110
0000
1000
0100
,  // measure 56
0102
0000
1000
0000
0013
0000
1000
0001
,  // measure 57
0110
0000
0010
0100
1001
0000
0100
0010
,  // measure 58
0012
0000
0010
0000
1003
0000
0100
0010
,  // measure 59
0010
0000
0001
0010
0100
0000
1000
0100
0010
0000
0001
0010
0100
0000
1000
0010
,  // measure 60
0001
0000
0100
0010
1000
0000
0010
0100
0001
0000
0100
0010
1000
0000
0100
0010
,  // measure 61
0001
0000
0010
1000
0001
0000
0100
0001
1000
0000
0010
1000
0001
0000
0100
0010
,  // measure 62
1000
0000
0001
0100
0010
0000
1000
0010
0100
0000
0001
1000
0010
0100
0010
0000
,  // measure 63
0001
0000
1000
0010
0100
0000
0001
0010
0100
0000
1000
0001
0010
0000
1000
0100
,  // measure 64
1000
0000
0010
1000
0001
0000
0100
0010
1000
0000
0010
0001
0100
0000
0001
0010
,  // measure 65
0001
0000
1000
0001
0010
0000
0100
1000
0010
0000
0001
1000
0010
0000
0100
0001
,  // measure 66
1000
0000
0100
0000
0010
0000
1000
0010
0000
0001
0010
0001
0100
0000
0010
0000
,  // measure 67
0100
0000
0001
0000
1000
0000
0100
1000
0000
0010
1000
0010
0001
0000
1000
0000
,  // measure 68
0010
0000
1000
0000
0001
0000
0010
0001
0000
0100
0001
0100
1000
0000
0001
0000
,  // measure 69
0001
0000
0010
0000
0100
0000
0001
0100
0000
1000
0100
1000
0010
0000
0100
0000
,  // measure 70
0100
0010
0100
0010
0100
0000
0001
1000
0000
0010
1000
0000
0010
0000
0001
0000
,  // measure 71
0010
0100
0010
0100
0010
0000
1000
0001
0000
0100
0001
0000
0100
0000
1000
0000
,  // measure 72
1000
0100
0010
0001
0010
0000
0001
1000
0000
0010
0100
0000
1000
0000
0001
0000
,  // measure 73
0001
0010
0100
1000
0100
0000
0100
0010
0000
1000
0001
0010
0100
0000
0010
0000
,  // measure 74
1001
0000
0000
0000
;
