#TITLE:難聴系男子が倒せない;
#SUBTITLE:;
#ARTIST:ラマーズP;
#TITLETRANSLIT:Nanchoukei Danshi ga Taosenai;
#SUBTITLETRANSLIT:;
#ARTISTTRANSLIT:LamazeP;
#GENRE:Pop;
#CREDIT:;
#BANNER:;
#BACKGROUND:;
#LYRICSPATH:;
#CDTITLE:;
#MUSIC:Nanchoukei Danshi ga Taosenai.ogg;
#OFFSET:-0.090000;
#SAMPLESTART:65.677010;
#SAMPLELENGTH:15.000000;
#SELECTABLE:YES;
#DISPLAYBPM:150.000000;
#BPMS:0.000000=150.000000
,251.000000=151.500000
,252.000000=150.000000
;
#STOPS:
;
#BGCHANGES:0.000=Nanchoukei Danshi ga Taosenai.avi=1.000=0=0=1=====,
99999=-nosongbg-=1.000=0=0=0 // don't automatically add -songbackground-
;
#KEYSOUNDS:;
#ATTACKS:;

//---------------dance-single - ----------------
#NOTES:
     dance-single:
     :
     Beginner:
     2:
     0.098889,0.205476,0.043812,0.070099,0.000000,79.000000,74.000000,5.000000,8.000000,0.000000,0.000000,0.098889,0.205476,0.043812,0.070099,0.000000,79.000000,74.000000,5.000000,8.000000,0.000000,0.000000:
// measure 0
0000
0000
0000
0000
,  // measure 1
0000
0000
0000
0000
,  // measure 2
0000
0000
0000
0000
,  // measure 3
0000
0000
0000
0000
,  // measure 4
0000
0000
0000
0000
,  // measure 5
0000
0000
0000
0000
,  // measure 6
0000
0000
0000
0000
,  // measure 7
0000
0000
0000
0000
,  // measure 8
0000
0000
0000
0000
,  // measure 9
0100
0000
0000
0000
,  // measure 10
0100
0000
0000
0000
,  // measure 11
0010
0000
0000
0000
,  // measure 12
0010
0000
0000
0000
,  // measure 13
0100
0000
0000
0000
,  // measure 14
0100
0000
0000
0000
,  // measure 15
0010
0000
0000
0000
,  // measure 16
0010
0000
0000
0000
,  // measure 17
1000
0000
0000
0000
,  // measure 18
0100
0000
0000
0000
,  // measure 19
1000
0000
0000
0000
,  // measure 20
0010
0000
0000
0000
,  // measure 21
1000
0000
0000
0000
,  // measure 22
0100
0000
0000
0000
,  // measure 23
1000
0000
0000
0000
,  // measure 24
0010
0000
0000
0000
,  // measure 25
0001
0000
0000
0000
,  // measure 26
0010
0000
0000
0000
,  // measure 27
0001
0000
0000
0000
,  // measure 28
0100
0000
0000
0000
,  // measure 29
0001
0000
0000
0000
,  // measure 30
0010
0000
0000
0000
,  // measure 31
0001
0000
0000
0000
,  // measure 32
0100
0000
0000
0000
,  // measure 33
1000
0000
0000
0000
,  // measure 34
0000
0000
0000
0000
,  // measure 35
0100
0000
0100
0000
,  // measure 36
0200
0000
0300
0000
,  // measure 37
1001
0000
0000
0000
,  // measure 38
0000
0000
0000
0000
,  // measure 39
0010
0000
0010
0000
,  // measure 40
0020
0000
0030
0000
,  // measure 41
1000
0000
0100
0000
,  // measure 42
1000
0000
0000
0000
,  // measure 43
0001
0001
0001
0001
,  // measure 44
0001
0000
0100
0000
,  // measure 45
0001
0000
1000
0000
,  // measure 46
0001
0000
1000
0000
,  // measure 47
0100
0000
0100
0000
,  // measure 48
0220
0000
0330
0000
,  // measure 49
0001
0000
0010
0000
,  // measure 50
0001
0000
0000
0000
,  // measure 51
1000
1000
1000
1000
,  // measure 52
1000
0000
0010
0000
,  // measure 53
1000
0000
0001
0000
,  // measure 54
1000
0000
0001
0000
,  // measure 55
0010
0000
0010
0000
,  // measure 56
0220
0000
0330
0000
,  // measure 57
2002
0000
0000
0000
,  // measure 58
3003
0000
0000
0000
,  // measure 59
0100
0000
0000
0000
,  // measure 60
0100
0000
0000
0000
,  // measure 61
0010
0000
0000
0000
,  // measure 62
0010
0000
0000
0000
,  // measure 63
0100
0000
0000
0000
,  // measure 64
0100
0000
0000
0000
,  // measure 65
0010
0000
0000
0000
,  // measure 66
0010
0000
0000
0000
,  // measure 67
1001
0000
0000
0000
;

//---------------dance-single - ----------------
#NOTES:
     dance-single:
     :
     Easy:
     5:
     0.292912,0.371961,0.236583,0.455641,0.000000,234.000000,207.000000,27.000000,52.000000,0.000000,0.000000,0.292912,0.371961,0.236583,0.455641,0.000000,234.000000,207.000000,27.000000,52.000000,0.000000,0.000000:
// measure 0
0000
0000
0000
0000
,  // measure 1
0000
0000
0000
0000
,  // measure 2
0000
0000
0000
0000
,  // measure 3
0000
0000
0000
0000
,  // measure 4
0000
0000
0000
0000
,  // measure 5
0000
0000
0000
0000
,  // measure 6
0000
0000
0000
0000
,  // measure 7
0000
0000
0000
0000
,  // measure 8
0000
0000
0000
0000
,  // measure 9
1000
1000
0100
0010
,  // measure 10
0001
0001
2002
3003
,  // measure 11
0001
0001
0010
0100
,  // measure 12
1000
1000
2002
3003
,  // measure 13
1000
1000
0010
0100
,  // measure 14
0001
0001
2002
3003
,  // measure 15
0001
0001
0100
0010
,  // measure 16
1000
1000
2002
3003
,  // measure 17
1000
0100
0220
0330
,  // measure 18
0001
0010
0220
0330
,  // measure 19
1000
0100
2002
3003
,  // measure 20
0001
0100
2002
3003
,  // measure 21
1000
0100
0010
0001
,  // measure 22
0100
0010
1000
0001
,  // measure 23
0001
0010
0100
1000
,  // measure 24
0010
0100
0001
1000
,  // measure 25
0001
0100
0010
1000
,  // measure 26
0010
0010
0220
0330
,  // measure 27
1000
0010
0100
0001
,  // measure 28
0100
0100
0220
0330
,  // measure 29
0001
0100
0010
1000
,  // measure 30
1000
0010
0100
0001
,  // measure 31
2000
3100
0200
1300
,  // measure 32
0002
0013
0020
0031
,  // measure 33
2000
0000
3002
0000
,  // measure 34
2003
0000
3002
0000
,  // measure 35
1003
0100
0010
0001
,  // measure 36
0100
0010
1000
0001
,  // measure 37
0200
0000
0320
0000
,  // measure 38
0230
0000
0320
0000
,  // measure 39
0031
0010
0100
1000
,  // measure 40
0010
0100
0001
1001
,  // measure 41
0001
0100
1000
0100
,  // measure 42
0001
0100
1000
0100
,  // measure 43
0010
0010
0010
0010
,  // measure 44
0010
1000
0001
1001
,  // measure 45
0100
1000
1001
0001
,  // measure 46
0010
0100
0110
0001
,  // measure 47
2000
3010
0200
0310
,  // measure 48
0002
0013
2000
3001
,  // measure 49
1000
0010
0001
0010
,  // measure 50
1000
0010
0001
0010
,  // measure 51
0100
0100
0100
0100
,  // measure 52
0100
0001
1000
1001
,  // measure 53
0010
0001
1001
1000
,  // measure 54
0100
0010
0110
1000
,  // measure 55
0002
0103
0020
0130
,  // measure 56
2000
3100
0002
1003
,  // measure 57
1002
0000
1000
0000
,  // measure 58
0203
0000
0010
0000
,  // measure 59
0301
0100
0010
1000
,  // measure 60
0010
0010
0220
0330
,  // measure 61
1000
0010
0100
0001
,  // measure 62
0100
0100
0220
0330
,  // measure 63
0001
0100
0010
1000
,  // measure 64
1001
1001
2002
3003
,  // measure 65
1000
0010
0100
0001
,  // measure 66
1001
1001
2002
3003
,  // measure 67
0220
0000
0000
0000
,  // measure 68
0000
0000
0000
0000
,  // measure 69
0000
0000
0000
0000
,  // measure 70
0000
0000
0000
0330
;

//---------------dance-single - ----------------
#NOTES:
     dance-single:
     :
     Medium:
     7:
     0.309185,0.371961,0.131435,0.262870,0.000000,247.000000,232.000000,15.000000,30.000000,0.000000,0.000000,0.309185,0.371961,0.131435,0.262870,0.000000,247.000000,232.000000,15.000000,30.000000,0.000000,0.000000:
// measure 0
0000
0000
0000
0000
,  // measure 1
0000
0000
0000
0000
,  // measure 2
0000
0000
0000
0000
,  // measure 3
0000
0000
0000
0000
,  // measure 4
0000
0000
0000
0000
,  // measure 5
0000
0000
0000
0000
,  // measure 6
0000
0000
0000
0000
,  // measure 7
0000
0000
0000
0000
,  // measure 8
0000
0000
0000
0000
,  // measure 9
1000
0010
0100
0001
,  // measure 10
0100
0100
0010
0010
,  // measure 11
0001
0100
0010
1000
,  // measure 12
0010
0010
0100
0100
,  // measure 13
1000
0100
0010
0001
,  // measure 14
1000
1000
0001
0001
,  // measure 15
0001
0010
0100
1000
,  // measure 16
0001
0001
1000
1000
,  // measure 17
1000
0100
0220
0330
,  // measure 18
0001
0010
0220
0330
,  // measure 19
1000
0100
2200
3300
,  // measure 20
0001
0100
0202
0303
,  // measure 21
1000
0100
0001
0010
,  // measure 22
1000
0100
0001
0010
,  // measure 23
1000
0010
0100
0001
,  // measure 24
0100
0000
0010
0000
1000
0001
1001
0000
,  // measure 25
0010
0100
1000
0001
,  // measure 26
0000
0010
0000
0010
0000
0100
0000
0100
,  // measure 27
1000
0010
0100
0001
,  // measure 28
0000
0100
0000
0100
0000
0010
0000
0010
,  // measure 29
1000
0100
1000
0100
,  // measure 30
0001
0010
0001
0010
,  // measure 31
1000
0001
0100
0010
,  // measure 32
1000
1000
0001
0001
,  // measure 33
0002
0100
0203
0010
,  // measure 34
0320
1000
2030
0001
,  // measure 35
3100
1000
0010
0100
,  // measure 36
0001
0010
0100
0001
,  // measure 37
2000
0010
3020
0100
,  // measure 38
0230
0001
0302
1000
,  // measure 39
1003
0010
0100
0001
,  // measure 40
0100
0010
0100
0000
0220
0000
0330
0000
,  // measure 41
0001
0100
0010
1000
,  // measure 42
0010
0100
0001
1000
,  // measure 43
0001
0001
0001
0000
1000
1000
1000
0000
,  // measure 44
0010
0100
0220
0330
,  // measure 45
1000
0100
1100
0100
,  // measure 46
0010
0100
0110
0010
,  // measure 47
0001
0010
0100
1000
,  // measure 48
0001
1000
2002
3003
,  // measure 49
1000
0010
0100
0001
,  // measure 50
0100
0010
1000
0001
,  // measure 51
1000
1000
1000
0000
0001
0001
0001
0000
,  // measure 52
0100
0010
0220
0330
,  // measure 53
0001
0010
0011
0010
,  // measure 54
0100
0010
0110
0100
,  // measure 55
1000
0100
0010
0001
,  // measure 56
1000
0001
2002
3003
,  // measure 57
0010
0100
0020
0000
,  // measure 58
1030
0000
0001
0000
2000
0000
0000
3000
,  // measure 59
0001
0100
0010
1000
,  // measure 60
0010
0100
0000
0100
0000
0100
0000
0100
,  // measure 61
0010
1000
0010
0100
,  // measure 62
0001
0100
0000
0100
0000
0100
0000
0100
,  // measure 63
0001
1000
0010
0100
,  // measure 64
0001
1000
0000
1000
0000
1000
0000
1000
,  // measure 65
0001
0100
0010
1000
,  // measure 66
0010
0001
0000
0001
0000
0001
0010
0000
,  // measure 67
0220
0000
0000
0000
,  // measure 68
0000
0000
0000
0000
,  // measure 69
0000
0000
0000
0000
,  // measure 70
0000
0000
0000
0330
;

//---------------dance-single - ----------------
#NOTES:
     dance-single:
     :
     Hard:
     11:
     0.470662,0.588938,0.262870,0.315444,0.026287,376.000000,346.000000,30.000000,36.000000,0.000000,0.000000,0.470662,0.588938,0.262870,0.315444,0.026287,376.000000,346.000000,30.000000,36.000000,0.000000,0.000000:
// measure 0
0000
0000
0000
0000
,  // measure 1
0000
0000
0000
0000
,  // measure 2
0000
0000
0000
0000
,  // measure 3
0000
0000
0000
0000
,  // measure 4
0000
0000
0000
0000
,  // measure 5
0000
0000
0000
0000
,  // measure 6
0000
0000
0000
0000
,  // measure 7
0000
0000
0000
0000
,  // measure 8
0000
0000
0000
0000
,  // measure 9
1000
0010
0100
0001
1000
0010
0100
0001
,  // measure 10
1000
0001
0000
0001
0000
0001
0000
0001
,  // measure 11
0100
0010
1000
0001
0100
0010
1000
0001
,  // measure 12
0100
0010
0000
0010
0000
0010
0000
0010
,  // measure 13
0100
0001
1000
0010
0100
0001
1000
0010
,  // measure 14
0100
0001
0000
0001
0000
0001
0000
0001
,  // measure 15
0100
0010
1000
0001
0100
0010
1000
0001
,  // measure 16
0100
0010
0000
0010
0000
0010
0100
0000
,  // measure 17
1001
0100
1100
1000
,  // measure 18
0010
0100
0001
1000
1001
0000
0101
0000
,  // measure 19
0001
0100
0110
1000
,  // measure 20
1000
0010
0100
0001
1001
0000
0110
0000
,  // measure 21
2000
3100
0200
0310
,  // measure 22
0020
0031
0002
0103
,  // measure 23
0002
0203
0320
2030
,  // measure 24
3001
0100
0010
1000
0001
0000
1001
0000
,  // measure 25
1000
0100
0001
0100
1000
0000
1001
0000
,  // measure 26
0001
0010
1000
0010
0001
0000
1001
0000
,  // measure 27
1000
0010
0100
0010
1000
0000
1010
0000
,  // measure 28
0001
0100
0010
0100
0001
0000
0101
0000
,  // measure 29
1000
0100
0001
0000
0001
0010
1000
0000
,  // measure 30
0010
1000
0001
0000
0100
0001
1000
0000
,  // measure 31
0002
0103
0200
1300
,  // measure 32
2000
3010
0020
0031
,  // measure 33
0002
0203
0320
2030
,  // measure 34
3020
0230
0302
2003
,  // measure 35
3001
0000
0100
0000
1000
0010
0100
0001
,  // measure 36
1000
0000
1001
0000
0001
0100
0010
1000
,  // measure 37
2001
3020
0230
0302
,  // measure 38
0203
0320
2030
3002
,  // measure 39
1003
0100
0010
1000
0001
0100
0010
1000
,  // measure 40
0001
0001
1000
1000
2002
0000
3003
0000
,  // measure 41
0002
0000
0103
0000
1000
0010
0100
0001
,  // measure 42
1000
0010
0100
0000
0110
0000
1001
0000
,  // measure 43
0010
0010
0010
0010
0100
0100
0100
0100
,  // measure 44
0001
1000
0010
0100
1001
0000
0100
0000
,  // measure 45
1000
0100
0010
0100
0001
0100
0010
1000
,  // measure 46
0001
0100
0010
1000
0001
1000
0010
0100
,  // measure 47
0110
1100
0101
1001
,  // measure 48
0001
0000
0100
0000
0010
0000
1000
0000
0001
1000
0001
1000
0001
0000
0000
0000
,  // measure 49
2000
0000
3010
0000
0001
0100
0010
1000
,  // measure 50
0001
0100
0010
0000
0110
0000
1001
0000
,  // measure 51
0100
0100
0100
0100
0010
0010
0010
0010
,  // measure 52
1000
0001
0100
0010
1001
0000
0010
0000
,  // measure 53
0001
0010
0100
0010
1000
0010
0100
0001
,  // measure 54
1000
0010
0100
0001
1000
0001
0100
0010
,  // measure 55
0110
0011
1010
1001
,  // measure 56
1000
0000
0010
0000
0100
0000
0001
0000
1000
0001
1000
0001
1000
0000
0000
0000
,  // measure 57
0020
0000
0000
0000
0130
0000
0000
1000
,  // measure 58
0020
0000
0000
0000
0000
0000
0000
0000
0031
0000
1000
0000
0001
1000
0001
1000
,  // measure 59
0001
0100
0010
1000
0001
0100
0010
1000
,  // measure 60
0001
1000
0000
1000
0000
1000
0000
1000
,  // measure 61
0010
0100
0001
1000
0010
0100
0001
1000
,  // measure 62
0010
0100
0000
0100
0000
0100
0000
0100
,  // measure 63
0010
1000
0001
0100
0010
1000
0001
0100
,  // measure 64
0010
1000
0000
1000
0000
1000
0000
1000
,  // measure 65
0010
0100
0001
1000
0010
0100
0001
1000
,  // measure 66
0010
0100
0000
0100
0000
0100
0010
0000
,  // measure 67
2002
0000
0000
0000
,  // measure 68
0000
0000
0000
0000
,  // measure 69
0000
0000
0000
0000
,  // measure 70
0000
0000
0000
3003
;
