#TITLE:NO LIMIT -オレ達に限界は無い-;
#SUBTITLE:;
#ARTIST:SUPER STAR 満-MITSURU- vs. 伝説のダンサー マイク;
#TITLETRANSLIT:NO LIMIT -oretachi ni genkai wa nai-;
#SUBTITLETRANSLIT:;
#ARTISTTRANSLIT:SUPER STAR -MITSURU- vs. Densetsu no dansaru Mike;
#GENRE:beatmania IIDX;
#CREDIT:;
#BANNER:;
#BACKGROUND:;
#LYRICSPATH:;
#CDTITLE:;
#MUSIC:NO LIMIT -oretachi ni genkai wa nai-.ogg;
#OFFSET:0.970000;
#SAMPLESTART:90.225517;
#SAMPLELENGTH:15.000000;
#SELECTABLE:YES;
#BPMS:0.000000=150.000000
;
#STOPS:
;
#BGCHANGES:3.750=NO LIMIT -oretachi ni genkai wa nai-.mp4=1.000=0=0=1=====,
99999=-nosongbg-=1.000=0=0=0 // don't automatically add -songbackground-
;
#KEYSOUNDS:;
#ATTACKS:;

//---------------dance-single - ----------------
#NOTES:
     dance-single:
     :
     Beginner:
     4:
     0.157200,0.153300,0.042000,0.000000,0.000000,126.000000,5.000000,0.000000,0.000000,0.000000,0.000000,0.157200,0.153300,0.042000,0.000000,0.000000,126.000000,5.000000,0.000000,0.000000,0.000000,0.000000:
0000
0000
0000
0000
,
0000
0000
0000
0000
,
0000
0000
0000
0000
,
0000
0000
0000
0000
,
0000
0000
0000
0000
,
1000
0000
0000
0000
,
1000
0000
0000
0000
,
0001
0000
0000
0000
,
0001
0000
0000
0000
,
0100
0100
0100
0000
,
0100
0000
0100
0000
,
0100
0100
0100
0000
,
0100
0000
0100
0000
,
0010
0010
0010
0000
,
0010
0000
0010
0000
,
0010
0010
0010
0000
,
0010
0000
0010
0000
,
1000
0000
1000
0000
,
0100
0000
0100
0000
,
0001
0000
0001
0000
,
0010
0000
0010
0000
,
1000
0000
0100
0000
,
0001
0000
0010
0000
,
1000
0000
1000
0000
,
0001
0000
0001
0000
,
1001
0000
0000
0000
,
0000
0000
0000
0000
,
0110
0000
0000
0000
,
0000
0000
0000
0000
,
0100
0000
0000
0000
,
0001
0000
0000
0000
,
0010
0000
0000
0000
,
1000
0000
0000
0000
,
1000
0000
0100
0000
,
0001
0000
0100
0000
,
1000
0000
0100
0000
,
0001
0000
0100
0000
,
1000
0000
0010
0000
,
0001
0000
0010
0000
,
1000
0000
0010
0000
,
1001
0000
0000
0000
,
1000
1000
1000
0000
,
1000
0000
1000
0000
,
0001
0001
0001
0000
,
0001
0000
0001
0000
,
1000
1000
1000
0000
,
1000
0000
1000
0000
,
0001
0001
0001
0000
,
0001
0000
0001
0000
,
0100
0000
0000
0000
,
0010
0000
0000
0000
,
0100
0000
0000
0000
,
0010
0000
0000
0000
,
0010
0000
1000
0000
,
0100
0000
0001
0000
,
1001
0000
0000
0000
,
0010
0000
0000
0000
,
0100
0000
0001
0000
,
0100
0000
1000
0000
,
0100
0000
0001
0000
,
0100
0000
1000
0000
,
0001
0000
0010
0000
,
1000
0000
0010
0000
,
0001
0000
0010
0000
,
1000
0000
0010
0000
,
1000
0000
0100
0000
,
0001
0000
0100
0000
,
1000
0000
0010
0000
,
0001
0000
0010
0000
,
1000
1000
1000
0000
,
0001
0001
0001
0000
,
0100
0000
0100
0000
,
0010
0000
0010
0000
,
1001
0000
0000
0000
;

//---------------dance-single - ----------------
#NOTES:
     dance-single:
     :
     Easy:
     7:
     0.380399,0.429239,0.386399,0.167999,0.037800,251.000000,46.000000,20.000000,0.000000,0.000000,0.000000,0.380399,0.429239,0.386399,0.167999,0.037800,251.000000,46.000000,20.000000,0.000000,0.000000,0.000000:
0000
0000
0000
0000
,
0000
0000
0000
0000
,
0000
0000
0000
0000
,
0000
0000
0000
0000
,
0000
0000
0000
0000
,
1000
1000
1000
1000
,
0001
0001
0001
0001
,
0100
0100
0010
0010
,
0100
0010
0100
0110
,
1000
1000
1100
0000
,
1000
0000
0000
0100
0000
0000
0001
0000
,
0010
0010
0011
0000
,
0001
0000
0000
0100
0000
0000
1000
0000
,
0010
0010
0100
0001
,
1100
0000
0000
0100
0000
0000
0001
0000
,
0100
0100
0010
1000
,
0101
0000
0000
0001
0000
0000
0100
0000
,
0010
1000
0100
1000
,
0100
0000
0000
1100
0000
0000
1001
0000
,
0010
1000
0001
0100
,
0010
0000
0000
0011
0000
0000
1001
0000
,
0010
1000
0100
0001
,
0100
0000
0000
1100
0000
0000
1001
0000
,
0010
1000
0001
0100
,
0010
1000
0100
0001
,
2001
0000
3200
0000
,
0320
0000
0032
0010
,
2003
0000
3200
0000
,
0302
0000
0023
0001
,
0230
0000
0302
0000
,
0023
0000
2030
0001
,
3200
0000
0320
0000
,
2030
0000
3002
0100
,
0103
0100
0100
0100
,
0010
0010
0010
0010
,
1000
1000
1000
1000
,
0001
0001
0001
0001
,
1000
0100
0001
0100
,
1000
0100
0001
0100
,
1000
0100
1000
0000
0100
0001
0100
0000
,
2002
0000
0000
3003
,
1001
0000
0000
0000
1000
0000
0000
0000
1100
0000
0000
1000
0000
0000
1000
0000
,
0000
1001
0010
0010
,
1001
0000
0000
0000
0100
0000
0000
0000
0101
0000
0000
0001
0000
0000
0001
0000
,
0000
0100
0010
0010
,
1000
0000
0000
0000
0100
0000
0000
0000
1010
0000
0000
1000
0000
0000
1000
0000
,
0000
0010
1000
0001
,
0100
0000
0000
0000
0010
0000
0000
0000
0011
0000
0000
0001
0000
0000
0001
0000
,
0000
0010
1000
0001
,
0100
0000
0000
0000
1000
0000
0000
0000
0110
0000
0000
0010
0000
0000
0100
0000
,
0000
0001
1000
0010
,
0100
0000
0000
0000
0001
0000
0000
0000
1001
0000
0000
1000
0000
0000
0001
0000
,
0000
0010
1000
0100
,
0001
0000
0000
0000
0100
0000
0000
0000
0010
0000
0000
1000
0000
0000
1100
0000
,
0000
1000
0001
1000
,
0010
0000
0000
0000
0100
0000
0000
0000
0001
0000
0000
0100
0000
0000
0011
0000
,
0000
0000
0001
0000
0000
0100
0000
0000
0010
0000
0000
0000
1000
0000
0000
0000
,
0001
0001
1000
1000
,
0010
0100
0010
1001
,
0010
1000
0100
0001
,
0010
0100
0010
1001
,
0100
0001
0010
1000
,
0100
0001
0100
0110
,
1000
0001
0100
0010
,
1000
0100
0001
0101
,
0100
1100
1001
0101
,
0001
0011
1010
1001
,
0010
1010
1001
0101
,
0010
0101
1001
1010
,
1100
1100
0100
0100
,
0101
0101
0100
0100
,
0010
1000
0001
0010
,
0220
0000
0000
0000
0330
0000
0010
0100
,
0110
0000
0000
0000
;

//---------------dance-single - ----------------
#NOTES:
     dance-single:
     :
     Medium:
     10:
     0.467999,0.551878,0.327599,0.151200,0.117600,333.000000,39.000000,18.000000,0.000000,0.000000,0.000000,0.467999,0.551878,0.327599,0.151200,0.117600,333.000000,39.000000,18.000000,0.000000,0.000000,0.000000:
0000
0000
0000
0000
,
0000
0000
0000
0000
,
0000
0000
0000
0000
,
0000
0000
0000
0000
,
0000
0000
0000
0000
,
1000
0000
1000
0000
1000
0001
0100
0000
,
0010
0000
0010
0000
0100
0001
1000
0000
,
0001
0000
0001
0000
0001
0100
1000
0000
,
0020
0000
0230
0000
,
0301
0000
0000
0000
0001
0000
1000
0000
0010
0000
0000
1000
0000
0000
0000
0000
,
1000
0000
0000
0010
0000
0000
0100
0000
0000
0000
0001
0000
0000
0000
1000
0000
,
0001
0000
0100
0000
0010
0000
0000
0000
0001
0000
0000
1000
0000
0000
0000
0000
,
0010
0000
0000
1000
0000
0000
0100
0000
0000
0000
0001
0000
0100
0000
0000
0000
,
0010
0000
1000
0000
0100
0000
0000
0000
0001
0000
0000
0100
0000
0000
0000
0000
,
0001
0000
0000
0100
0000
0000
0010
0000
0000
0000
1000
0000
0001
0000
0100
0000
,
0010
0000
1000
0000
0001
0000
0000
0000
1000
0000
0000
0100
0000
0000
0000
0000
,
0010
0000
0000
0100
0000
0000
0001
0000
0000
0000
0010
0000
0000
0000
0100
0000
,
0010
0000
0000
0000
1100
0000
0000
0000
0001
0000
0000
1000
0000
0000
0000
0000
,
0001
0000
0000
1000
0000
0000
0010
0000
0000
0000
0000
0000
1001
0000
0000
0000
,
1000
0000
0001
0000
0100
0000
0000
0000
1000
0000
0000
0001
0000
0000
0000
0000
,
1000
0000
0000
0001
0000
0000
0100
0000
0000
0000
0010
0000
0100
0000
0000
0000
,
0001
0100
1000
0000
1000
0100
0001
0000
,
0010
1001
0010
1001
,
0001
0100
1000
0000
1000
0100
0001
0000
,
0100
1001
0100
1001
,
0010
1000
0100
0001
0200
0000
0000
0000
,
0320
0000
0000
0000
0000
0000
0000
0030
2000
0000
0000
0000
0000
0000
0000
0000
,
3001
0100
0010
0000
0002
0000
0203
0000
,
0320
0000
0000
0000
0000
0000
0000
0030
2000
0000
0000
0000
0000
0000
0000
0000
,
3001
0100
0010
1000
0002
0000
0000
0000
,
0203
0000
0000
0000
0000
0000
0000
0000
0320
0000
0000
0000
0000
0000
0000
0030
,
1000
0001
0100
0000
0020
0000
0230
0000
,
0302
0000
2000
3003
,
0010
1000
0010
1000
0001
0000
0000
0000
,
0001
0100
0001
0100
1000
0000
0000
0000
,
0010
0100
0010
0100
0010
0000
0000
0000
,
0001
1000
0001
1000
0001
0000
0000
0000
,
1000
0100
0010
0000
0100
0010
0001
0000
,
1001
0000
1001
0000
0001
0100
1000
0000
,
0010
0100
0001
0000
0010
0100
1000
0000
,
0010
0010
0000
1001
,
0001
0000
0000
0000
0010
0000
1000
0000
0100
0000
0000
0001
0000
0000
1100
0000
,
0000
0000
0010
0000
0000
1000
0000
0000
0001
0000
0000
0000
1001
0000
0000
0000
,
0010
0000
0000
0000
0100
0000
0001
0000
1000
0000
0000
0010
0000
0000
0100
0000
,
0000
0000
0000
0000
0001
0000
0000
0000
1000
0000
0000
1100
0000
0000
0000
0000
,
0001
0000
0000
0000
1000
0000
0010
0000
1000
0000
0000
0001
0000
0000
1000
0000
,
0000
0000
0010
0000
0000
1000
0000
0000
0001
0000
0000
0000
0100
0000
0000
0000
,
1000
0000
0000
0000
0100
0000
1000
0000
0001
0000
0000
0100
0000
0000
0010
0000
,
0000
0000
0001
0000
0000
1000
0000
0000
0010
0000
0000
0000
0011
0000
0000
0000
,
0001
0000
1000
0000
0001
0000
0000
0000
0010
0000
0000
1001
0000
0000
0100
0000
,
0000
0000
0001
0000
0000
1000
0000
0000
0010
0000
0000
0000
0000
0000
0000
0000
,
1001
0000
0000
0000
0010
0000
1000
0000
0001
0000
0000
0100
0000
0000
1001
0000
,
0000
0000
0010
0000
0000
1000
0000
0000
0001
0000
0000
0000
0000
0000
0000
0000
,
0010
0000
0000
0000
1000
0000
0001
0000
1001
0000
0000
1000
0000
0000
0001
0000
,
0000
0000
0010
0000
0000
0100
0000
0000
1000
0000
0000
0000
0011
0000
0000
0000
,
0001
1000
0001
0000
0100
0001
0010
1000
,
0000
0000
0000
0100
0000
0000
0010
0000
0100
0000
0010
0000
0100
0000
0000
0000
0000
0000
1001
0000
0000
0000
0000
0000
,
1100
1000
0010
1000
,
0001
0000
0001
0100
0001
0000
1001
0000
,
0001
0100
0010
1000
,
0100
0000
0001
1000
0001
0000
1010
0000
,
0001
1000
0100
0000
0001
0000
1010
0000
,
0001
1000
0100
0000
0001
0000
0101
0000
,
0010
1000
0001
0000
0001
0100
1000
0000
,
0001
1000
0100
0001
0100
0000
0000
0000
,
1100
0000
1100
0000
1000
0100
1000
0100
,
1001
0000
1001
0000
0001
0010
0001
0010
,
0011
0000
0011
0000
0010
1000
0010
1000
,
1010
0000
1010
0000
1000
0100
1000
0100
,
1100
0100
1100
0000
0100
0001
0100
0001
,
0101
0001
0101
0000
0001
1000
0001
1000
,
0001
0010
0100
0010
1000
0100
0001
0020
,
0200
0000
0000
0000
0330
0000
1001
1001
,
1001
0000
0000
0000
;

//---------------dance-single - ----------------
#NOTES:
     dance-single:
     :
     Hard:
     14:
     0.664798,0.766498,0.403199,0.218399,0.348599,480.000000,48.000000,26.000000,0.000000,0.000000,0.000000,0.664798,0.766498,0.403199,0.218399,0.348599,480.000000,48.000000,26.000000,0.000000,0.000000,0.000000:
0000
0000
0000
0000
,
0000
0000
0000
0000
,
0000
0000
0000
0000
,
0000
0000
0000
0000
,
0000
0000
0000
0000
,
1000
0100
1000
0100
1000
0001
1001
0000
,
0001
0100
0001
0100
0001
1000
1001
0000
,
0010
1000
0010
1000
0001
0100
0001
0100
,
2002
0000
3003
0110
,
0001
0000
0010
0000
0100
0000
1000
0000
1100
0000
0000
1000
0000
0000
1001
0000
,
0101
0000
0000
0010
0000
0000
0011
0000
0000
0000
0001
0000
0010
0000
0100
0000
,
1000
0000
0010
0000
0100
0000
0001
0000
0011
0000
0000
0001
0000
0000
0100
0000
,
0101
0000
0000
0001
0000
0000
1000
0000
0000
0000
0001
0000
0010
0000
1000
0000
,
0100
0000
0001
0000
0010
0000
0100
0000
1100
0000
0000
1000
0000
0000
1001
0000
,
0010
0000
0000
0101
0000
0000
0010
0000
0000
0000
0001
0000
0010
0000
1000
0000
,
0100
0000
0010
0000
0100
0000
0001
0000
0100
0000
0000
0101
0000
0000
0010
0000
,
1000
0000
0000
1010
0000
0000
1001
0000
0000
0000
0010
0000
1000
0000
0100
0000
,
0010
0000
0100
0000
0001
0000
0100
0000
0010
0000
0000
1100
0000
0000
1000
0000
,
0001
0000
1000
0001
0000
0000
0010
0000
0000
0000
1001
0000
0000
0000
0010
0000
,
0100
0000
0001
0000
1000
0000
0100
0000
0001
0000
0000
0101
0000
0000
0010
0000
,
1000
0000
0001
1000
0000
0000
0010
0000
0000
0000
0001
0000
0010
0000
1000
0000
,
0100
0000
0001
0000
0100
0000
0010
0000
0100
0000
1000
0100
0000
1000
0010
0000
,
0100
0000
0001
0100
0000
1000
0100
0000
0000
0000
0001
0000
0100
0010
0100
0000
,
1000
0000
0001
0000
0010
0000
1000
0000
0100
0000
0001
0100
0000
0010
0001
0000
,
1000
0000
0000
0000
0000
0000
0100
0000
1000
0000
0100
0000
1000
0000
0000
0000
0000
0000
0100
0000
0001
0000
0100
0000
0001
0000
0000
0000
0000
0000
0010
0000
0000
0000
0000
0000
0100
0000
0000
0001
0000
0000
1000
0000
0000
0010
0000
0000
,
0200
0000
2300
0000
,
3020
0000
0032
0203
,
2300
0000
3020
0000
,
0032
0000
0203
0302
,
0023
0000
2030
0000
,
3002
0000
0203
0320
,
2030
0000
3002
0000
,
0203
0000
0302
0023
,
1030
0100
1000
0100
1000
0001
1001
0000
,
0001
0100
0001
0100
0001
1000
1001
0000
,
0010
0100
0010
0100
0001
0010
1000
0000
,
0010
0100
0010
0100
1000
0100
0001
0000
,
0001
0100
0001
0100
0001
1000
0001
1000
,
0001
1000
0100
1000
0100
0001
0100
0001
,
0100
0010
0100
0010
0001
1000
0001
1000
0001
0010
0100
1000
0001
0010
0100
2000
,
0002
0000
0000
3003
,
1001
0000
0001
0000
1000
0000
0010
0000
1001
0000
0000
1001
0000
0000
0010
0000
,
0000
0000
1000
0000
0010
1000
0010
0000
0100
0000
0000
1001
0000
0000
0010
0000
,
0100
0000
0000
0000
0001
0000
0010
0000
0100
0000
0000
0011
0000
0000
1001
0000
,
0000
0000
0010
0000
1000
0001
0100
0000
0010
0000
0000
1000
0000
0000
1001
0000
,
0010
0000
0000
0000
0100
0000
1000
0000
0100
0000
0000
1100
0000
0000
1001
0000
,
0000
0000
0010
0000
1000
0001
0100
0000
0010
0000
0000
1000
0000
0000
1001
0000
,
0010
0000
0000
0000
0001
0000
0010
0000
0100
0000
0000
0001
0000
0000
1001
0000
,
0000
0000
0001
0000
0100
0010
1000
0000
0001
0000
0000
1100
0000
0000
1000
0001
,
1000
0000
0000
0000
0010
0000
1000
0000
1001
0000
0000
0010
0000
0000
0101
0000
,
0000
0000
0010
0000
0100
0001
1000
0000
0001
0000
0000
1000
0000
0000
0010
1000
,
0001
0000
0000
0000
1001
0000
0010
0000
0100
0000
0000
1001
0000
0000
0110
0000
,
0000
0000
0001
0000
0010
0100
0000
0100
0001
0000
0001
0000
1000
0010
0100
0001
,
0100
0000
0000
0000
1001
0000
0010
0000
1000
0000
0000
1100
0000
0000
1000
0000
,
0000
0000
0001
0000
1000
0010
0100
0001
0010
0100
0000
0100
1000
0000
0100
0000
,
1000
0001
0100
0010
0100
0001
0010
0100
,
0000
0000
0000
0000
0000
0000
0001
0000
0000
0010
0000
0000
0100
0000
0000
0000
1000
0000
0000
0000
0010
0000
0000
0000
0001
0000
0000
0000
0100
0000
0000
0000
0010
0000
0000
0000
0100
0000
0000
1000
0000
0000
0100
0000
0000
1000
0000
0000
,
0100
0010
1000
0001
1000
0010
1000
0001
,
1000
0100
0001
0100
0010
0100
1000
0100
,
0010
0100
0001
0010
0100
1000
0010
1000
,
0100
0001
0010
0100
0001
1000
1001
0000
,
0001
0100
0001
0100
0010
0100
1000
0100
,
0001
1000
0100
0001
0010
0100
0001
1000
,
0001
0010
0100
1000
0001
0100
0010
1000
,
0001
0010
0100
1000
0001
0010
0100
1000
0001
0100
0010
1000
0001
0100
0010
1000
,
0001
0010
0100
1000
0100
1000
1100
0000
,
1000
0100
0010
0100
0001
0010
0011
0000
,
0010
0100
0001
1000
0010
0100
1001
0000
,
0010
1000
0100
0001
0010
0100
1100
0000
,
1000
0001
1000
0001
0100
0010
0100
0010
,
0001
0100
1000
0010
0100
0001
0010
0100
,
0010
1000
0010
0100
0001
0100
1000
0010
0001
1000
0010
0100
0001
0100
0010
0200
,
0020
0000
0000
0000
0330
0000
1001
0110
,
1001
0000
0000
0000
;
