#TITLE:NEW SENSATION -もう、あなたしか見えない-;
#SUBTITLE:;
#ARTIST:SUPER HEROINE 彩香-AYAKA-;
#TITLETRANSLIT:D.- NEW SENSATION -MOU, ANATA SHIKA MIENAI-;
#SUBTITLETRANSLIT:;
#ARTISTTRANSLIT:SUPER HEROINE -AYAKA-;
#GENRE:beatmania IIDX;
#CREDIT:;
#BANNER:;
#BACKGROUND:;
#LYRICSPATH:;
#CDTITLE:;
#MUSIC:NEW SENSATION -MOU, ANATA SHIKA MIENAI-.ogg;
#OFFSET:-0.022800;
#SAMPLESTART:41.723213;
#SAMPLELENGTH:18.000000;
#SELECTABLE:YES;
#BPMS:0.000000=200.000000
;
#STOPS:
;
#BGCHANGES:0.000=NEW SENSATION -MOU, ANATA SHIKA MIENAI-.avi=1.000=0=0=0=StretchNoLoop====,
99999=-nosongbg-=1.000=0=0=0 // don't automatically add -songbackground-
;
#KEYSOUNDS:;
#ATTACKS:;

//---------------dance-single - ----------------
#NOTES:
     dance-single:
     :
     Hard:
     14:
     0.622770,0.701614,0.279249,0.093083,0.000000,562.000000,526.000000,36.000000,12.000000,0.000000,0.000000,0.622770,0.701614,0.279249,0.093083,0.000000,562.000000,526.000000,36.000000,12.000000,0.000000,0.000000:
// measure 0
0000
0000
0000
0000
,  // measure 1
0000
0000
0000
0000
,  // measure 2
0000
0000
0000
0000
,  // measure 3
0000
0000
0000
0000
,  // measure 4
0000
0000
0000
0000
,  // measure 5
0000
0000
0000
0000
,  // measure 6
0000
0000
0000
1001
,  // measure 7
0110
0000
0001
0000
0000
0000
0010
0100
,  // measure 8
1000
0001
0100
0000
0010
0000
1100
0000
,  // measure 9
1000
0000
1001
0000
0001
0000
0001
0100
,  // measure 10
0010
0100
0001
0000
0010
0000
0001
0010
,  // measure 11
0100
1000
0001
0010
0100
1000
0001
0010
,  // measure 12
0100
1000
0001
0010
0100
0000
1000
0100
,  // measure 13
0010
0001
1000
0100
0010
0001
1000
0100
,  // measure 14
0010
0001
1000
0100
0010
0000
0010
0100
,  // measure 15
0001
1000
0010
0100
0001
1000
0010
0100
,  // measure 16
0001
1000
0010
0100
0001
0000
0100
0010
,  // measure 17
1000
0001
0100
0010
1000
0001
0100
0010
,  // measure 18
1000
0001
0100
0010
1000
0000
0001
0000
,  // measure 19
0001
0000
1000
0000
1000
0000
0010
1000
,  // measure 20
0010
0000
0001
0100
0001
0000
0001
0000
,  // measure 21
0010
0000
1000
0000
0100
0000
0001
0100
,  // measure 22
0001
0000
0100
1000
0100
0000
0010
0000
,  // measure 23
1000
0000
0100
0000
0001
0000
0001
1000
,  // measure 24
0001
0000
0010
0100
0010
0000
0001
0010
,  // measure 25
0100
0000
0010
1000
0100
0000
0010
1000
,  // measure 26
0100
0001
0010
0100
0001
0000
0011
0000
,  // measure 27
1000
0000
0100
0010
1000
0000
0001
0000
,  // measure 28
0100
1000
0010
1100
,  // measure 29
1000
0000
0010
1000
0001
0000
0001
0010
,  // measure 30
1000
0100
0010
0100
0001
0000
0001
0100
,  // measure 31
0010
0000
0010
0100
1000
0000
0010
1000
,  // measure 32
0100
0000
0010
0100
0001
0000
0010
0100
,  // measure 33
0001
0100
0010
1000
0100
0000
2100
0000
,  // measure 34
0000
0100
3100
0001
,  // measure 35
1001
0000
1001
0000
0010
1000
0100
0010
,  // measure 36
0100
0001
0010
0000
0100
0000
1000
0000
,  // measure 37
1100
1000
1000
0110
,  // measure 38
0001
0010
0100
1001
,  // measure 39
0010
0000
1000
0001
0010
1000
0100
0000
,  // measure 40
0001
0000
1001
0000
1000
0001
0010
0000
,  // measure 41
0001
0100
0000
0011
0000
1100
0000
1000
,  // measure 42
0000
0100
0010
0100
0001
0010
0100
1000
,  // measure 43
0010
1000
0010
0000
0100
0000
0001
0100
,  // measure 44
0010
0100
0010
0000
0001
0000
1000
0010
,  // measure 45
0100
0001
0010
0100
0000
0011
0000
0001
,  // measure 46
0100
0000
0010
0100
0001
0000
0001
1000
,  // measure 47
0100
0010
0100
0001
0010
0000
0001
0010
,  // measure 48
0100
1000
0010
1000
0100
0000
0010
1000
,  // measure 49
0001
0000
0001
1000
0100
0000
0001
0100
,  // measure 50
0010
1000
0001
0000
0010
0000
0020
0000
,  // measure 51
0100
0000
0100
0000
,  // measure 52
1000
0000
1000
0032
,  // measure 53
1000
0000
1000
0000
,  // measure 54
0010
0000
0010
0203
,  // measure 55
0010
0000
0010
0000
,  // measure 56
1000
0000
1000
2300
,  // measure 57
0100
0000
0100
0000
,  // measure 58
0001
0000
0001
3020
,  // measure 59
0230
0320
0230
0302
,  // measure 60
2003
0002
3003
0001
,  // measure 61
0001
1100
0000
1000
,  // measure 62
1000
0000
0011
0000
0000
0000
0001
0010
,  // measure 63
1000
0000
1000
0100
0001
0000
0001
0100
,  // measure 64
1000
0010
1000
0001
0010
0000
1000
0000
,  // measure 65
1000
1100
0000
0001
,  // measure 66
0001
0000
0101
0000
0000
0000
0001
0010
,  // measure 67
1000
0000
1000
0100
0001
0000
0001
0010
,  // measure 68
0100
1000
0010
0100
0001
0000
0010
0100
,  // measure 69
0010
0100
0001
1000
0001
1000
0001
0010
,  // measure 70
0100
1000
0001
0010
0100
1000
0010
1000
,  // measure 71
0010
1000
0001
0100
0001
0100
1000
0100
,  // measure 72
0010
0001
1000
0100
0010
0001
0100
0010
,  // measure 73
0100
0000
0001
1000
0001
0000
0001
0100
,  // measure 74
0010
0000
0010
1000
0100
0000
0010
0100
,  // measure 75
0001
0100
0000
0011
0000
1010
0000
0001
,  // measure 76
1000
0000
0010
1000
0100
0000
0001
0100
,  // measure 77
0001
0100
0010
0100
0010
0100
0001
0010
,  // measure 78
0100
1000
0001
0010
0100
1000
0010
1000
,  // measure 79
0010
1000
0001
1000
0001
0100
1000
0100
,  // measure 80
0010
0001
1000
0100
0010
0001
1000
0010
,  // measure 81
1000
0000
0001
0100
0001
0000
0010
0100
,  // measure 82
0010
0000
0001
1000
0001
0000
0001
0010
,  // measure 83
0100
1000
0010
1000
0100
0000
1100
0000
,  // measure 84
1000
1001
0000
0011
,  // measure 85
1100
0000
1001
0000
0000
0000
0010
1000
,  // measure 86
0100
0001
0100
0000
0001
0000
1000
0010
,  // measure 87
1000
0001
1000
0001
0010
0100
1000
0001
,  // measure 88
1000
0010
1000
0011
,  // measure 89
1000
0000
1001
0000
0000
0000
0010
1000
,  // measure 90
0100
0001
0100
0000
0010
0000
0001
0010
,  // measure 91
0100
0000
0010
1000
0100
0000
0010
0100
,  // measure 92
0001
0010
0100
1000
0100
0000
1100
0000
,  // measure 93
1000
0000
1001
0000
0001
1000
0010
1000
,  // measure 94
0100
0001
0100
0000
0010
0000
1000
0010
,  // measure 95
1000
0010
0100
0010
0100
0010
0100
0001
,  // measure 96
0100
0001
0100
0010
0001
0010
0011
0000
,  // measure 97
1001
0000
1010
0000
0100
0000
1001
0100
,  // measure 98
0010
0001
1000
0001
0010
0100
1000
0100
,  // measure 99
0010
0100
0001
0010
0100
1000
0000
0010
,  // measure 100
1000
0100
0001
0000
1001
0000
0000
0000
;

//---------------dance-single - ----------------
#NOTES:
     dance-single:
     :
     Medium:
     10:
     0.448794,0.662636,0.255979,0.124111,0.000000,405.000000,372.000000,33.000000,16.000000,0.000000,0.000000,0.448794,0.662636,0.255979,0.124111,0.000000,405.000000,372.000000,33.000000,16.000000,0.000000,0.000000:
0000
0000
0000
0000
,
0000
0000
0000
0000
,
0000
0000
0000
0000
,
0000
0000
0000
0000
,
0000
0000
0000
0000
,
0000
0000
0000
0000
,
0000
0000
0000
1000
,
1000
1100
0000
0001
,
0001
0101
0000
0001
,
1000
0100
0010
0000
,
0010
0000
1000
0000
0000
0000
0001
1000
,
0001
0000
0010
0100
0010
0000
0001
1000
,
0001
0000
0010
0100
0010
0000
1000
0001
,
1000
0000
0100
0010
0100
0000
1000
0001
,
1000
0000
0100
0010
0100
0000
1000
0100
,
0010
0000
0100
0010
0001
0000
1000
0100
,
0010
0000
0100
0010
0001
0000
0001
0010
,
0100
0000
0010
0100
1000
0000
0001
0010
,
0100
0000
0010
0100
1000
0000
0001
0000
,
0001
1000
1000
0010
,
0010
0000
0100
0000
0100
0000
0001
0100
,
0001
0000
0100
1000
0100
0000
1000
0000
,
0100
0010
1000
0001
,
0010
0010
0100
0001
,
0010
0000
1000
0000
0100
0000
1000
0010
,
1000
0000
0001
0010
0001
0000
0010
0000
,
1000
0100
0000
0001
,
0001
0100
0100
0010
,
1000
0100
0000
1000
,
1000
0010
0010
0100
,
0001
0010
0000
0011
,
1000
0100
0001
0010
,
0100
1000
0010
1100
,
1000
0010
0100
0002
,
0000
0000
0100
0000
0100
0003
0010
0000
,
0010
0100
0000
1000
,
1000
0001
0000
0001
,
0010
0000
0100
0000
1000
0000
0100
0100
,
0010
0010
1000
0001
,
0010
1000
0100
0010
,
1000
0000
0001
0000
0100
0000
0001
0001
,
0100
0000
1000
0000
0100
0000
1000
1000
,
0100
0010
1000
1001
,
0110
1001
0000
0011
,
1000
0100
0001
0010
,
0100
1000
0100
1001
,
0110
1001
0000
1100
,
1000
0010
1000
0100
,
0001
0000
0010
0000
0100
0000
1000
0100
,
1000
0000
0100
1000
0100
0000
0010
0100
,
0010
0100
0002
0000
0000
0000
0203
0000
,
0000
0000
0000
0320
,
0000
0000
0000
2030
,
0000
0000
0000
3002
,
0000
0000
0000
0203
,
0000
0000
0000
0320
,
0000
0000
0000
2030
,
0000
3200
0000
0320
,
0000
0032
0000
2003
,
0000
3002
0000
0023
,
0000
0230
0000
0301
,
0001
0100
0000
1000
,
1000
0100
0000
1000
,
0100
0000
0010
0000
0001
0000
0010
0001
,
0010
0001
0010
0000
0000
0000
0001
0000
,
0010
1000
0000
1000
,
0100
0001
0000
1000
,
0010
0000
0001
0000
0100
0000
1000
0100
,
1000
0100
1000
0000
0000
0000
0010
0000
,
0010
0000
1000
0000
1000
0000
0001
1000
,
0001
1000
0001
0000
0010
0000
0100
0000
,
1000
0001
0010
1000
,
0100
0000
0010
0100
0010
0100
0010
0000
,
0001
0010
1000
0100
,
0001
0100
1000
1100
,
1000
0010
1000
0011
,
0000
1001
1001
0010
,
1000
0000
0100
0000
0001
0000
0010
0100
,
0010
0100
0001
0000
0010
0000
1000
0000
,
0100
0000
0001
0000
0010
0000
0100
0010
,
0100
0010
1000
0000
1000
0000
0100
0000
,
0010
1000
0001
0100
,
0010
1000
0001
1001
,
0010
1001
0100
1001
,
1100
0101
0000
0001
,
0001
0000
0100
0000
0100
0000
0010
1000
,
0010
1000
0001
0000
0000
0000
0010
0000
,
0010
0000
1000
0000
1000
0000
0100
0001
,
0100
0001
0010
0000
0000
0000
0001
0000
,
0001
0000
1000
0000
1000
0000
0010
1000
,
0100
0001
0000
0010
,
0100
0000
0001
0000
0010
0000
0100
0001
,
0010
1000
0000
1000
,
1000
0000
0010
0000
0010
0000
0100
0001
,
0100
0010
1000
0000
0000
0000
1000
0000
,
1000
0001
0001
0010
,
0100
1000
0001
0011
,
0011
0110
0110
1100
,
1100
1001
1001
0010
,
1000
0000
0100
0000
0001
0000
1001
0100
,
1001
0110
1001
0000
;

//---------------dance-single - ----------------
#NOTES:
     dance-single:
     :
     Easy:
     7:
     0.312493,0.545700,0.279249,0.380089,0.000000,282.000000,246.000000,36.000000,49.000000,0.000000,0.000000,0.312493,0.545700,0.279249,0.380089,0.000000,282.000000,246.000000,36.000000,49.000000,0.000000,0.000000:
0000
0000
0000
0000
,
0000
0000
0000
0000
,
0000
0000
0000
0000
,
0000
0000
0000
0000
,
0000
0000
0000
0000
,
0000
0000
0000
0000
,
0000
0000
0000
1000
,
0100
1100
0000
0001
,
0100
0101
0000
0001
,
0010
0011
0000
1000
,
1000
1010
0000
0002
,
0000
0203
0000
0320
,
0000
2030
0000
3200
,
0000
0320
0000
0032
,
0000
0203
0000
0320
,
0000
2030
0000
3200
,
0000
0320
0000
0032
,
0000
0203
0000
0320
,
0000
2030
0000
3001
,
0000
0001
0000
1000
,
0000
1000
0000
0010
,
0010
0100
0000
1000
,
1000
0001
0000
0010
,
0000
0010
0000
0100
,
0000
0100
0000
0001
,
0001
0010
0000
1000
,
1000
0010
0000
0001
,
0000
0100
0000
1000
,
0100
0001
0000
1000
,
0000
0100
0000
0001
,
0100
1000
0000
0010
,
0010
0100
0000
1000
,
1000
0001
0000
0001
,
0010
0100
1000
2100
,
0000
0000
0000
3100
,
0100
0010
0000
0001
,
0001
1000
0000
0001
,
0100
1000
0100
0001
,
0010
1000
0010
0002
,
0000
0103
0000
2000
,
0000
3100
0000
0010
,
0010
0100
0100
0001
,
0001
1000
1000
0020
,
1000
0130
0000
0200
,
0001
0310
0000
0001
,
0001
1000
0000
0010
,
0010
0100
0000
2000
,
0000
3100
0000
0002
,
0000
0103
0000
0010
,
1000
0100
0001
2002
,
0000
0000
0003
0200
,
0000
0000
0000
0000
,
0000
0000
3000
0002
,
0000
0000
0000
0000
,
0000
0000
0300
0020
,
0000
0000
0000
0000
,
0000
0000
0003
2000
,
0000
0000
0000
0000
,
0000
0000
0030
0200
,
0000
3000
0000
0002
,
0000
0000
0300
0013
,
0000
0010
0000
0100
,
0000
0100
0000
1000
,
0000
1000
0000
0001
,
0000
0001
0000
0200
,
0000
2300
0000
3020
,
0000
0032
0000
0203
,
0320
2030
3002
0023
,
0230
2300
0000
3010
,
0010
1000
0000
0100
,
0100
0001
0000
0001
,
0100
0010
1000
0100
,
0100
0010
0000
0001
,
0100
1000
0000
1000
,
0100
0001
0000
0010
,
1000
0100
0001
0011
,
0000
1001
1001
0021
,
1030
0100
0000
1200
,
0301
0010
0000
1000
,
0010
0100
0001
0010
,
1000
0100
0000
0201
,
1000
1300
0000
1200
,
0001
0301
0000
0010
,
0010
1000
1000
0001
,
0001
0200
0000
0310
,
0010
1100
0000
1000
,
1000
0011
0000
0001
,
0001
0100
0100
1001
,
1001
0110
0000
0001
,
0001
1100
0000
1000
,
1000
1001
0000
0010
,
0010
1000
1000
1001
,
1001
0110
0000
0002
,
0100
1003
0000
2000
,
0100
3001
0000
0010
,
0010
0100
0100
1001
,
1001
0110
0000
0011
,
0011
1100
0000
1010
,
1010
0101
0000
0001
,
0010
0100
1000
1001
,
1001
0110
1001
0000
;

//---------------dance-single - ----------------
#NOTES:
     dance-single:
     :
     Beginner:
     4:
     0.140733,0.194408,0.015514,0.031028,0.000000,127.000000,125.000000,2.000000,4.000000,0.000000,0.000000,0.140733,0.194408,0.015514,0.031028,0.000000,127.000000,125.000000,2.000000,4.000000,0.000000,0.000000:
0000
0000
0000
0000
,
0000
0000
0000
0000
,
0000
0000
0000
0000
,
0000
0000
0000
0000
,
0000
0000
0000
0000
,
0000
0000
0000
0000
,
0000
0000
0000
1000
,
0000
1000
0000
0001
,
0000
0001
0000
1000
,
0000
1000
0000
0001
,
0000
0001
0000
1000
,
0000
1000
0000
1000
,
0000
1000
0000
0001
,
0000
0001
0000
0001
,
0000
0001
0000
1000
,
0000
1000
0000
1000
,
0000
1000
0000
0001
,
0000
0001
0000
0001
,
0000
0001
0000
1000
,
0000
1000
0000
0001
,
0000
0000
0000
0001
,
0000
0001
0000
1000
,
0000
0000
0000
0100
,
0000
0100
0000
0010
,
0000
0000
0000
0010
,
0000
0010
0000
0100
,
0000
0000
0000
1000
,
0000
1000
0000
0001
,
0000
0001
0000
1000
,
0000
1000
0000
0001
,
0000
0000
0000
0001
,
0000
0001
0000
1000
,
0000
1000
0000
0001
,
0000
0001
0000
1000
,
0000
0000
0000
0010
,
0000
0010
0000
0100
,
0000
0000
0000
0100
,
0000
0100
0000
0010
,
0000
0000
0000
1000
,
0000
0000
0000
0001
,
0000
0000
0000
1000
,
0000
0000
0000
0001
,
0000
0000
0000
0010
,
0000
0010
0000
0100
,
0000
0000
0000
0100
,
0000
0100
0000
0010
,
0000
0000
0000
1000
,
0000
0000
0000
0001
,
0000
0000
0000
1000
,
0000
0000
0000
0001
,
0000
0000
0000
0200
,
0000
0000
0000
0000
,
0000
0000
0000
0300
,
0000
0000
0000
0000
,
0000
0000
0000
0020
,
0000
0000
0000
0000
,
0000
0000
0000
0030
,
0000
0000
0000
0000
,
0000
0000
0000
0000
,
0002
0000
0000
2000
,
0000
0003
0000
3001
,
0000
0000
0000
0000
,
0000
0000
0000
1000
,
0000
0000
0000
0000
,
0000
0000
0000
0110
,
0000
0000
0000
0001
,
0000
0000
0000
1000
,
0000
0000
0000
0001
,
0000
0000
0000
1000
,
0000
1000
0000
0001
,
0000
0000
0000
0001
,
0000
0001
0000
1000
,
0000
0000
0000
0010
,
0000
0000
0000
0010
,
0000
0000
0000
0100
,
0000
0000
0000
0100
,
0000
0000
0000
1000
,
0000
1000
0000
0001
,
0000
0000
0000
0001
,
0000
0001
0000
1000
,
0000
0000
0000
0010
,
0000
0000
0000
0010
,
0000
0000
0000
0100
,
0000
0000
0000
0100
,
0000
0000
0000
1000
,
0000
0100
0000
0001
,
0000
0000
0000
0001
,
0000
0100
0000
1000
,
0000
0000
0000
0001
,
0000
0010
0000
1000
,
0000
0000
0000
1000
,
0000
0010
0000
0001
,
0000
0000
0000
0100
,
0000
0010
0000
0001
,
0000
0000
0000
1000
,
0000
0100
0000
0010
,
0000
0000
0000
0001
,
0000
0100
0000
1000
,
0000
0000
0000
1000
,
0000
0100
0000
0001
,
0000
1001
0000
0000
;
